#TITLE:Blackout;
#SUBTITLE:;
#ARTIST:The Flashbulb;
#TITLETRANSLIT:;
#SUBTITLETRANSLIT:;
#ARTISTTRANSLIT:;
#CREDIT:;
#BANNER:;
#BACKGROUND:;
#LYRICSPATH:;
#CDTITLE:ninjaTitle[1].png;
#MUSIC:12 Blackout.mp3;
#OFFSET:-0.087;
#SAMPLESTART:41.734;
#SAMPLELENGTH:12.000;
#SELECTABLE:YES;
#BPMS:0.000=72.000;
#STOPS:;
#BGCHANGES:;
// cache tags:
#FIRSTBEAT:0.000;
#LASTBEAT:96.000;
#SONGFILENAME:Songs/new/Blackout/blackout.sm;
#HASMUSIC:1;
#HASBANNER:0;
#MUSICLENGTH:85.838;
// end cache tags

//---------------dance-single - Blank----------------
#NOTES:
     dance-single:
     Blank:
     Challenge:
     9:
     0.544,0.517,0.548,1.000,0.023,194.000,47.000,86.000,0.000,1.000:

1002
0003
0010
0000
0100
0000
0001
0000
0010
0000
0100
0000
0001
0000
0010
1100
,
2200
3300
0010
0101
0202
0303
0010
1100
2200
3300
0010
0000
0001
0000
2020
3030
,
0100
0010
0100
0001
0100
0022
0133
1000
,
0001
0000
0010
0000
2200
3300
0022
0033
0100
0000
0010
0000
0001
0000
1000
0000
,
0010
0000
0202
0303
0010
0000
1000
0000
0001
0000
1000
0000
0220
0330
0000
1010
,
0022
0033
0100
0000
1000
0000
0001
0000
1000
0000
0010
0000
0100
0000
1000
0000
,
0001
0000
1000
0000
0100
0000
0022
0033
2020
3030
0100
0000
1000
0000
0100
0000
,
0010
0000
0001
0000
0220
0330
0001
0000
0100
0000
0001
0000
1000
0000
0100
0000
,
2002
3003
0100
0000
0010
0000
0202
0303
0010
0000
2200
3300
2002
3003
0100
0000
,
1000
0000
0100
0000
0001
0000
0010
0000
2002
3003
0010
0000
0100
0000
1000
0000
,
0001
0000
0220
0330
0022
0033
1000
0000
0100
0000
0010
0000
0001
0000
2200
3300
,
0220
0330
0001
0000
1000
0000
0100
0000
0010
0000
0202
0303
0022
0033
0100
0000
,
1000
0100
0001
0010
0100
0001
0100
1000
,
0100
0000
0010
0000
0202
0303
1000
0000
0010
0000
0001
0000
1000
0000
0100
0000
,
2002
3003
0010
0000
0100
0000
1000
0000
0010
0000
0001
0000
2020
3030
0100
0000
,
0001
0000
0100
0000
0010
0000
0001
0000
0220
0330
0001
0000
1000
0000
0100
0000
,
2002
3003
2002
3003
2002
3003
0010
0000
0100
0000
0001
0000
1000
0000
0001
0000
,
2200
3300
0010
0000
0001
0000
0100
0000
0010
0000
1000
0000
0202
0303
0010
0000
,
0001
0000
1000
0000
0010
0000
0100
0000
2020
3030
0001
0000
0010
0000
0001
0000
,
0100
0000
0001
0000
0220
0330
1000
0000
0100
0000
0010
0000
0001
0000
0100
0000
,
2020
3030
0100
0000
0001
0000
1000
0000
0100
0000
0010
0000
0202
0303
1000
0000
,
0001
0000
0220
0330
0001
0000
0100
0000
2020
3030
0100
0000
0001
0000
0010
0000
,
0100
0000
1000
0000
0220
0330
0001
0000
0100
0000
2020
3030
0100
0000
0010
0000
,
2002
3003
0100
0000
0010
0000
1000
0000
0001
0000
0100
0000
0020
0000
0000
0000
,
0030
0000
0000
0000
;

//---------------dance-single - Expert----------------
#NOTES:
     dance-single:
     Expert:
     Hard:
     8:
     0.398,0.363,0.012,0.513,0.023,194.000,1.000,44.000,0.000,0.000:

1002
0000
0013
0000
1000
0000
0001
0000
0010
0000
0100
0000
0001
0000
0010
1000
,
2000
0000
3100
0001
0002
0000
0013
1000
2000
0000
3010
0000
0001
0000
0020
0000
,
0130
0010
0100
0001
0100
0002
0103
1000
,
0001
0010
2000
3002
0103
0010
0001
1000
,
0010
0000
0200
0000
0310
0000
1000
0000
0001
0000
1000
0000
0020
0000
0030
1000
,
0002
0103
1000
0001
1000
0010
0100
1000
,
0001
1000
0100
0002
2003
3100
1000
0010
,
0100
0001
0020
1030
0100
0001
1000
0100
,
0002
1003
0010
0002
0103
0020
2030
3010
,
0100
1000
0001
0100
0002
0013
0100
1000
,
0001
0200
0302
1003
0100
0010
0001
0200
,
0320
1030
0001
1000
0010
0002
0023
0130
,
1000
0100
0001
0010
0100
0001
0010
1000
,
0100
0010
0200
1300
0010
0001
1000
0100
,
0002
0013
0100
1000
0010
0001
2000
3100
,
0001
0100
0010
0001
0200
0301
1000
0100
,
0020
0030
0020
0030
0020
0030
1000
0000
0100
0000
0001
0000
1000
0000
0001
0000
,
0200
0310
0001
0100
0010
1000
0200
0310
,
0001
1000
0010
0100
2000
3001
0010
0001
,
0100
0001
0020
1030
0100
0010
0001
0100
,
2000
3010
0001
1000
0010
1000
0002
0103
,
1000
0000
0020
0000
0031
0000
0100
0000
0020
0030
1000
0000
0001
0000
0010
0000
,
0100
1000
0020
0031
0100
2000
3100
0010
,
0002
0103
0010
1000
0001
0100
0020
0000
,
0030
0000
0000
0000
;
