#TITLE:Long Invulnerability;
#SUBTITLE:;
#ARTIST:XKirby;
#TITLETRANSLIT:;
#SUBTITLETRANSLIT:;
#ARTISTTRANSLIT:;
#CREDIT:;
#BANNER:../bn.png;
#BACKGROUND:../bg.png;
#LYRICSPATH:;
#CDTITLE:;
#MUSIC:Long Invulnerability.ogg;
#OFFSET:-0.757;
#SAMPLESTART:103.600;
#SAMPLELENGTH:18.480;
#SELECTABLE:YES;
#DISPLAYBPM:210.000;
#BPMS:0.000=210.000;
#STOPS:;
#BGCHANGES:;
// cache tags:
#FIRSTBEAT:8.000;
#LASTBEAT:716.125;
#SONGFILENAME:Songs/Cirque du Zonda/Zaia - Long Invulnerability/Long Invulnerability.sm;
#HASMUSIC:1;
#HASBANNER:1;
#MUSICLENGTH:206.497;
// end cache tags

//---------------dance-single - Zaia - 17.5----------------
#NOTES:
     dance-single:
     Zaia - 17.5:
     Challenge:
     17:
     1.000,1.000,0.000,0.140,1.000,2061.000,0.000,29.000,3.000,0.000:
0000
0000
0000
0000
,
0000
0000
0000
0000
,
1000
0000
0001
0000
0100
0010
0100
0001
,
0000
0000
1000
0100
1000
0001
0010
0100
,
1000
0000
0001
0000
0010
0000
0001
1000
,
0000
0010
0000
0100
0000
0010
1000
0000
,
0001
0000
1000
0000
0100
0010
0000
0000
,
0001
0000
0000
1000
0000
0010
0100
0000
,
0001
0000
0100
0000
0010
0100
0000
0000
,
0001
0000
1000
0100
0000
0010
0000
0000
,
0001
0100
0001
1000
0100
0010
0001
0100
,
0001
1000
0010
0100
0001
1000
0001
0010
,
0100
1000
0010
1000
0001
0100
0010
1000
,
0100
1000
0001
0010
0100
1000
0001
1000
,
0010
0100
0001
0100
0010
1000
0100
1000
,
0010
1000
0001
0010
0100
1000
0100
0010
,
0002
0000
2003
0000
3020
0230
0000
0300
,
0002
0000
0000
0000
2003
0000
3010
0000
0100
0001
0100
0001
1000
0000
0100
0000
,
0010
0001
1000
0020
0000
0230
0000
0000
,
0301
1000
0010
0200
0000
0302
0000
0000
,
1003
0100
0010
0100
1000
0001
0010
0100
,
1000
0010
0100
0010
1000
0001
0010
0100
,
2000
0000
0000
3002
0000
0000
0023
0000
,
0230
0000
0000
2300
0000
0000
3002
0000
,
0203
0000
0310
2000
0000
3002
0000
0013
,
0200
0000
2300
0000
3002
0000
0103
0010
,
1000
0001
0100
0010
0000
1000
0100
0010
,
0002
0000
2003
0000
,
3010
0100
0001
1000
0000
0100
0010
0001
,
2000
0000
3020
0000
,
0130
0000
0001
1000
0000
0100
0010
0000
,
0001
0000
1000
0010
0000
1000
0001
0000
,
1000
0001
0010
0100
1000
0001
1000
0010
0100
0010
1000
0001
0010
0001
1000
0001
,
1000
0000
0100
0000
0010
0000
0100
0000
1000
0000
0010
0000
0100
0000
0001
0000
1000
0000
0100
0000
0010
0000
0001
0000
2000
0000
0000
0000
0000
0000
0000
3000
,
0001
0000
1000
0000
0010
0100
0010
0000
1000
0000
0100
0010
0100
0000
1000
0000
,
0001
0010
0100
0000
1000
0000
0001
0000
1000
0000
0010
0000
0100
0000
0001
0000
,
0100
0000
0010
0000
1000
0001
1000
0000
0100
0000
1000
0001
1000
0000
0100
0000
,
0010
0001
1000
0010
0100
0001
1000
0001
,
1000
0000
0010
0000
0100
0001
0100
0000
0010
0000
0100
0001
0100
0000
0010
0000
,
1000
0100
0010
0000
0001
0000
1000
0000
0001
0000
0010
0000
0001
0000
0100
0000
,
0010
0000
1000
0000
0001
0010
0001
0000
1000
0000
0001
0010
0001
0000
0100
0000
,
0010
1000
0100
1000
0010
0100
0001
0010
,
0100
0000
1000
0000
0010
0100
0010
0000
1000
0000
0100
0010
0100
0000
1000
0000
,
0001
1000
0010
0000
0100
0000
0001
0000
1000
0000
0100
0000
0010
0000
0001
0000
,
1000
0000
0001
0000
1000
0100
1000
0000
0001
0000
1000
0100
1000
0000
0010
0000
,
0100
0001
0100
0010
1000
0001
0010
0100
,
1000
0000
0001
0000
0100
0010
0100
0000
0001
0000
0010
0100
0010
0000
0001
0000
,
1000
0010
0100
0000
0001
0000
1000
0000
0100
0000
0010
0000
0100
0000
1000
0000
,
0001
0000
0100
0000
0010
1000
0010
0000
0100
0000
0010
1000
0010
0000
1000
0000
,
0001
0010
0100
1000
0010
0100
0001
0000
,
1000
0100
0010
0001
1000
0100
1000
0001
0100
0010
1000
0001
0010
0001
1000
0100
,
0010
0100
1000
0001
0010
0100
1000
0001
0100
0010
1000
0001
0010
0001
1000
0001
,
0100
0010
0100
0001
1000
0010
1000
0001
0010
0100
1000
0001
0100
0010
0100
0001
,
1000
0010
0100
0001
0100
0010
1000
0001
0010
0100
1000
0001
0100
0010
0100
0001
,
1000
0001
0010
0100
1000
0001
0010
0001
1000
0010
0100
0001
1000
0100
1000
0001
,
0010
0100
1000
0001
1000
0100
0010
0100
1000
0001
0100
0010
1000
0001
0010
0001
,
1000
0010
0100
0001
1000
0010
1000
0001
1000
0100
0010
0001
1000
0010
0100
0001
,
1000
0001
0100
0010
1000
0001
0100
0001
1000
0100
0010
0001
1000
0010
0100
0001
,
1000
0100
0010
0001
1000
0100
1000
0001
0100
0010
1000
0001
0010
0001
1000
0100
,
0010
0100
1000
0001
0010
0100
1000
0001
0100
0010
1000
0001
0010
0001
1000
0001
,
0100
0010
0100
0001
1000
0010
1000
0001
0010
0100
1000
0001
0100
0010
0100
0001
,
1000
0010
0100
0001
0100
0010
1000
0001
0010
0100
1000
0001
0100
0010
0100
0001
,
1000
0001
0010
0100
1000
0001
0010
0001
1000
0010
0100
0001
1000
0100
1000
0001
,
0010
0100
1000
0001
1000
0100
0010
0100
1000
0001
0100
0010
1000
0001
0010
0001
,
1000
0010
0100
0001
1000
0010
1000
0001
1000
0100
0010
0001
1000
0010
0100
0001
,
1000
0001
0100
0010
1000
0001
0100
0001
1000
0100
0010
0001
1000
0010
0100
0001
,
1000
0010
1000
0001
1000
0100
0010
0100
1000
0010
0100
0001
1000
0010
1000
0001
,
0010
0001
1000
0100
0010
0100
1000
0001
1000
0010
1000
0001
0010
0001
1000
0010
,
0100
0001
1000
0100
0010
0001
1000
0010
1000
0001
0010
0001
0100
0010
1000
0001
,
1000
0100
0010
0001
0100
0010
1000
0001
0010
0100
0010
0001
1000
0001
0100
0010
,
1000
0001
0010
0100
1000
0001
0100
0001
0010
0100
1000
0001
1000
0010
0100
0001
,
1000
0010
0100
0010
1000
0001
0010
0100
1000
0001
1000
0010
0100
0001
1000
0010
,
1000
0001
0010
0100
0010
0001
1000
0010
0100
0001
0010
0100
0010
0001
1000
0010
,
1000
0001
0100
0010
0100
0001
1000
0100
1000
0001
0010
0100
1000
0001
1000
0010
,
0100
0010
1000
0001
1000
0100
0010
0100
1000
0010
0100
0001
1000
0010
1000
0001
,
0010
0001
1000
0100
0010
0100
1000
0001
1000
0010
1000
0001
0010
0001
1000
0010
,
0100
0001
1000
0100
0010
0001
1000
0010
1000
0001
0010
0001
0100
0010
1000
0001
,
1000
0100
0010
0001
0100
0010
1000
0001
0010
0100
0010
0001
1000
0001
0100
0010
,
1000
0001
0010
0100
1000
0001
0100
0001
0010
0100
1000
0001
1000
0010
0100
0001
,
1000
0010
0100
0010
1000
0001
0010
0100
1000
0001
1000
0010
0100
0001
1000
0010
,
1000
0001
0010
0100
0010
0001
1000
0010
0100
0001
0010
0100
0010
0001
1000
0010
,
1000
0001
0100
0010
0100
0001
1000
0100
1000
0001
0010
0100
2000
0000
0000
0000
,
3001
0100
0001
0100
0001
0100
0001
0100
,
0010
0000
0010
1000
0000
1000
0001
0000
,
0010
0100
0010
0100
0010
0100
0010
0100
,
1000
0000
1000
0100
0000
0100
0010
0000
,
0001
0010
0001
0010
0001
0010
0001
0010
,
0100
0000
0100
1000
0000
1000
0001
0000
,
1000
0010
1000
0010
1000
0010
1000
0010
,
0100
0001
1000
0100
0000
0010
0100
0000
,
1000
0100
0010
0001
0100
0010
1000
0001
1000
0100
0010
0001
0100
0010
1000
0001
,
1000
0100
0010
0001
0100
0010
1000
0001
1000
0100
0010
0001
0100
0010
1000
0001
,
1000
0010
0100
0001
0010
0100
1000
0001
1000
0010
0100
0001
0010
0100
1000
0001
,
1000
0010
0100
0001
0010
0100
1000
0001
1000
0010
0100
0001
0010
0100
1000
0001
,
1000
0010
0100
0001
1000
0100
1000
0001
1000
0010
0100
0001
1000
0100
1000
0001
,
0010
0100
1000
0001
1000
0010
1000
0001
0010
0100
1000
0001
1000
0010
0100
0001
,
1000
0100
0010
0001
1000
0010
1000
0001
1000
0100
0010
0001
1000
0010
1000
0001
,
1000
0100
0010
0001
0100
0010
1000
0001
1000
0100
0010
0001
0100
0010
0100
0001
,
1000
0010
1000
0010
1000
0001
1000
0100
0010
0001
1000
0001
0100
0010
1000
0001
,
1000
0010
1000
0010
1000
0001
1000
0100
0010
0001
1000
0001
0100
0010
1000
0100
,
0010
0001
0010
0001
0010
0001
1000
0001
0100
0010
1000
0001
1000
0010
1000
0100
,
0010
0001
0010
0001
0010
0001
1000
0001
0100
0010
1000
0001
1000
0010
0100
0001
,
0010
0100
1000
0100
1000
0001
1000
0010
0100
0001
1000
0100
0010
0100
1000
0001
,
0010
0100
1000
0100
1000
0001
1000
0010
0100
0001
1000
0100
0010
0100
1000
0001
,
0100
0010
0100
0010
1000
0001
0100
0001
1000
0100
0010
0100
1000
0001
0010
0001
,
0100
0010
0100
0010
1000
0001
0100
0001
1000
0100
0010
0100
1000
0001
0010
0001
,
1000
0010
0100
0001
1000
0100
1000
0001
0100
0001
0010
0100
1000
0001
1000
0010
,
0100
0010
1000
0001
0010
0100
1000
0001
0100
0001
0010
0100
1000
0001
1000
0010
,
0100
0001
1000
0001
0100
0010
1000
0001
0010
0001
0100
0001
1000
0010
1000
0001
,
0010
0001
0100
0001
1000
0010
1000
0001
0010
0001
0100
0001
1000
0100
0010
0100
,
1000
0010
0100
0001
1000
0001
0010
0100
1000
0010
0100
0001
1000
0001
0010
0100
,
1000
0010
0100
0001
1000
0001
0010
0100
1000
0010
0100
0001
1000
0001
0100
0010
,
1000
0100
0010
0001
1000
0001
0100
0010
1000
0100
0010
0001
1000
0001
0100
0010
,
1000
0100
0010
0001
1000
0001
0100
0010
1000
0100
0010
0001
1000
0001
0100
0010
,
1000
0001
1000
0010
0100
0001
1000
0100
1000
0001
1000
0010
0100
0001
1000
0100
,
1000
0001
0010
0100
0010
0001
1000
0010
0100
0001
1000
0010
0100
0010
1000
0001
,
1000
0100
0010
0001
1000
0010
0100
0001
1000
0100
0010
0001
1000
0010
0100
0001
,
1000
0100
1000
0001
0010
0100
1000
0001
1000
0010
0100
0001
1000
0100
1000
0001
,
0100
0010
1000
0001
1000
0100
0010
0100
1000
0010
1000
0001
1000
0100
0010
0100
,
1000
0010
1000
0001
1000
0100
0010
0100
1000
0010
1000
0001
0010
0100
0010
0001
,
1000
0010
0100
0001
1000
0001
0010
0100
1000
0001
1000
0010
0100
0010
1000
0001
,
1000
0100
1000
0001
0100
0010
1000
0001
0010
0100
1000
0001
0010
0100
0010
0001
,
1000
0010
0100
0001
1000
0010
0100
0010
1000
0001
0010
0100
0010
0001
1000
0010
,
0100
0001
0100
0010
1000
0001
1000
0010
1000
0001
0010
0100
1000
0001
0010
0001
,
1000
0010
0100
0001
1000
0100
1000
0001
1000
0010
0100
0001
1000
0100
1000
0001
,
1000
0010
0100
0001
1000
0100
1000
0001
1000
0010
0100
0001
1000
0100
1000
0001
,
1000
0100
0010
0001
1000
0001
0100
0010
1000
0001
0010
0001
1000
0010
1000
0001
,
0010
0100
1000
0001
1000
0010
0100
0001
1000
0100
1000
0001
0100
0001
1000
0100
,
0010
0100
1000
0001
1000
0010
0100
0001
1000
0010
1000
0001
0010
0001
1000
0010
,
1000
0001
0100
0010
0100
0001
1000
0010
1000
0001
0010
0100
1000
0001
1000
0001
,
1000
0010
0100
0001
1000
0010
1000
0001
0010
0100
1000
0001
0100
0001
1000
0010
,
0100
0010
1000
0001
0100
0010
1000
0001
0010
0100
1000
0001
0100
0001
1000
0001
,
0010
0100
0010
0001
1000
0100
1000
0001
0100
0010
1000
0001
0010
0100
0010
0001
,
1000
0100
0010
0001
0010
0100
1000
0001
0100
0010
1000
0001
0010
0100
0010
0001
,
1000
0001
0100
0010
1000
0001
0100
0001
1000
0100
0010
0001
1000
0010
1000
0001
,
0100
0010
1000
0001
1000
0010
0100
0010
1000
0001
0010
0100
1000
0001
0100
0001
,
1000
0100
0010
0001
1000
0100
1000
0001
1000
0010
0100
0001
1000
0100
0010
0001
,
1000
0001
0010
0100
1000
0001
0010
0001
1000
0010
0100
0001
1000
0100
0010
0001
,
1000
0010
0100
0001
1000
0010
1000
0001
0010
0100
1000
0001
0100
0001
1000
0010
,
0100
0010
1000
0001
0100
0010
1000
0001
0010
0100
1000
0001
0100
0001
1000
0001
,
0010
0100
0010
0001
1000
0100
1000
0001
0100
0010
1000
0001
0010
0100
0010
0001
,
1000
0100
0010
0001
0010
0100
1000
0001
0100
0010
1000
0001
0010
0100
0010
0001
,
1000
0001
0100
0010
1000
0001
0100
0001
1000
0100
0010
0001
1000
0010
1000
0001
,
0100
0010
1000
0001
1000
0010
0100
0010
1000
0001
0010
0100
1000
0001
0100
0001
,
1000
0100
0010
0001
1000
0100
1000
0001
1000
0010
0100
0001
1000
0100
0010
0001
,
1000
0001
0010
0100
1000
0001
0010
0001
1000
0010
0100
0001
1000
0100
0010
0001
,
1000
0100
1000
0100
1000
0100
1000
0100
,
0010
0000
0010
0001
0000
0001
1000
0000
,
0010
0100
0010
0100
0010
0100
0010
0100
,
0001
0000
0001
0100
0000
0100
0010
0000
,
1000
0010
1000
0010
1000
0010
1000
0010
,
0100
0000
0100
0001
0000
0001
1000
0000
,
0001
0010
0001
0010
0001
0010
0001
0010
,
0100
1000
0001
0100
0000
0010
0100
0000
,
0001
0100
0010
1000
0100
0010
0001
1000
0001
0100
0010
1000
0100
0010
0001
1000
,
0001
0100
0010
1000
0100
0010
0001
1000
0001
0100
0010
1000
0100
0010
0001
1000
,
0001
0010
0100
1000
0010
0100
0001
1000
0001
0010
0100
1000
0010
0100
0001
1000
,
0001
0010
0100
1000
0010
0100
0001
1000
0001
0010
0100
1000
0010
0100
0001
1000
,
0001
0010
0100
1000
0001
0100
0001
1000
0001
0010
0100
1000
0001
0100
0001
1000
,
0010
0100
0001
1000
0001
0010
0001
1000
0010
0100
0001
1000
0001
0010
0100
1000
,
0001
0100
0010
1000
0001
0010
0001
1000
0001
0100
0010
1000
0001
0010
0001
1000
,
0001
0100
0010
1000
0100
0010
0001
1000
0001
0100
0010
1000
0100
0010
0100
1000
,
0001
0010
0100
0010
0001
1000
0010
0100
,
0000
0000
0001
1000
0100
0010
0100
1000
,
0001
0000
0100
0000
0001
0000
0010
0100
,
0000
1000
0000
0010
0000
0100
0001
0000
,
1000
0000
0010
0000
1000
0100
0000
0000
,
0010
0000
0000
0001
0000
1000
0010
0000
,
0100
0000
0001
0000
0010
0100
0000
0000
,
1000
0000
0001
0100
0000
0010
0000
0000
,
1000
0001
1000
0100
0010
0100
1000
0001
,
0000
0000
0100
0000
0010
0100
0010
1000
,
0001
0000
0010
0000
0100
0000
0010
0001
,
0000
1000
0000
0010
0000
0100
0001
0000
,
1000
0000
0100
0000
0010
0001
0000
0000
,
1000
0000
0000
0010
0000
0100
0001
0000
,
1000
0000
0100
0000
0010
0100
0000
0000
,
1000
0000
0001
0100
0000
0010
0000
0000
,
2000
0000
0000
0000
,
0000
3MMM
0000
0000
0000
0000
0000
0000
0000
0000
0000
0000
0000
0000
0000
0000
0000
0000
0000
0000
0000
0000
0000
0000
0000
0000
0000
0000
0000
0000
0000
0000
;
