#TITLE:Candyman;
#SUBTITLE:-Speedy Mix-;
#ARTIST:Aqua;
#TITLETRANSLIT:;
#SUBTITLETRANSLIT:;
#ARTISTTRANSLIT:;
#CREDIT:;
#BANNER:Candyman BN.png;
#BACKGROUND:Candyman BG.png;
#LYRICSPATH:;
#CDTITLE:!tank101title.png;
#MUSIC:Candyman -Speedy Mix-.ogg;
#OFFSET:-0.027;
#SAMPLESTART:35.295;
#SAMPLELENGTH:12.000;
#SELECTABLE:YES;
#BPMS:0.000=170.000;
#STOPS:;
#BGCHANGES:;
// cache tags:
#FIRSTBEAT:17.000;
#LASTBEAT:489.000;
#SONGFILENAME:Songs/in the groove2/Candyman -Speedy Mix-/Candyman.sm;
#HASMUSIC:1;
#HASBANNER:1;
#MUSICLENGTH:105.000;
// end cache tags

//---------------dance-single - ----------------
#NOTES:
     dance-single:
     :
     Hard:
     10:
     1.000,1.000,0.419,0.410,0.295,862.000,44.000,43.000,0.000,0.000:





0000
0000
0000
0000
,
0000
0000
0000
0000
,
0000
0000
0000
0000
,
0000
0000
0000
0000
,
0000
0000
0001
0010
0100
1000
0001
0010
,
0100
1000
0001
0010
0100
1000
0001
1000
,
0100
0010
0001
0010
0100
0000
1000
0000
0100
0000
0010
0000
0001
0000
1000
0000
,
0100
0010
0001
1000
0100
0010
0001
0001
,
0100
0100
0010
0100
0001
0100
0010
1000
,
0001
1000
0010
0100
0001
0010
0001
0100
,
0010
1000
0001
1000
0100
0000
0010
0000
0001
0000
0100
0000
0001
0000
0010
0000
,
0001
0000
1000
0000
0000
0000
1001
0000
0110
0000
1000
0000
0001
0000
0100
0010
,
1000
0000
0001
1000
0100
0100
1000
0001
,
0010
0010
0001
0100
0010
0010
1000
0010
,
0100
0001
0010
0100
1000
0000
0001
0000
0010
0000
0010
0000
0001
0000
0100
0000
,
0010
0010
1000
0010
0100
0100
0001
0001
,
1000
1000
0001
0100
0010
0010
1000
0100
,
0010
0010
0001
1000
0100
0100
1000
0100
,
1000
0100
0010
0001
1000
0000
0001
0000
0100
0000
0100
0000
0001
0000
1000
0000
,
0001
0001
0100
0001
0010
0010
0100
0100
,
1000
1000
0000
0000
2010
0000
0001
0000
,
0100
0000
0000
0000
3001
0000
0000
0000
1000
0000
0000
1000
0100
0000
0100
0000
,
0100
0000
1200
1000
,
0010
0000
0000
0000
0301
0000
0000
0000
0100
0000
0000
1000
0010
0000
0010
0000
,
0010
0000
0201
0001
,
0010
0000
0000
0000
1300
0000
0000
0000
0100
0000
0000
0001
1000
0000
1000
0000
,
1000
0000
2100
0001
,
0010
0000
0000
0000
3100
0000
0000
0000
1000
0000
0000
0010
0100
0000
0100
0000
,
0100
0011
0000
0101
0000
1000
0010
0100
,
0010
0010
0010
0000
0100
0001
1000
0100
,
1000
0011
0000
0101
0000
0010
0010
0000
,
0100
0000
0001
0000
0010
0001
1000
1000
,
1000
0000
1010
0000
0101
0100
0010
0000
,
1000
0100
0020
0000
0031
0100
0001
0001
,
0001
1010
0000
1100
0000
1000
0001
0000
,
0001
0100
1000
0000
0100
0001
0010
0100
,
0010
0000
0001
0100
0010
0000
1000
0000
0100
0000
1000
0000
0020
0000
0000
0000
,
0030
0100
0001
0001
0010
0100
1000
1000
,
0010
0000
0100
0001
0010
0000
0001
0000
0100
0000
0001
0000
0020
0000
0000
0000
,
0030
0000
0100
0000
1000
0000
0010
0000
0100
0000
0010
0000
1000
0000
0010
0100
,
0010
0100
0010
0100
0001
0000
0000
0000
1100
0000
0000
0000
0202
0000
0000
0000
,
0303
0100
1000
1000
0100
0010
1000
1000
,
0100
0010
0001
1000
0100
1000
0002
0000
,
0103
0010
0100
0000
0001
1000
0001
0000
,
0101
0000
1010
1000
0001
0100
0010
1000
,
0001
0100
0010
1000
0001
0010
0100
1000
,
0001
0010
0100
1000
0001
0000
0010
0000
0100
0000
0100
0000
1000
0000
0010
0000
,
0100
0100
0001
0010
0100
0100
1000
1000
,
0010
0010
0100
0001
1000
0010
0100
0001
,
1000
0010
0100
0001
0010
0100
1000
0001
,
0010
0100
1000
0100
0010
0000
0001
0000
0100
0000
0100
0000
0001
0000
1000
0000
,
0010
0010
1000
0001
0100
0100
0001
0001
,
0020
0000
0130
1000
0100
1000
0100
1000
,
0100
0100
0010
0001
0010
0001
0010
0001
,
0010
0001
1000
0010
1000
0000
0000
0000
1100
0000
0000
0000
0012
0000
0000
0000
,
0010
0000
0000
0000
1000
0000
0000
0000
0103
0000
0000
0010
0001
0000
0001
0000
,
0001
0000
0101
1020
,
1000
0000
0000
0000
0100
0000
0000
0000
0031
0000
0000
0010
1000
0000
1000
0000
,
1000
0000
1100
0201
,
0010
0000
0000
0000
1000
0000
0000
0000
0310
0000
0000
0100
0001
0000
0001
0000
,
0001
0000
0101
0021
,
0001
0000
0000
0000
0100
0000
0000
0030
0001
0000
0000
0010
0001
0000
0001
0000
,
0001
1100
0000
1010
0000
0100
0001
0010
,
0100
0100
0100
0000
1000
0010
0100
0001
,
1000
0100
0000
0100
0000
0100
0010
0000
,
0011
0000
1100
0000
1000
0010
0100
0001
,
1000
0000
1100
0000
1100
1000
0010
0000
,
0100
0001
0010
0000
0100
1000
0001
0001
,
0001
0110
0000
0100
0000
0100
0001
0000
,
1000
0010
0100
0000
0001
0100
0010
1000
,
0001
0000
0010
0100
1000
0000
0100
0000
0010
0000
0100
0000
2000
0000
0000
0000
,
3000
0001
1000
0100
0010
0001
1000
0100
,
0010
0000
0001
0100
0010
0000
0100
0000
0001
0000
0100
0000
0020
0000
0000
0000
,
0030
0000
1000
0000
0100
0000
0010
0000
0100
0000
1000
0000
0100
0000
0010
0001
,
0010
0001
0010
0001
1000
0000
0001
0000
0100
0000
0001
0000
2000
0000
0000
0000
,
3000
0100
0010
0001
0010
0100
1000
0100
,
0010
0000
0001
1000
0010
0000
0100
0000
0001
0000
0100
0000
0020
0000
0000
0000
,
1030
0100
0010
0000
0000
0001
0100
0000
,
1010
0000
0101
1000
0010
1000
0002
0000
,
0003
0100
0010
1000
0100
0010
0100
1000
,
0010
0000
0100
0001
0010
0000
0100
0000
1000
0000
0100
0000
0020
0000
0000
0000
,
0030
0000
0001
0000
0010
0000
0100
0000
1000
0000
0001
0000
0010
0000
0100
0010
,
0100
0010
0100
0010
0001
0000
1000
0000
0010
0000
1000
0000
0002
0000
0000
0000
,
0003
0100
0010
1000
0010
0100
0001
0100
,
0010
0000
1000
0001
0100
0000
0001
0000
0010
0000
0001
0000
0200
0000
0000
0000
,
0310
0100
0001
0000
0000
1000
0010
0000
,
1100
0000
0011
1000
0100
0010
0001
1000
,
0100
0010
0001
1000
0100
0010
0001
1000
,
0100
0010
0001
0010
0100
0000
1000
0000
0010
0000
0100
0000
0001
0000
1000
0000
,
0010
0100
0001
1000
0010
0100
0001
0001
,
0100
0100
0010
1000
0001
0010
0100
1000
,
0001
0010
0100
1000
0001
0010
0100
1000
,
0001
0010
0100
0010
0001
0000
0100
0000
0010
0000
1000
0000
0001
0000
0100
0000
,
0010
0000
1000
0000
0000
0000
1001
0000
0110
0000
1000
0000
0001
0000
0100
0010
,
1000
0000
0001
0100
0010
0010
1000
0100
,
0010
0010
0001
0100
0010
0010
1000
0100
,
0010
0001
1000
0001
0100
0000
0010
0000
1000
0000
1000
0000
0100
0000
0010
0000
,
0001
0001
0100
0010
1000
1000
0001
0001
,
0100
0100
0010
1000
0100
0100
0010
0001
,
0100
0100
0010
1000
0100
0100
0010
0001
,
0100
0001
1000
0001
0100
0000
0010
0000
1000
0000
1000
0000
0100
0000
0010
0000
,
0001
0000
1000
0000
0000
0000
1010
0000
0101
0000
1000
0000
0001
0000
0010
0001
,
1000
0000
0100
1000
0001
0010
0200
0000
,
0300
0010
0001
1000
0010
0100
0001
1000
,
0001
0000
0010
0001
0100
0000
0010
0000
1000
0000
0001
0000
0200
0000
0000
0000
,
0300
0000
0010
0000
1000
0000
0001
0000
0010
0000
0100
0000
1000
0000
0001
0100
,
0001
0100
0001
0100
0010
0000
1000
0000
0001
0000
0100
0000
0020
0000
0000
0000
,
0030
1000
0001
0100
0010
1000
0100
0010
,
0100
0000
1000
0001
0010
0000
0100
0000
1000
0000
0001
0000
0020
0000
0000
0000
,
0130
1000
0001
0000
0000
0010
0001
0000
,
1100
0000
1010
0100
0002
1003
0002
0103
,
0002
1003
0002
0013
0100
1000
0001
0010
,
0100
1000
0001
1000
0100
0000
1000
0000
0020
0000
0130
0000
0020
0000
1030
0000
,
0020
0130
0020
1030
0001
0001
0010
0010
,
0100
0000
1000
0001
0100
0000
0001
0000
2000
0000
3100
0000
2000
0000
3001
0000
,
2000
3100
2000
3010
0100
0001
1000
0010
,
0100
0001
1000
0001
0100
0000
0001
0000
0020
0000
0130
0000
0020
0000
0031
0000
,
0020
0130
0020
0031
1000
0100
0010
0001
,
1000
0000
0100
1000
0010
0000
0100
0000
0001
0000
1000
0000
0010
0000
0100
0000
,
0001
1000
0010
0100
0001
1000
0010
0100
,
0001
0010
0100
0010
0001
0000
1000
0000
0100
0000
0010
0000
0001
0000
1000
0000
,
0100
0010
0001
1000
0100
0010
0001
1000
,
0100
0100
1001
0000
0000
0000
0000
0000
;
