#TITLE:Twilight;
#SUBTITLE:Steps By Seoul Plaer;
#ARTIST:KaW;
#TITLETRANSLIT:;
#SUBTITLETRANSLIT:;
#ARTISTTRANSLIT:;
#CREDIT:;
#BANNER:banner.png;
#BACKGROUND:bg.png;
#LYRICSPATH:;
#CDTITLE:;
#MUSIC:twilight.mp3;
#OFFSET:-0.134;
#SAMPLESTART:42.553;
#SAMPLELENGTH:12.000;
#SELECTABLE:YES;
#BPMS:0.000=139.130,16.000=139.830,48.000=140.130,176.000=139.870;
#STOPS:;
#BGCHANGES:;
// cache tags:
#FIRSTBEAT:3.500;
#LASTBEAT:242.000;
#SONGFILENAME:Songs/dragon force/twilight eduit/Twilight - Seoul'd.SM;
#HASMUSIC:1;
#HASBANNER:1;
#MUSICLENGTH:107.266;
// end cache tags

//---------------dance-single - ----------------
#NOTES:
     dance-single:
     :
     Challenge:
     11:
     1.000,0.959,0.578,0.513,1.000,664.000,62.000,55.000,0.000,13.000:

0000
0000
0000
0000
0000
0000
0000
1001
,
2001
0010
0100
0010
0001
0010
3100
0110
,
1002
0100
0010
0100
1000
0100
0013
1100
,
2002
0000
3003
1001
2002
0000
0000
3000
,
0003
1000
0100
0010
0000
0000
0001
0010
0100
0000
1001
0000
1001
0000
0000
0000
,
0000
1000
0100
0010
0000
0000
0001
0010
0100
1000
0001
0010
0200
0000
0300
0000
,
0000
0001
1000
0001
0000
0000
1000
0001
1000
0000
0110
0000
0110
0000
0000
0000
,
0000
1000
0100
0001
0000
0000
0001
0100
1000
0010
0100
0001
2000
0000
3000
0000
,
0000
0001
0010
0100
0000
0000
1000
0001
1000
0000
1100
0000
1001
0000
0110
0000
,
0000
0100
0010
1000
0000
0000
0001
0100
0010
1000
0001
0100
0020
0000
0030
0000
,
0000
1000
0100
1000
0000
0010
0001
0010
0000
0100
1000
0100
0000
0000
0000
0000
,
0000
1000
0100
0010
0001
0010
0100
2000
0000
0000
0001
0000
3001
0000
0000
0000
,
0000
1000
0000
1000
0100
0010
0001
1000
0100
0010
0001
1000
0010
0100
0001
1000
,
0010
0100
0001
1000
0100
0010
0001
1000
0100
0010
0001
0010
0100
0010
0100
1000
,
0000
0001
0000
0001
0010
0100
1000
0001
0010
0100
1000
0001
0010
0100
0010
0100
,
1000
0001
0100
0010
1000
0001
0010
0100
0010
0100
1000
0100
0010
0100
0010
0001
,
0000
0001
0000
0010
0100
1000
0100
0010
0100
1000
0100
0010
0001
0100
0010
1000
,
0100
0010
0001
1000
0010
0100
0001
1000
0010
0100
0001
1000
0001
0010
0100
1000
,
0000
0100
0000
0010
0001
0010
0001
0010
0100
0010
0100
0010
0001
0010
0001
0010
,
1000
0010
1000
0010
0001
0010
0100
1000
0001
0100
0010
1000
0001
0100
0010
1000
,
0001
0000
0000
0001
0010
0000
0000
0010
0100
0000
0000
0100
1000
0000
0000
1000
,
0100
0000
0000
0100
0010
0000
0000
0010
0001
1000
0100
0010
0001
1000
0100
0010
,
0100
0000
0000
0100
0010
0000
0000
0010
0001
0000
0000
0001
1000
0000
0000
1000
,
0001
0000
0000
0001
0010
0000
0000
0010
0100
1000
0001
0010
0100
1000
0001
0010
,
0100
0000
0000
0100
1000
0000
0000
1000
0100
0000
0000
0100
0010
0000
0000
0010
,
0001
0000
0000
0001
0010
0000
0000
0010
0100
0000
0000
0100
1000
0000
0000
1000
,
0012
0013
0120
0130
2100
3100
0210
0310
,
0021
0031
0020
0230
2300
3200
0302
0203
,
1300
0100
0010
0001
1000
0100
0010
0001
1000
0100
0010
0001
1000
0010
0100
0001
,
0010
0100
1000
0001
0010
0100
1000
0001
0010
0100
1000
0001
1000
0010
0100
0001
,
1000
0100
1000
0100
0010
0001
0010
0001
0010
0100
0010
0100
1000
0100
0010
0001
,
1000
0010
1000
0010
1000
0001
1000
0001
1000
0100
1000
0100
0010
0001
1000
0100
,
0010
0001
0010
0100
0010
0001
0010
0100
0010
0001
0010
0100
1000
0001
0010
0100
,
1000
0100
0010
0100
1000
0100
0010
0100
1000
0100
0010
0001
1000
0100
0010
0001
,
1000
0000
0000
0100
0000
0000
1000
0000
0000
0010
0000
0000
1000
0000
0000
0100
0000
0000
1000
0000
0000
0010
0000
0000
1000
0000
0000
0100
0000
0000
1000
0000
0000
0010
0000
0000
1000
0000
0001
0000
1000
0000
0001
0000
1000
0000
0001
0000
,
1000
0000
0000
1100
0012
0000
0000
0000
,
2013
0100
3012
0103
2002
0000
3003
0200
,
0000
0320
0000
2030
3220
0000
0332
0000
,
2103
3100
0210
0302
0020
0003
0030
2100
,
3000
0020
0030
0002
0023
0230
2300
3002
,
0123
2030
3102
0013
2000
0000
3012
0123
,
0000
2130
0000
3210
0010
0300
0012
0000
,
1103
0110
0011
0110
2100
0000
0100
0000
,
3011
0110
1100
1010
1001
1010
1100
0110
,
0000
1000
0100
0000
1001
0000
1000
0010
0000
1001
0000
0000
0100
0010
1001
0000
,
0000
0001
0010
0000
1001
0000
1000
0010
0000
1001
0000
0000
0010
0100
1001
0000
,
0000
0010
0100
0000
1010
0000
0100
0010
0000
1001
0000
0000
1000
0100
0011
0000
,
0000
0001
0010
0000
0110
0000
0100
0010
0000
1001
0000
0000
0010
0001
0110
0000
,
1000
0100
1000
0100
1000
0100
1000
0100
0010
0001
0010
0001
0010
0001
0010
0001
,
1000
0010
1000
0010
1000
0010
1000
0010
1000
0001
1000
0000
0001
1000
0001
0000
,
1000
0010
1000
0010
1000
0100
1000
0100
1000
0010
1000
0010
1000
0001
1000
0001
,
1000
0100
0010
0100
0010
0001
1000
0100
0010
0001
1000
0010
0100
0001
1000
0100
,
0010
0100
1000
0000
0010
0100
1000
0000
0010
0001
0100
0000
0010
0001
0100
0000
,
0010
0001
0010
0000
0010
0001
0010
0000
0100
0010
1000
0000
0100
0010
1000
0000
,
1000
0100
0001
0000
1000
0100
0001
0000
0010
0100
0010
0000
0100
0010
0100
0000
,
1000
0100
1000
0100
0010
0001
1000
0100
0010
0001
0100
0010
0100
0010
1000
0100
,
0010
0001
1000
0100
0010
0001
1000
0100
0010
0100
0010
0100
0010
0100
1000
0100
,
0010
0001
0010
0100
0010
0100
1000
0100
0010
0001
1000
0010
0100
0001
0010
0100
,
1000
0100
0010
0001
1000
0100
0010
0001
1000
0010
0100
0001
1000
0010
0100
0001
,
0010
0001
0010
0001
0010
1000
0010
1000
0010
0001
0010
0001
0010
0100
0010
0100
,
2002
0000
3003
0000
;
