#TITLE:Touch the Angel;
#SUBTITLE:;
#ARTIST:DJ Sharpnel;
#TITLETRANSLIT:;
#SUBTITLETRANSLIT:;
#ARTISTTRANSLIT:;
#CREDIT:;
#BANNER:touch the bn.png;
#BACKGROUND:touch the bg.png;
#LYRICSPATH:;
#CDTITLE:;
#MUSIC:Touch the angel.ogg;
#OFFSET:0.009;
#SAMPLESTART:76.646;
#SAMPLELENGTH:21.898;
#SELECTABLE:YES;
#DISPLAYBPM:175.000;
#BPMS:0.000=175.351;
#STOPS:;
#BGCHANGES:;
// cache tags:
#FIRSTBEAT:0.000;
#LASTBEAT:668.000;
#SONGFILENAME:Songs/SHARPNELSTREAMZ v2/Touch the Angel/Touch the angel.sm;
#HASMUSIC:1;
#HASBANNER:1;
#MUSICLENGTH:228.959;
// end cache tags

//---------------dance-single - 13+ (TYLR)----------------
#NOTES:
     dance-single:
     13+ (TYLR):
     Challenge:
     13:
     1.000,1.000,0.096,0.266,1.000,1829.000,22.000,61.000,9.000,0.000:
0000
0000
0000
0000
,
0000
0000
0000
0000
,
0000
0000
0000
0000
,
0000
0000
0000
0000
,
0000
0000
0000
0000
,
0000
0000
0000
0000
,
0000
0000
0000
0000
,
0000
0000
0000
0000
,
1001
1000
0010
0200
0000
0310
1000
0200
,
0000
0000
0310
0000
0001
0000
1000
0000
0001
0100
0001
0000
1000
0000
0010
0000
,
0100
0001
0010
0200
0000
0310
0001
0200
,
0000
0000
0301
0000
1000
0000
0100
0000
0010
0001
0010
0000
0100
0000
1000
0000
,
0010
0100
0001
2000
0000
3100
1000
0020
,
0000
0000
0130
0000
0001
0000
1000
0000
0100
0010
0100
0000
1000
0000
0001
0000
,
0100
0010
1000
0200
0000
0320
0000
0032
,
0000
0000
0000
0000
0000
0000
0000
0000
1003
0000
0001
0000
1000
0000
0100
0000
0010
0000
0001
0000
0200
0300
0001
0000
0200
0300
0001
0000
0010
0000
0100
0000
,
1000
0000
0001
0000
0100
0000
0020
0000
0100
0030
0001
0000
0010
0000
0200
0000
,
0010
0300
0001
0000
1000
0000
0010
0000
0100
0001
1000
0000
0100
0000
0010
0000
,
0001
0000
1000
0000
0010
0000
0200
0000
0001
0300
0100
0000
0010
0000
2000
0000
,
0001
3000
1000
0000
0100
0000
0010
0000
0001
1000
0010
0000
0100
0000
0001
0000
,
1000
0000
0100
0000
0010
0000
0002
0000
1000
0003
0001
0000
0100
0000
0020
0000
,
0100
0030
0001
0000
1000
0000
0100
0000
0010
0001
1000
0000
0001
0000
0100
0000
,
0010
0000
1000
0000
0001
0000
0020
0000
0100
0030
0010
0000
0001
0000
0200
0000
,
0010
0300
1000
0000
0001
0000
1000
0000
0100
0010
0001
0000
1000
0000
0010
0000
,
0100
0000
0001
0000
1000
0000
0200
0000
0010
0300
0100
0000
1000
0000
0020
0000
,
0100
0030
0001
0000
1000
0000
0001
0000
0100
0010
1000
0000
0001
0000
0010
0000
,
0100
0000
1000
0000
0001
0000
0200
0000
0010
0300
0100
0000
0001
0000
0020
0000
,
0100
0030
1000
0000
0001
0000
0100
0000
0010
1000
0001
0000
0100
0000
0001
0000
,
0010
0000
0100
0000
1000
0000
0002
0000
0100
0003
0001
0000
0010
0000
0200
0000
,
0010
0300
0001
0000
1000
0000
0001
0000
0100
0010
1000
0000
0001
0000
1000
0000
,
0001
0010
0100
0020
0000
0032
0000
2003
,
3001
0000
0010
0000
0100
0000
1000
0000
0010
0000
0100
0000
0001
0000
0010
0000
0100
0000
1000
0000
0002
0003
1000
0000
0002
0003
0010
0000
0100
0000
1000
0000
,
0001
0000
1000
0100
1000
0000
0001
0010
0001
0000
0100
0010
0100
0000
0010
1000
,
0010
0000
1000
0001
1000
0000
0001
0100
0001
0000
1000
0100
1000
0000
0001
0010
,
0001
0000
1000
0001
1000
0000
0010
0100
0010
0000
1000
0001
1000
0000
0001
0010
,
0001
0000
0100
0010
0100
0000
0001
0010
0001
0000
1000
0100
1000
0000
0010
0100
,
0010
0000
1000
0100
1000
0000
0001
0010
0001
0000
1000
0001
1000
0000
0001
0100
,
0001
0000
0000
0000
0000
0000
1000
0000
0000
0100
0000
0000
1000
0000
0000
0000
0000
0000
0010
0000
0000
0100
0000
0000
0010
0000
0000
0000
0000
0000
1000
0000
0001
0000
1000
0000
0001
0000
0000
0000
0000
0000
0010
0000
0000
0100
0000
0000
,
1000
0001
0100
0001
1000
0001
0100
0001
1000
0001
0010
0100
1000
0100
0010
0001
,
1000
0000
0000
0001
0000
0000
0100
0000
0000
0010
0000
0000
1000
0000
0000
0001
0000
0000
1000
0000
0000
0010
0000
0000
0000
0000
0000
0010
0000
0000
0000
0000
0000
0100
0000
0000
0010
0000
0000
0000
0000
0000
1000
0000
0001
0000
1000
0000
,
0001
0000
1000
0010
1000
0000
0001
0010
0001
0000
1000
0001
1000
0000
0001
0010
,
0001
0000
0100
0010
0100
0000
0001
0010
0001
0000
1000
0100
1000
0000
0001
0100
,
0001
0000
1000
0001
1000
0000
0001
0010
0001
0000
0100
0010
0100
0000
0001
0010
,
0001
0000
1000
0001
1000
0000
0001
0100
0001
0000
1000
0100
1000
0000
0010
1000
,
0010
0000
1000
0100
1000
0000
0001
0010
0001
0000
1000
0010
1000
0000
0010
0100
,
0010
0000
0000
0000
0000
0000
0100
0000
0000
0001
0000
0000
0100
0000
0000
0000
0000
0000
0001
0000
0000
1000
0000
0000
0001
0000
0000
0000
0000
0000
1000
0000
0100
0000
1000
0000
0100
0000
0000
0000
0000
0000
0010
0000
0000
0001
0000
0000
,
1000
0000
0001
0000
1000
0000
0001
0000
1000
0000
0010
0000
0100
0000
0001
0010
,
0100
0000
1000
0000
1001
0000
0001
0000
1000
0001
0000
1000
0000
0001
1000
0000
,
1001
0000
0001
0000
0100
0000
0010
1000
0001
1000
0010
0000
0100
0000
0001
0000
,
1000
0000
0100
0000
1000
0000
0001
0010
0001
1000
0001
0000
0010
0000
0100
0000
,
1000
0000
1000
0000
0001
0000
0100
0001
1000
0001
0100
0000
0010
0000
1000
0000
,
0001
0000
0010
0000
0100
0000
0010
0001
1000
0001
0010
0000
0100
0000
1000
0000
,
0001
0000
0100
0000
0010
0000
0100
0001
1000
0001
0100
0000
0010
0000
1000
0000
,
0100
0000
0010
0000
0001
0000
0010
0100
1000
0100
0010
0000
0001
0000
1000
0000
,
0001
0100
0001
1000
0010
1000
0001
1000
0100
0010
0001
0010
0100
1000
0100
1000
,
0001
0100
0010
1000
0001
0010
0100
1000
0001
0100
0010
1000
0100
0010
0001
1000
,
0010
0000
1000
0001
0010
0000
0100
1000
0010
0000
0100
0001
1000
0000
0001
1000
,
0100
0000
0010
0001
1000
0000
0001
0010
0100
0000
1000
0001
0100
0000
0010
1000
,
0100
0000
0010
0001
1000
0000
0001
0010
0100
0000
1000
0001
0100
0000
0010
1000
,
0100
0000
0010
0001
1000
0000
0010
0100
0001
1000
0100
0010
0001
0000
1000
0001
,
0100
0001
1000
0010
1000
0001
0010
0001
0100
0010
1000
0100
0010
0001
1000
0010
,
1000
0010
0100
0001
1000
0100
0010
0001
0100
0010
1000
0100
0010
0001
1000
0010
,
1000
0001
0010
0001
1000
0010
0100
0001
0100
0010
0100
0001
1000
0001
0010
0100
,
1000
1001
1001
0101
1010
1001
1001
M00M
,
1001
0000
1000
0001
0010
0000
0100
1000
0010
0000
0100
0001
1000
0000
0001
1000
,
0100
0000
0010
0001
1000
0000
0001
0010
0100
0000
1000
0001
0100
0000
0010
1000
,
0100
0000
0010
0001
1000
0000
0001
0010
0100
0000
1000
0001
0100
0000
0010
1000
,
0100
0000
0010
0001
1000
0000
0010
0100
0001
0000
1000
0100
0010
0000
0001
1000
,
0010
1000
0001
0100
0001
1000
0100
1000
0010
0100
0001
0010
0100
1000
0001
0100
,
0001
0100
0010
1000
0001
0010
0100
1000
0010
0100
0001
0010
0100
1000
0001
0100
,
0001
1000
0100
1000
0001
0100
0010
1000
0010
0100
0010
1000
0001
1000
0100
0010
,
0001
1000
0010
0100
0001
1000
0010
1000
0100
0010
0100
1000
0010
0100
0001
0010
,
0100
1000
0100
1000
0001
0010
0100
0010
,
0001
0010
0001
1000
0100
1000
0001
1000
0001
0100
0010
1000
0100
0010
0100
0010
,
0001
1000
0010
0010
0000
00M1
0010
0200
,
0300
0M01
0010
0100
0000
0M01
1000
0200
,
0300
0M01
1000
0100
0000
0M01
0100
0020
,
0000
0030
0010
0000
2000
0000
0000
0000
3002
0000
0000
0000
1003
0000
0001
0000
,
0011
0010
0100
1100
0000
1000
1001
0001
,
0000
0100
0100
0001
1000
0100
0020
0000
,
0034
0100
0000
1000
0000
0100
0000
1003
,
0040
0000
0100
0000
0000
0000
1000
0000
0000
0000
0130
0001
1000
0000
0001
0000
,
0020
0000
0130
0000
1000
0000
0020
0000
0130
0000
0001
0000
1000
0100
2000
0000
,
3001
0010
0100
1000
0001
0010
0100
1000
0001
0100
0010
1000
0001
0100
0010
1000
,
0001
0000
1000
0001
0010
0000
0100
1000
0010
0000
0100
0001
1000
0000
0001
1000
,
0100
0000
0010
0001
1000
0000
0001
0010
0100
0000
1000
0001
0100
0000
0010
1000
,
0100
0000
0010
0001
1000
0000
0001
0010
0100
0000
1000
0001
0100
0000
0010
1000
,
0100
0000
0010
0001
1000
0000
0010
0100
0001
1000
0100
0010
0001
0000
1000
0001
,
0100
0001
1000
0010
1000
0001
0010
0001
0100
0010
1000
0100
0010
0001
1000
0010
,
1000
0010
0100
0001
1000
0100
0010
0001
0100
0010
1000
0100
0010
0001
1000
0010
,
1000
0001
0010
0001
1000
0010
0100
0001
0100
0010
0100
0001
1000
0001
0010
0100
,
1000
1001
1001
0101
1010
1001
1001
M00M
,
1001
0000
1000
0001
0010
0000
0100
1000
0010
0000
0100
0001
1000
0000
0001
1000
,
0100
0000
0010
0001
1000
0000
0001
0010
0100
0000
1000
0001
0100
0000
0010
1000
,
0100
0000
0010
0001
1000
0000
0001
0010
0100
0000
1000
0001
0100
0000
0010
1000
,
0100
0000
0010
0001
1000
0000
0010
0100
0001
0000
1000
0100
0010
0000
0001
1000
,
0010
1000
0001
0100
0001
1000
0100
1000
0010
0100
0001
0010
0100
1000
0001
0100
,
0001
0100
0010
1000
0001
0010
0100
1000
0010
0100
0001
0010
0100
1000
0001
0100
,
0001
1000
0100
1000
0001
0100
0010
1000
0010
0100
0010
1000
0001
1000
0100
0010
,
0001
1000
0010
0100
0001
1000
0010
1000
0100
0010
0100
1000
0010
0100
0001
0010
,
0100
0010
0100
0010
0001
1000
0100
1000
,
0010
0000
0100
0000
0001
0000
1000
0000
0001
0100
0010
1000
0100
0010
0001
1000
,
0001
0000
1000
0000
0010
0000
0200
0000
0010
0300
1000
0000
0100
0000
0020
0000
,
0100
0030
1000
0000
0001
0000
0100
0000
0010
1000
0001
0000
0010
0000
0100
0000
,
1000
0000
0001
0000
0100
0000
0020
0000
1000
0030
0010
0000
0100
0000
0002
0000
,
1000
0003
0001
0000
0010
0000
0100
0000
1000
0001
0100
0000
0010
0000
1000
0000
,
0001
0000
0010
0000
0100
0000
2000
0000
0001
3000
1000
0000
0010
0000
0200
0000
,
0010
0300
1000
0000
0001
0000
0010
0000
0100
1000
0001
0000
1000
0000
0010
0000
,
0100
0000
0001
0000
1000
0000
0200
0000
0010
0300
0100
0000
1000
0000
0020
0000
,
0100
0030
0001
0000
1000
0000
0001
0000
0010
0100
1000
0000
0001
0000
0100
0000
,
0010
0000
1000
0000
0001
0000
0020
0000
0100
0030
0010
0000
0001
0000
0200
0000
,
0010
0300
1000
0000
0001
0000
1000
0000
0010
0100
0001
0000
1000
0000
0100
0000
,
0010
0000
0001
0000
1000
0000
0020
0000
0100
0030
0010
0000
1000
0000
0200
0000
,
0010
0300
0001
0000
1000
0000
0010
0000
0100
0001
1000
0000
0010
0000
1000
0000
,
0100
0000
0010
0000
0001
0000
2000
0000
0010
3000
1000
0000
0100
0000
0020
0000
,
0100
0030
1000
0000
0001
0000
1000
0000
0010
0100
0001
0000
1000
0000
0001
0000
,
1000
0100
1000
0001
0010
0001
1000
0010
0100
0001
1000
0001
0100
0010
1000
0001
,
1000
0000
0000
0100
0000
0000
0010
0000
0000
0001
0000
0000
0100
0000
0000
0010
0000
0000
1000
0000
0000
0001
0000
0000
0000
0000
0000
0001
0000
0000
0000
0000
0000
1000
0000
0000
0001
0000
0000
0000
0000
0000
1000
0000
0001
0000
1000
0000
,
0001
0000
0010
0001
1000
0100
0010
0001
0100
0000
0001
1000
0000
1000
0100
0000
,
0010
0000
0100
1000
0001
0100
0010
1000
0001
0000
0010
0001
0000
0001
1000
0010
,
0100
0000
0001
0100
0010
1000
0001
0010
0100
0000
1000
0001
0000
0001
0100
0010
,
1000
0000
0001
1000
0010
0100
0001
1000
0100
0000
0010
0001
0000
0001
1000
0001
,
1000
0010
0100
0001
1000
0010
0100
0001
1000
0100
0010
0001
1000
0100
0010
0001
,
0100
0010
1000
0100
0010
0001
1000
0010
0100
0010
0100
0001
1000
0001
0100
0001
,
1000
0010
1000
0100
0010
0001
1000
0100
0010
0001
1000
0001
0100
0001
1000
0010
,
0100
0001
0001
0010
0100
0010
0010
0001
,
1000
0100
0010
0100
1000
0001
0100
0001
0100
0010
1000
0010
1000
0100
0010
0100
,
1000
0010
0100
0001
0010
0100
0010
0001
1000
0100
0010
0100
0010
0001
1000
0010
,
0100
0010
1000
0001
0100
0010
0100
0001
1000
0001
1000
0010
0100
0010
0100
0001
,
1000
0010
0100
0001
1000
0010
0100
0010
1000
0100
0010
0001
0010
0100
0010
0001
,
1000
0010
0100
0001
1000
0010
0100
0001
1000
0001
0010
0001
1000
0100
0010
0001
,
0100
0010
1000
0100
0010
0001
1000
0010
0100
0010
1000
0001
0100
0010
0100
0001
,
1000
0010
1000
0001
0100
0001
1000
0100
1000
0010
0100
0010
1000
0100
0010
0100
,
0010
0001
0010
0100
1000
0001
0100
0001
0010
0100
0010
0001
0100
0010
1000
0100
,
1000
0001
0100
0010
1000
0100
0010
0100
1000
0100
0010
0001
0100
0010
1000
0100
,
0010
0001
1000
0010
0100
0010
1000
0001
0100
0001
1000
0010
0100
0001
0010
0100
,
0010
0001
1000
0010
0100
0010
0100
0001
1000
0100
1000
0010
0100
0001
0010
0001
,
1000
0010
0100
0010
0100
0001
1000
0100
0010
0001
1000
0100
0010
0001
1000
0010
,
0100
0001
1000
0100
0010
0100
1000
0001
0100
0001
0100
0010
1000
0010
1000
0100
,
0010
0001
0010
0100
0010
0001
1000
0010
0100
0010
1000
0001
0010
0001
1000
0100
,
0010
0100
1000
0010
0100
0001
0010
0100
0010
0001
0010
0100
1000
0001
0100
0010
,
1000
0001
0010
0100
0010
0100
1000
0010
0100
0001
1000
0001
1000
0010
0100
0001
,
1000
0100
0010
0100
1000
0001
0100
0001
0100
0010
1000
0010
1000
0100
0010
0001
,
0010
0100
0010
0001
1000
0010
0100
0010
1000
0001
0100
0010
0100
0001
1000
0100
,
0010
0100
0010
0001
1000
0010
0100
0001
1000
0100
1000
0001
0100
0001
0100
0010
,
1000
0100
1000
0100
0010
0001
1000
0010
1000
0010
0100
0001
0100
0010
1000
0001
,
1000
0100
0010
0001
1000
0100
0010
0001
1000
0010
0100
0001
1000
0010
0100
0001
,
1000
0100
1000
0010
0100
0001
0010
0001
1000
0010
1000
0010
0100
0001
0010
0001
,
1000
0100
0010
0001
1000
0100
0010
0001
0010
0100
0010
0001
1000
0010
0100
0010
,
1000
0001
0010
0100
1000
0001
0100
0010
1000
0100
1000
0010
0100
0001
1000
0100
,
0010
0001
0100
0020
0000
0130
0001
0020
,
0000
0000
0130
0000
1000
0000
0001
0000
1000
0010
1000
0000
0001
0000
0100
0000
,
0010
1000
0100
0020
0000
0130
1000
0020
,
0000
0000
1030
0000
0001
0000
0010
0000
0100
1000
0100
0000
0010
0000
0001
0000
,
0100
0010
1000
0002
0000
0013
0001
0200
,
0000
0000
0310
0000
1000
0000
0001
0000
0010
0100
0010
0000
0001
0000
1000
0000
,
0010
0100
0001
0020
0000
0130
1000
0020
,
0000
0000
1030
0000
0001
0000
0010
0000
0100
1000
0100
0000
0010
0000
0001
0000
,
1000
0000
0010
0000
1000
0010
0000
1000
0010
0000
1000
0010
0000
1000
0010
0000
,
0100
0000
0001
0000
1000
0001
0000
1000
0001
0000
1000
0001
0000
1000
0001
0000
,
0010
0000
0100
0000
1000
0100
0000
1000
0100
0000
1000
0100
0000
1000
0100
0000
,
0010
0000
0001
0000
1000
0001
0000
1000
0001
0000
1000
0001
0000
1000
0001
0000
,
0100
0000
0000
0000
0001
0100
0000
0001
0100
0000
0001
0100
0000
0001
0100
0000
,
0000
0000
0010
0000
1000
0010
0000
1000
0010
0000
1000
0001
0000
1000
0001
0000
,
0010
0001
0010
0001
1000
0001
1000
0001
1000
0010
1000
0010
0100
0001
0100
0001
,
1000
0100
0010
0001
1000
0100
0010
0001
1000
0010
0100
0001
1000
0010
0100
0001
,
1000
0000
0000
0000
;

//---------------dance-single - 13+ (mute)----------------
#NOTES:
     dance-single:
     13+ (mute):
     Edit:
     13:
     1.000,1.000,0.157,0.271,1.000,1792.000,36.000,62.000,54.000,0.000:
0000
0000
0000
0000
,
0000
0000
0000
0000
,
0000
0000
0000
0000
,
0000
0000
0000
0000
,
0000
0000
0000
0000
,
0000
0000
0000
0000
,
0000
0000
0000
0000
,
0000
0000
0000
0000
,
MM11
0001
1000
0200
0000
0310
0001
2000
,
0000
0000
3010
0000
0100
0000
0001
0000
1000
0100
1000
0000
0001
0000
0010
0000
,
0100
1000
0010
0200
0000
0310
1000
0002
,
0000
0000
0013
0000
0100
0000
1000
0000
0001
0010
0001
0000
1000
0000
0010
0000
,
0100
0001
1000
0200
0000
0310
0001
0200
,
0000
0000
0310
0000
1000
0000
0100
0000
0010
0100
0010
0000
0001
0000
1000
0000
,
1000
0100
0010
0002
0000
2003
0000
3020
,
0130
0001
0100
0010
1000
0001
1000
0001
0010
0100
2000
3100
2000
3001
0100
0001
,
1MM0
0001
0010
0200
0000
1300
0001
0200
,
0000
0000
0310
0000
1000
0000
0001
0000
0010
0100
0010
0000
0001
0000
1000
0000
,
0010
0100
0001
0020
0000
0130
1000
0002
,
0000
0000
0103
0000
0010
0000
1000
0000
0100
1000
0100
0000
0010
0000
0001
0000
,
1000
0010
0100
0002
0000
0013
0100
2000
,
0000
0000
3010
0000
0100
0000
0001
0000
1000
0010
1000
0000
0001
0000
0010
0000
,
0100
1000
0100
0020
0000
0031
0100
0020
,
0000
0000
1030
0000
0100
0000
0010
0000
0001
1000
0001
0000
0100
0000
0010
0000
,
1M1M
1000
0001
0200
0000
0301
1000
0200
,
0000
0000
0310
0000
0001
0000
1000
0000
0010
0100
0010
0000
1000
0000
0001
0000
,
0010
0100
1000
0020
0000
0130
0001
2000
,
0000
0000
3100
0000
0010
0000
0001
0000
0100
0001
0100
0000
0010
0000
1000
0000
,
1MM1
0001
0010
0200
0000
1300
0010
0200
,
0000
0000
0301
0000
1000
0000
0100
0000
0010
0001
0010
0000
0100
0000
1000
0000
,
1000
0010
0100
0002
0000
2003
0000
3200
,
0310
0001
0010
0100
1000
0001
1000
0010
0100
0001
2000
3001
2000
3100
0010
0001
,
1MM0
0001
0100
0001
1000
0100
0010
0100
,
1000
0001
0100
0001
0010
0100
1000
0001
,
0100
0010
1000
0001
0010
0100
0010
0001
,
1000
0001
0100
0010
0100
0001
1000
1000
,
1000
0100
0010
0001
1000
0010
0100
0001
,
1000
0000
0100
0000
0010
0000
0100
0000
1000
0000
0001
0000
0100
0000
0010
1000
,
0001
0100
0001
1000
0100
0010
0001
1000
0010
1000
0001
0100
0010
1000
0001
0010
,
0100
0000
0000
1000
0000
0000
0001
0000
0000
0010
0000
0000
0001
0000
0000
1000
0000
0000
0001
0000
0000
1000
0000
0000
0000
0000
0000
0001
0000
0000
0010
0000
0000
0001
0000
0000
1000
0000
0000
0000
0000
0000
0001
0000
0100
0000
0001
0000
,
M1M0
0001
1000
0010
1000
0001
0010
0100
,
1000
0010
0100
0001
1000
0100
0010
0100
,
1000
0010
0100
0001
0010
0001
1000
0010
,
0100
0001
0010
0100
0010
0001
0100
0100
,
0100
0010
1000
0001
0010
0100
0010
0001
,
1000
0000
0010
0000
0100
0000
0001
0000
0010
0000
0001
0000
1000
0000
0010
0100
,
0001
0010
0100
0010
0001
1000
0010
0100
,
0001
0000
1000
0000
11MM
0000
0100
0010
0001
1000
0000
0001
0000
1000
0010
0000
,
M11M
0000
0100
0000
0001
0000
1000
0100
0010
0100
1000
0000
0001
0000
0100
0000
,
0010
0000
1000
0000
0001
0000
0010
0001
1000
0001
0010
0000
0100
0000
1000
0000
,
0001
0000
0100
0000
0010
0000
1000
0010
0100
0010
1000
0000
0001
0000
0010
0000
,
0100
0000
1000
0000
0001
0000
0100
0010
1000
0010
0100
0000
0001
0000
0001
0000
,
0001
0000
0010
0000
0100
0000
1000
0010
0100
0010
1000
0000
0001
0000
0010
0000
,
0100
0000
0010
0000
0001
0000
1000
0001
0100
0001
1000
0000
0100
0000
0010
0000
,
0001
0010
0100
1000
0100
1000
0001
0100
0010
1000
0010
0100
0001
1000
0100
0010
,
0001
0001
0100
0100
0010
0010
1000
1000
,
01MM
1000
0001
1000
0010
0100
0001
1000
0100
0010
0001
1000
0001
0100
0010
1000
,
0001
0010
0100
1000
0100
0010
0001
1000
0010
0100
0001
1000
0010
1000
0001
1000
,
0100
0010
0001
1000
0010
1000
0001
0010
0001
1000
0100
1000
0100
0010
0001
1000
,
0001
0100
0010
1000
0001
0100
0010
1000
0001
0010
0100
0010
0001
1000
0100
1000
,
0001
0100
0010
1000
0001
0010
0100
1000
0010
0100
0001
1000
0100
0010
0001
1000
,
0010
0100
0010
1000
0001
0010
0100
0010
0001
1000
0001
0100
0001
1000
0100
0010
,
0001
1000
0001
0010
0100
1000
0001
0100
0010
1000
0100
0010
0001
1000
0010
0100
,
0001
1001
1001
0101
1001
1100
1100
0100
,
MM10
0001
1000
0001
0100
0010
1000
0001
0010
0100
1000
0001
0100
0010
1000
0100
,
0010
0001
0010
0100
0010
0001
1000
0001
0100
0010
0100
0001
1000
0100
0010
0001
,
0100
0010
1000
0100
0010
0001
0100
0010
1000
0001
0010
0100
1000
0100
0010
0001
,
0100
0010
1000
0001
0010
0100
0010
0001
1000
0010
0100
0010
1000
0001
0010
0001
,
1000
0100
0010
0001
0100
0010
1000
0001
0010
0100
1000
0001
0100
0010
1000
0001
,
0010
0100
0010
0001
0100
0010
1000
0100
0010
0001
0010
0100
1000
0010
0100
0001
,
0010
0100
0010
0001
1000
0001
0100
0010
1000
0010
0100
0001
0010
0001
1000
0100
,
1000
0010
0100
0001
1000
0100
0010
0001
1000
0010
0100
0001
0010
0100
1000
0010
,
M10M
0001
0000
1000
0000
0001
0000
0020
,
0000
0000
0130
0000
1000
0000
0002
0000
0103
0000
0010
0100
0010
0000
1000
0000
,
1MM1
0001
0010
0001
1000
0010
0100
0001
,
1000
0100
0010
0100
1000
0001
0100
0010
,
1000
0100
0010
0001
0100
0010
1000
0001
,
0010
0100
0010
0001
1000
0001
0100
0100
,
0100
0010
1000
0001
0010
0100
1000
0010
,
0100
0001
0010
0100
0010
0001
2000
0000
,
3M4M
0100
0000
1000
0000
0100
0000
1030
,
0004
0000
0010
0000
0000
0000
0100
0000
0000
0000
1003
0010
1000
0000
0001
0000
,
MM10
0001
1000
0001
1000
0010
0100
0010
0100
0001
1000
0001
0010
0100
1000
0100
,
1000
0001
0100
0010
1000
0010
0100
0001
1000
0001
0010
0100
1000
0010
0100
0001
,
1MM0
0001
1000
0010
0100
0010
1000
0001
0010
0100
1000
0001
1000
0010
0100
0001
,
1000
0100
0010
0001
0010
0100
1000
0001
0100
0010
1000
0001
0100
0001
1000
0001
,
0010
0100
1000
0001
0100
0001
1000
0100
1000
0001
0010
0001
0010
0100
1000
0001
,
1000
0010
0100
0001
1000
0010
0100
0001
1000
0100
0010
0100
1000
0001
0010
0001
,
1000
0010
0100
0001
1000
0100
0010
0001
0100
0010
1000
0001
0010
0100
1000
0001
,
0100
0010
0100
0001
1000
0100
0010
0100
1000
0001
1000
0010
1000
0001
0010
0100
,
1000
0001
1000
0100
0010
0001
1000
0010
0100
0001
0010
0100
1000
0001
0100
0010
,
1000
1001
1001
1010
1001
0011
0011
0010
,
01MM
1000
0001
1000
0010
0100
0001
1000
0100
0010
0001
1000
0010
0100
0001
0010
,
0100
1000
0100
0010
0100
1000
0001
1000
0010
0100
0010
1000
0001
0010
0100
1000
,
0010
0100
0001
0010
0100
1000
0010
0100
0001
1000
0100
0010
0001
0010
0100
1000
,
0010
0100
0001
1000
0100
0010
0100
1000
0001
0100
0010
0100
0001
1000
0100
1000
,
0001
0010
0100
1000
0010
0100
0001
1000
0100
0010
0001
1000
0010
0100
0001
1000
,
0100
0010
0100
1000
0010
0100
0001
0010
0100
1000
0100
0010
0001
0100
0010
1000
,
0100
0010
0100
1000
0001
1000
0010
0100
0001
0100
0010
1000
0100
1000
0001
0010
,
0001
0100
0010
1000
0001
0010
0100
1000
0001
0100
0010
1000
0100
0010
0001
0100
,
M01M
1000
0000
0001
0000
1000
0000
0200
,
0000
0000
0310
0000
0001
0000
2000
0000
3010
0000
0100
0010
0100
0000
0001
0000
,
1MM1
1000
0001
0020
0000
0130
1000
0002
,
0000
0000
0103
0000
0010
0000
1000
0000
0001
0010
0001
0000
1000
0000
0100
0000
,
0010
0001
0100
0020
0000
0130
0001
2000
,
0000
0000
3100
0000
0010
0000
0001
0000
1000
0100
1000
0000
0001
0000
0100
0000
,
0010
1000
0001
0020
0000
0130
1000
0020
,
0000
0000
0130
0000
0001
0000
0010
0000
0100
0010
0100
0000
1000
0000
0001
0000
,
0100
0010
1000
0200
0000
0310
0001
0200
,
0000
0000
0310
0000
1000
0000
0100
0000
0010
0001
0010
0000
0100
0000
1000
0000
,
1MM1
0001
0100
0020
0000
1030
0001
0200
,
0000
0000
0310
0000
1000
0000
0001
0000
0010
0100
0010
0000
0001
0000
1000
0000
,
0010
0100
0001
0020
0000
0130
1000
0002
,
0000
0000
0103
0000
0010
0000
1000
0000
0100
1000
0100
0000
0010
0000
0001
0000
,
1000
0010
0100
0002
0000
0013
0100
2000
,
0000
0000
3010
0000
0100
0000
0001
0000
1000
0010
1000
0000
0001
0000
0010
0000
,
0001
1000
0001
1000
0010
0100
0010
1000
0001
1000
0001
0010
0100
0010
0100
1000
,
0001
0000
0000
1000
0000
0000
0010
0000
0000
0100
0000
0000
0001
0000
0000
1000
0000
0000
0100
0000
0000
0010
0000
0000
0000
0000
0000
0100
0000
0000
0000
0000
0000
0000
0000
0000
0010
0000
0000
0000
0000
0000
0001
0000
1000
0000
0001
0000
,
1MM0
0000
0001
0000
1000
0010
0100
0001
0010
0000
0100
1000
0000
0100
0010
0000
,
0001
0000
0100
0000
0010
1000
0010
0100
0001
0000
1000
0010
0000
0100
0001
0010
,
0100
1000
0001
0100
0010
0100
0001
1000
0100
0000
0010
0001
0000
0010
0100
1000
,
0001
0000
0100
0010
0000
0100
0001
0100
0010
0000
0100
0001
1000
0000
1000
0000
,
1000
0100
0010
0000
0100
1000
0001
1000
0010
0100
0001
0000
0010
0100
1000
0001
,
0100
0010
1000
0100
0010
0001
0100
0010
1000
0100
0010
0001
0010
0100
1000
0001
,
0100
0010
0100
0001
1000
0100
0010
0001
1000
0010
0100
0001
0010
0100
1000
0001
,
0100
0110
0110
0101
1001
1100
1100
0100
,
1MM0
0001
1000
0010
0100
0001
0010
0100
1000
0010
0100
0001
0010
0100
1000
0001
,
0100
0001
1000
0010
1000
0001
0010
0100
0010
0001
1000
0100
1000
0001
0100
0010
,
1000
0100
0010
0001
0010
0100
1000
0001
0100
0010
0100
0001
1000
0100
1000
0001
,
0010
0001
0010
0100
1000
0100
1000
0001
0100
0010
1000
0001
1000
0100
1000
0001
,
0010
0100
1000
0010
0100
0001
0010
0100
1000
0010
0100
0001
0010
0100
1000
0001
,
0100
0001
1000
0010
1000
0001
0010
0100
1000
0100
0010
0001
1000
0010
1000
0001
,
0100
0010
0100
0010
1000
0001
1000
0100
0010
0100
1000
0001
0100
0010
1000
0001
,
0010
0100
1000
0001
0100
0010
1000
0100
0010
0001
0100
0010
1000
0001
1000
0001
,
MM10
0001
1000
0010
0100
0001
0010
0100
1000
0100
1000
0001
0100
0010
0100
0010
,
1000
0001
0010
0001
0100
0010
1000
0100
1000
0001
1000
0010
0100
0001
0010
0100
,
0010
0100
1000
0001
0100
0010
1000
0100
1000
0001
0100
0010
0100
0001
1000
0100
,
0010
0100
1000
0001
0100
0010
1000
0010
0100
0001
0100
0010
1000
0001
0010
0100
,
1000
0010
0100
0001
1000
0100
0010
0001
1000
0010
0100
0001
1000
0100
0010
0001
,
0010
0100
1000
0001
0100
0010
1000
0100
0010
0001
1000
0010
1000
0001
0100
0001
,
1000
0100
0010
0001
0010
0001
1000
0001
0100
0010
1000
0010
0100
0001
1000
0100
,
0010
0011
0011
1001
1010
0110
0110
0100
,
0MM1
1000
0001
0100
0010
1000
0100
0010
0001
0100
0010
1000
0100
0010
0001
1000
,
0010
1000
0001
0100
0001
1000
0100
0010
0100
1000
0001
0010
0001
1000
0010
0100
,
0001
0010
0100
1000
0100
0010
0001
1000
0010
0100
0010
1000
0001
0010
0001
1000
,
0100
1000
0100
0010
0001
0010
0001
1000
0010
0100
0001
1000
0001
0010
0001
1000
,
0100
0010
0001
0100
0010
1000
0100
0010
0001
0100
0010
1000
0100
0010
0001
1000
,
0010
1000
0001
0100
0001
1000
0100
0010
0001
0010
0100
1000
0001
0100
0001
1000
,
0010
0100
0010
0100
0001
1000
0001
0010
0100
0010
0001
1000
0010
0100
0001
1000
,
0100
0010
0001
1000
0010
0100
0001
0010
0100
1000
0010
0100
0001
1000
0001
1000
,
01MM
1000
0010
0200
0000
0301
0010
0200
,
0000
0000
0310
0000
0001
0000
1000
0000
0010
0100
0010
0000
1000
0000
0001
0000
,
0010
0100
1000
0002
0000
0103
0010
2000
,
0000
0000
3100
0000
0010
0000
0001
0000
0100
0010
0100
0000
0001
0000
0010
0000
,
M11M
0100
1000
0020
0000
1030
0100
0020
,
0000
0000
0031
0000
0100
0000
0010
0000
1000
0001
1000
0000
0100
0000
0010
0000
,
0001
1000
0010
0200
0000
0310
1000
0002
,
0000
0000
0013
0000
0100
0000
1000
0000
0001
0100
0001
0000
1000
0000
0100
0000
,
11MM
1000
0100
0020
0000
0031
1000
0020
,
0000
0000
0130
0000
0001
0000
0010
0000
0100
1000
0100
0000
0010
0000
0001
0000
,
1000
0010
0100
0002
0000
0013
0100
2000
,
0000
0000
3001
0000
0100
0000
0010
0000
1000
0100
1000
0000
0001
0000
0100
0000
,
0010
0000
1000
0000
0010
0100
0000
0010
1000
0000
0001
0100
0000
0001
1000
0000
,
0100
0010
0001
0000
1000
0100
0000
1000
0001
0000
1000
0010
0000
0100
0001
0000
,
1000
0100
0010
0100
0010
0001
1000
0001
0100
0010
1000
0001
1000
0100
0010
0001
,
1000
0010
1000
0001
0100
0010
1000
0100
1000
0001
0010
0100
1000
0001
0100
0001
,
2MM0
0000
0000
0000
,
3000
0000
0000
0000
;

//---------------dance-single - 13+ (Nappo)----------------
#NOTES:
     dance-single:
     13+ (Nappo):
     Edit:
     13:
     1.000,1.000,0.131,0.301,1.000,1842.000,30.000,69.000,24.000,0.000:
1000
0001
1000
0001
0100
0010
1000
0100
,
0010
0001
0010
0100
0010
0001
1000
0001
,
1000
0010
1000
0010
0100
0010
0100
0001
,
1000
0100
0010
0001
0010
0100
1000
0001
,
0100
0010
1000
0001
1000
0001
0100
0001
,
1000
0100
1000
0001
1000
0100
0010
0001
,
1000
0010
0100
0010
0100
0001
1000
0001
,
1000
0010
0100
0001
1000
0100
1000
0001
,
1001
1000
0100
0200
0000
0310
0001
0002
,
0000
0000
0013
0000
0010
0000
0001
1000
0001
0000
1000
0010
0100
0000
0001
0000
,
1001
0001
0100
0200
0000
0310
1000
2000
,
0000
0000
3100
0000
0100
0000
1000
0100
0010
0000
0001
0100
0010
0000
1000
0000
,
1001
1000
0100
0200
0000
0310
0001
0002
,
0000
0000
1003
0000
1000
0000
0001
0100
0010
0000
1000
0001
0010
0000
0100
0000
,
0100
1000
0001
M200
0000
0002
0300
20M0
,
0003
0000
0000
0000
3001
0010
0100
1000
0001
0100
0010
1000
0001
0100
0001
1000
,
0010
1000
1100
0200
0000
0310
0001
0002
,
0000
0000
1003
0000
1001
0000
0001
0100
0010
0000
1000
0001
0010
0000
0100
0000
,
1100
0100
0010
0020
0000
0031
1000
2000
,
0000
0000
3001
0000
1001
0000
1000
0010
0100
0000
0001
1000
0010
0000
0100
0000
,
0110
0100
0001
0002
0000
1003
0001
0002
,
0000
0000
0103
0000
0101
0000
0001
1000
0010
0000
0100
0001
1000
0000
0010
0000
,
1010
0010
0100
0200
0000
0301
1000
2000
,
0000
0000
3001
0000
0101
0000
0100
0010
1000
0000
0001
0010
0100
0000
1000
0000
,
1010
1000
0001
0002
0000
0013
0100
0200
,
0000
0000
1300
0000
1001
0000
0001
0010
0100
0000
1000
0001
0100
0000
0001
0000
,
0011
0001
1000
2000
0000
3001
0100
0200
,
0000
0000
0310
0000
1010
0000
1000
0001
0010
0000
0100
1000
0001
0000
0100
0000
,
0101
0100
0010
0020
0000
1030
0001
0002
,
0000
0000
0013
0000
0011
0000
0001
1000
0010
0000
0100
0001
1000
0000
0000
0000
,
0010
1000
0010
0100
0001
1000
0001
1000
0010
0100
0010
0100
0001
1000
0010
1000
,
0001
0010
0100
1000
0010
0100
0001
0010
0100
1000
0001
1000
0001
0010
0100
1000
,
0001
0000
1000
0100
1000
0000
0001
0010
0001
0000
0100
0010
0100
0000
0010
1000
,
0010
0000
1000
0001
1000
0000
0001
0100
0001
0000
1000
0100
1000
0000
0001
0010
,
0001
0000
1000
0001
1000
0000
0010
0100
0010
0000
1000
0001
1000
0000
0001
0010
,
0001
0000
0100
0010
0100
0000
0001
0010
0001
0000
1000
0100
1000
0000
0010
0100
,
0010
0000
1000
0100
1000
0000
0001
0010
0001
0000
1000
0001
1000
0000
0001
0100
,
0001
0000
1000
0100
1000
0000
0010
0100
0010
0000
1000
0100
1000
0000
0001
0010
,
0100
1000
0001
1000
0001
0100
0010
0100
,
0010
0000
0000
1000
0000
0000
0010
0000
0000
0100
0000
0000
0001
0000
0000
1000
0000
0000
0001
0000
0000
0100
0000
0000
0000
0000
0000
0010
0000
0000
0000
0000
0000
0010
0000
0000
0100
0000
0000
0000
0000
0000
0001
0000
1000
0000
0001
0000
,
1000
0000
0001
0100
0001
0000
1000
0100
1000
0000
0001
1000
0001
0000
1000
0100
,
1000
0000
0010
0100
0010
0000
1000
0100
1000
0000
0001
0010
0001
0000
1000
0010
,
1000
0000
0001
1000
0001
0000
1000
0100
1000
0000
0010
0100
0010
0000
1000
0100
,
1000
0000
0001
1000
0001
0000
1000
0010
1000
0000
0001
0010
0001
0000
0100
0001
,
0100
0000
0001
0010
0001
0000
1000
0100
1000
0000
0001
0100
0001
0000
0100
0010
,
0100
0000
0010
1000
0010
0000
1000
0001
1000
0000
0001
0010
0001
0000
1000
0100
,
0010
0001
1000
0001
1000
0010
0100
0001
,
1000
0100
0010
0001
1000
0001
1000
0010
0100
0001
1000
0001
1000
0010
0100
0010
,
0100
0001
1000
0100
1000
0100
0010
0001
,
1000
0010
1000
0010
0100
0001
0100
0010
,
0010
1000
0100
0010
0001
1000
0010
0100
,
0002
0000
0013
0000
0002
0000
1003
0000
0002
0000
0013
0000
0100
0000
1000
0100
,
0020
0000
0000
0130
0002
0000
0000
0103
,
2000
0000
0000
0000
0000
0000
3001
0100
0020
0000
0000
0000
0000
0000
1030
0000
,
0001
0001
1000
1000
0010
0010
0100
0100
,
0001
0010
0100
1000
0001
0010
0100
1000
0001
0100
0010
1000
0001
1000
0010
0100
,
0001
0000
1000
0100
0010
0000
0010
0100
1000
0000
1000
0100
0010
0001
1000
0001
,
0100
0000
0001
1000
0010
0000
0010
0100
0001
0000
0001
0010
0100
1000
0001
0100
,
0010
0000
1000
0100
0010
0000
0010
0100
1000
0000
1000
0100
0010
0001
0100
0010
,
1000
0000
0001
0100
0010
0000
0010
0100
0001
0000
0001
0010
0100
1000
0001
0010
,
0001
1000
0010
1000
0001
0010
0100
1000
0010
0100
0001
0010
0100
1000
0001
0100
,
0001
0100
0010
1000
0001
0010
0100
1000
0010
0100
0001
0010
0100
1000
0001
0100
,
0001
1000
0100
1000
0001
0100
0010
1000
0010
0100
0010
1000
0001
1000
0100
0010
,
0001
1000
1000
1000
0001
0001
0020
0030
,
1MM1
0000
1000
0100
0010
0000
0010
0100
1000
0000
1000
0001
0100
0010
1000
0001
,
1000
0000
0001
0010
0100
0000
0100
0010
0001
0000
0001
0010
0100
1000
0001
0100
,
0010
0000
1000
0010
0100
0000
0100
0010
1000
0000
1000
0001
0010
0100
1000
0001
,
0100
0000
0001
0010
0100
0000
0100
0010
0001
0000
0001
1000
0010
1000
0010
0100
,
0001
0010
0100
1000
0001
0100
0010
1000
0001
0100
0001
1000
0100
0010
0001
0100
,
0010
1000
0100
0010
0001
0010
0100
0010
0100
1000
0001
0010
0001
1000
0100
1000
,
0001
1000
0010
0100
0010
1000
0001
0100
0001
1000
0100
0010
0001
1000
0001
0100
,
0010
0000
0000
1000
0000
0000
0010
0000
0000
0100
0000
0000
0001
0000
0000
1000
0000
0000
0010
0000
0000
1000
0000
0000
0001
0000
0010
0000
0100
0000
1000
0000
0001
0000
0100
0000
0001
0000
0000
1000
0000
0000
0010
0000
0000
0100
0000
0000
,
0001
1000
0100
0010
0100
1000
0001
0100
,
0010
1000
0010
1000
0001
1000
0100
0020
,
0030
10M0
0100
0020
0030
10M0
0100
0020
,
0000
0031
1000
0020
0030
10M0
0001
0020
,
0030
10M0
0001
0020
0030
10M0
0001
0020
,
0000
0031
1000
0100
0010
0100
1000
0001
,
M100
0010
0100
001M
1000
0001
1M00
0001
,
0010
0100
0010
0100
1000
0001
1000
0001
,
1001
1000
0001
1000
0001
1000
0001
1000
,
0M04
00M0
M000
00M0
0M00
00M0
M000
00M0
,
2003
0000
0000
0000
0000
0000
3100
0000
0000
0200
0000
0000
0000
0000
0000
0310
0000
0000
0001
0000
0100
0001
0000
0000
,
1000
0100
0010
0001
1000
0100
0010
0001
1000
0010
0100
0001
1000
0010
0100
0001
,
1000
0000
0001
0010
0100
0000
0100
0010
0001
0000
0001
0010
0100
1000
0001
0100
,
0010
0000
1000
0010
0100
0000
0100
0010
1000
0000
1000
0100
0010
0001
1000
0010
,
0100
0000
0001
0010
0100
0000
0100
0010
0001
0000
0001
0010
0100
1000
0010
0100
,
0001
0000
1000
0010
0100
0000
0100
0010
1000
0000
1000
0001
0100
0001
1000
0001
,
1000
0100
0010
0001
1000
0100
0010
0001
0100
0010
1000
0100
0010
0001
1000
0010
,
1000
0010
0100
0001
1000
0100
0010
0001
0100
0010
1000
0100
0010
0001
1000
0010
,
1000
0001
0010
0001
1000
0010
0100
0001
0100
0010
1000
0001
1000
0001
0010
0100
,
1000
0001
0001
0001
1000
1000
0200
0300
,
1MM1
0000
0001
0100
0010
0000
0010
0100
0001
0000
0001
1000
0100
0010
0001
1000
,
0001
0000
1000
0100
0010
0000
0010
0100
1000
0000
1000
0001
0100
0010
1000
0010
,
0100
0000
0001
0100
0010
0000
0010
0100
0001
0000
0001
1000
0100
0010
0001
1000
,
0010
0000
1000
0100
0010
0000
0010
0100
1000
0000
1000
0001
0100
0001
0100
0001
,
1000
0100
0010
0001
1000
0010
0100
0001
1000
0010
1000
0001
0010
0100
1000
0010
,
0100
0001
0010
0100
1000
0100
0010
0100
0010
0001
1000
0100
1000
0001
0010
0001
,
1000
0001
0100
0010
0100
0001
1000
0010
1000
0001
0010
0100
1000
0001
1000
0010
,
0100
0000
0000
0001
0000
0000
0100
0000
0000
0010
0000
0000
1000
0000
0000
0001
0000
0000
1000
0000
0000
0010
0000
0000
1000
0000
0100
0000
0010
0000
0001
0000
1000
0000
0001
0000
1000
0000
0000
0001
0000
0000
0100
0000
0000
0010
0000
0000
,
1000
0100
0010
0100
1000
0001
0100
0001
,
0100
0000
0010
0000
1000
0000
0010
0000
1000
0100
0010
0001
1000
0010
0100
0001
,
1000
0001
0010
0020
0000
0130
1000
2000
,
0000
0000
3001
0000
0001
0000
1000
0010
1000
0000
0010
0100
0010
0000
1000
0000
,
1001
1000
0100
0200
0000
0310
0001
0002
,
0000
0000
0013
0000
0010
0000
0001
0010
0100
0000
1000
0001
0100
0000
0001
0000
,
1001
0001
0100
0200
0000
0310
1000
2000
,
0000
0000
3001
0000
0001
0000
1000
0100
0010
0000
0001
0100
0010
0000
0010
0000
,
1000
0100
0010
0020
0000
0130
1000
2000
,
0000
0000
3001
0000
0001
0000
1000
0010
1000
0000
0001
0100
0001
0000
1000
0000
,
1001
1000
0100
0200
0000
0310
0001
0002
,
0000
0000
0013
0000
0010
0000
0001
1000
0010
0000
0100
0010
1000
0000
0001
0000
,
1001
0001
0100
0200
0000
0310
1000
2000
,
0000
0000
3001
0000
0001
0000
0100
0010
0100
0000
0001
1000
0010
0000
0010
0000
,
1000
0001
1000
0001
0010
0001
0010
0001
,
0010
0100
0010
0100
1000
0001
1000
0001
,
1000
0100
0010
0001
1000
0100
0010
0001
1000
0010
0100
0001
1000
0010
0100
0001
,
1000
0000
0000
0001
0000
0000
0100
0000
0000
0010
0000
0000
1000
0000
0000
0001
0000
0000
1000
0000
0000
0010
0000
0000
0000
0000
0000
0100
0000
0000
0000
0000
0000
0100
0000
0000
0001
0000
0000
0000
0000
0000
1000
0000
0001
0000
1000
0000
,
0001
0000
0010
0000
0100
1000
0100
0010
0200
0000
1300
0001
0000
1000
0001
0000
,
0100
0000
0100
0000
0010
1000
0100
0010
0200
0000
1300
0001
0000
1000
0001
0000
,
0100
0000
0100
0000
0001
0010
0100
1000
0002
0000
0103
0010
0000
0100
0010
0000
,
1000
0000
1000
0000
0100
0010
0001
0010
0200
0000
1300
0001
0000
1000
0001
0000
,
1000
0010
0100
0001
1000
0010
0100
0001
1000
0100
0010
0001
1000
0100
0010
0001
,
0100
0010
1000
0100
0010
0001
1000
0010
0100
0010
0100
0001
1000
0001
0100
0001
,
1000
0010
1000
0100
0010
0001
1000
0100
0010
0001
1000
0001
0100
0001
1000
0010
,
0100
0010
1000
0001
0010
0001
0100
0010
1000
0100
1000
0010
0100
0001
0010
0001
,
1000
0100
0010
0100
1000
0001
0100
0001
0100
0010
1000
0010
1000
0100
0010
0100
,
1000
0010
0100
0001
0010
0100
0010
0001
1000
0100
0010
0100
0010
0001
1000
0010
,
0100
0010
1000
0001
0100
0010
0100
0001
1000
0001
1000
0010
0100
0010
0100
0001
,
1000
0010
0100
0001
1000
0010
0100
0010
1000
0100
0010
0001
0010
0100
0010
0001
,
1000
0010
0100
0001
1000
0010
0100
0001
1000
0001
0010
0001
1000
0100
0010
0001
,
0100
0010
1000
0100
0010
0001
1000
0010
0100
0010
1000
0001
0100
0010
0100
0001
,
1000
0010
1000
0001
0100
0001
1000
0100
1000
0010
0100
0010
1000
0100
0010
0100
,
0010
0000
0000
0001
0000
0000
1000
0000
0000
0100
0000
0000
0010
0000
0000
0100
0000
0000
1000
0000
0000
0001
0000
0000
1000
0000
0100
0000
0010
0000
0001
0000
1000
0000
0100
0000
1000
0000
0000
0001
0000
0000
0100
0000
0000
0010
0000
0000
,
1000
0001
0100
0010
1000
0100
0010
0100
1000
0100
0010
0001
0100
0010
1000
0100
,
0010
0001
1000
0010
0100
0010
1000
0001
0100
0001
1000
0010
0100
0001
0010
0100
,
0010
0001
1000
0010
0100
0010
0100
0001
1000
0100
1000
0010
0100
0001
0010
0001
,
1000
0010
0100
0010
0100
0001
1000
0100
0010
0001
1000
0100
0010
0001
1000
0010
,
0100
0001
1000
0100
0010
0100
1000
0001
0100
0001
0100
0010
1000
0010
1000
0100
,
0010
0001
0010
0100
0010
0001
1000
0010
0100
0010
1000
0001
0010
0001
1000
0100
,
0010
0100
1000
0010
0100
0001
0010
0100
0010
0001
0010
0100
1000
0001
0100
0010
,
1000
0001
1000
0001
1000
0001
1000
0001
0100
0010
0100
0010
0100
0010
0100
0010
,
1000
0100
0010
0100
1000
0001
0100
0001
0100
0010
1000
0010
1000
0100
0010
0001
,
0010
0100
0010
0001
1000
0010
0100
0010
1000
0001
0100
0010
0100
0001
1000
0100
,
0010
0100
0010
0001
1000
0010
0100
0001
1000
0100
1000
0001
0100
0001
0100
0010
,
1000
0100
1000
0100
0010
0001
1000
0010
1000
0010
0100
0001
0100
0010
1000
0001
,
1000
0100
0010
0001
1000
0100
0010
0001
1000
0010
0100
0001
1000
0010
0100
0001
,
1000
0100
1000
0010
0100
0001
0010
0001
1000
0010
1000
0010
0100
0001
0010
0001
,
1000
0100
0010
0001
1000
0100
0010
0001
0010
0100
0010
0001
1000
0010
0100
0010
,
1000
0000
0000
0001
0000
0000
0010
0000
0000
0100
0000
0000
1000
0000
0000
0001
0000
0000
0100
0000
0000
0010
0000
0000
1000
0000
0100
0000
0010
0000
0001
0000
1000
0000
0001
0000
1000
0000
0000
0010
0000
0000
0100
0000
0000
0001
0000
0000
,
1000
0001
0010
0020
0000
0130
1000
2000
,
0000
3001
0001
0100
0100
0001
1000
0001
,
1001
1000
0100
0200
0000
0310
0001
0002
,
0000
1003
1000
0100
0100
1000
0010
1000
,
1001
0001
0100
0200
0000
0310
1000
2000
,
0000
3001
0001
0100
0100
0001
1000
0001
,
1001
1000
0100
0200
0000
0310
0001
0002
,
0000
0013
0010
0001
0001
0100
0010
1000
,
1001
0001
0100
0200
0000
0310
1000
2000
,
0000
3100
0100
1000
1000
0001
0100
0001
,
1001
1000
0100
0200
0000
0310
0001
0002
,
0000
0000
1MM3
0000
0000
1000
0000
0000
0010
0000
0000
0010
0000
0000
0100
0000
,
0000
0000
0001
0000
0000
0001
0000
0000
0010
0000
0000
0010
0000
0000
0001
0000
,
0000
0000
1000
0000
0000
1000
0000
0000
0100
0000
0000
0100
0000
0000
1000
0000
,
0001
0100
0001
0100
0010
1000
0010
1000
,
0001
0010
0100
1000
0001
0010
0100
1000
0001
0100
0010
1000
0001
0100
0010
1000
,
0001
0000
0000
0000
;
