#TITLE:Welcome To My Fuckin' Flower Garden!!;
#SUBTITLE:;
#ARTIST:Cirwo;
#TITLETRANSLIT:;
#SUBTITLETRANSLIT:;
#ARTISTTRANSLIT:;
#CREDIT:;
#BANNER:flower garden bn.png;
#BACKGROUND:flower garden bg.png;
#LYRICSPATH:;
#CDTITLE:cdtitlecondortalon.png;
#MUSIC:Welcome To My Fuckin' Flower Garden!!.ogg;
#OFFSET:0.006;
#SAMPLESTART:24.618;
#SAMPLELENGTH:12.307;
#SELECTABLE:YES;
#DISPLAYBPM:156.000:312.000;
#BPMS:0.000=156.000,62.000=312.000,191.000=156.000,271.250=312.000,411.000=156.000,539.000=39.000;
#STOPS:62.000=0.577
,255.250=-3.077
,263.250=-2.692
,271.250=-1.202
;
#BGCHANGES:;
// cache tags:
#FIRSTBEAT:32.000;
#LASTBEAT:539.000;
#SONGFILENAME:Songs/Index Tournament 1/[CondorTalon] Welcome To My Fuckin' Flower Garden!!/Welcome To My Fuckin' Flower Garden!!.sm;
#HASMUSIC:1;
#HASBANNER:1;
#MUSICLENGTH:149.900;
// end cache tags

//---------------dance-single - CondorTalon----------------
#NOTES:
     dance-single:
     CondorTalon:
     Challenge:
     12:
     0.832,1.000,0.540,0.407,0.384,730.000,81.000,61.000,80.000,3.000:
0000
0000
0000
0000
,
0000
0000
0000
0000
,
0000
0000
0000
0000
,
0000
0000
0000
0000
,
0000
0000
0000
0000
,
0000
0000
0000
0000
,
0000
0000
0000
0000
,
0000
0000
0000
0000
,
1100
0000
0000
0000
1000
0000
0000
0000
0100
1000
0100
1000
0100
1000
0100
1000
,
0001
0000
0000
0000
1000
0000
0000
0000
0001
0010
0001
0010
0001
0010
0001
0010
,
0100
0000
0000
0000
1000
0000
0000
0000
0001
1000
0001
1000
0001
1000
0001
1000
,
0100
0000
0000
0000
0110
0000
0000
0000
1000
0001
1000
0001
1000
0001
1000
0001
,
0100
0000
0000
0000
0010
0000
0000
0000
1000
0010
1000
0010
1000
0010
1000
0010
,
0100
0000
0000
0000
0001
0000
0000
0000
1000
0001
1000
0001
1000
0001
1000
0001
,
0010
0000
0000
0000
0001
0000
0000
0000
0100
0010
0100
0010
0100
0010
0100
0010
,
1000
0000
1100
0000
00MM
0000
1000
0100
,
1000
0100
0010
0001
1000
0001
0100
0010
,
0100
0001
1000
0100
0010
0100
1000
0001
,
0100
0010
1000
0001
1000
0010
1000
0100
,
0010
0100
4000
3001
0040
0130
1000
0001
,
1000
0010
0100
0001
0010
0100
1000
0100
,
0010
0100
1000
0001
1000
0100
0010
0001
,
1000
0001
0100
0010
0100
0001
1000
0001
,
1000
0000
0100
0000
0020
0000
0130
M00M
0100
0000
0001
0000
0100
0000
0001
0000
,
1000
0010
1000
0100
0010
0001
0100
0001
,
1000
0100
1000
0001
0010
0100
1000
0100
,
1000
0001
0100
0001
0100
0010
1000
0100
,
1000
0001
0020
0000
0430
0000
1300
0001
,
0100
0010
0100
0001
1000
0100
1000
0001
,
0010
0100
1000
0001
1000
0001
1000
0000
,
0100
M00M
0100
0000
0001
0000
0000
0000
0010
M00M
0010
0000
2000
0000
0000
0000
,
3000
0000
0000
0001
0100
0010
1000
0100
,
0010
0001
1000
0001
0010
0100
0010
0001
,
0100
0010
1000
0001
1000
0010
1000
0001
,
0010
0100
1000
0001
0010
0100
1000
0100
,
0010
0000
0000
0001
0000
0000
1000
0000
0000
0001
0000
0000
1000
0000
0001
0000
1000
0000
0001
0000
0000
0010
0000
0000
,
0100
1000
0001
0100
0010
0100
0001
1000
,
0010
1000
0100
0010
0100
1000
0100
0010
,
0001
0000
0100
0000
0001
0000
1000
0000
0001
0000
1000
0000
0100
0000
0000
0010
,
0000
0000
0001
0000
0000
1000
0000
0000
0100
0000
0040
0000
0031
0000
1000
0000
,
0001
0100
0010
0100
0001
1000
0100
0010
,
0100
1000
0001
0010
0100
1000
0001
0100
,
0010
1000
0010
0100
0001
0010
0100
1000
,
0001
1000
0100
0010
0100
1000
0001
0100
,
0010
0100
0001
1000
0100
0010
0100
1000
,
0001
0100
0001
1000
0100
1000
0002
0000
,
0000
0000
0000
0000
,
0000
0000
0003
0000
0000
0000
1MM0
0001
,
1001
0000
1000
0001
0010
0001
1000
0000
0100
0000
1100
0000
1000
0100
0010
0000
,
0011
0000
0001
1000
0001
1000
0010
0000
0100
0001
0010
0100
1000
0000
0010
0000
,
1010
0000
1000
0001
0010
0001
0100
0000
0010
0000
1010
0000
1000
0100
0010
0000
,
0110
0000
0100
1000
0001
1000
0010
0000
0100
0000
0001
0000
1000
0000
0001
0000
,
1001
0000
1000
0100
1000
0010
1000
0000
0001
0000
0011
0000
0010
0100
1000
0000
,
0001
0000
0100
0010
0100
0001
1000
0000
0010
1000
0010
1000
0100
0000
1000
0000
,
1001
0000
0001
0100
0010
0100
0001
0000
0010
0000
0110
0000
0100
1000
0010
0000
,
1010
0000
1000
0001
1000
0001
0010
0000
0100
0000
1000
0000
1002
0000
0000
0000
,
0000
0000
0000
0023
,
0000
0000
0000
0000
0000
0000
M230
230M
,
32M0
0000
0000
0000
000M
0000
0000
0000
0320
0000
0000
0000
0000
0000
0000
0000
M000
0000
0000
0000
0000
0000
0000
0000
0M32
0000
0000
0000
0000
0000
0000
0000
M203
M000
M000
M000
M000
M000
M000
M000
M320
M000
M000
M000
M000
M000
M000
M000
M230
M000
M000
M000
M000
M000
M000
M000
M000
M000
M000
M000
M000
M000
M000
M000
,
M302
0000
2003
0000
0000
0000
320M
0000
M320
000M
0000
0000
0M32
0000
0000
M000
,
0000
0000
0000
M200
,
0000
0000
0000
M020
,
0000
0000
0000
M000
,
0000
0000
0333
0000
,
0000
0000
0000
0000
,
0000
0000
0000
0000
0000
0000
0000
0000
0000
0000
0000
0000
0000
0000
0000
MMMM
,
0000
M000
0000
MMM0
0000
M000
0000
M000
0000
0000
0000
0000
0000
0000
0000
0000
,
0000
0000
0000
0000
0000
0000
0000
0000
0000
0000
0000
0000
0000
0000
0000
M00M
,
0000
M00M
0000
M00M
0000
M00M
0000
0MM0
0000
0000
0000
0000
0000
0000
0000
0000
,
0000
0000
0000
0000
,
0000
0000
0000
0000
0000
0000
1000
0001
,
0100
0010
0100
0001
0010
0100
1000
0100
,
0010
0100
1000
0001
0100
0010
0100
0001
,
1000
0010
1000
0100
1000
0001
0010
0100
,
1000
0000
0000
0001
0000
0000
0100
0000
0000
0010
0000
0000
1000
0000
0001
0000
1000
0000
0001
0000
0000
0010
0000
0000
,
0100
1000
0100
0010
0001
1000
0001
0100
,
0010
1000
0010
0100
0001
1000
0100
0010
,
0100
1000
0001
0010
0100
0010
0004
0000
,
0103
0000
0000
0000
0000
0010
0000
0000
0000
0000
1000
0000
0000
0000
0000
0010
0000
0000
0000
0000
0400
0000
0000
0000
0301
0000
0000
0000
1000
0000
0000
0000
,
0010
0100
0010
1000
0001
0010
0100
1000
,
0100
0010
0001
1000
0100
1000
0001
0100
,
0010
0100
0001
0010
0001
1000
0100
0010
,
0001
1000
0100
0010
0100
1000
0001
0100
,
0010
1000
0001
1000
0010
1000
0100
0010
,
0100
1000
0001
0100
0001
1000
0001
0000
,
0000
1001
0000
1001
,
0000
0000
0000
0000
0000
0000
1000
0100
,
0010
0100
1000
0001
0100
0010
0100
0001
,
1000
0010
1000
0100
1000
0001
0010
0100
,
1000
0100
0010
0100
1000
0001
0100
0010
,
0100
0001
1000
0000
0400
0000
1300
0001
,
0100
0010
0100
0001
0010
0100
1000
0100
,
0010
0100
1000
0001
0100
0001
1000
0010
,
0100
0010
0100
0001
1000
0001
0010
0400
,
1300
0040
1030
0004
0043
0000
0130
1000
,
0001
0100
0010
0100
0001
0010
0001
0100
,
0001
0100
0010
1000
0001
0100
0010
0100
,
0001
1000
0010
1000
0001
0010
0100
1000
,
0100
0010
0100
1000
0001
0010
0100
0010
,
0001
0010
0100
1000
0010
0100
0010
1000
,
0010
0100
0001
1000
0001
0010
0002
0000
,
0000
0000
0000
0000
,
0000
0000
0000
1MM3
,
1010
0101
1010
0110
,
1001
1100
0110
0011
,
1001
0110
1001
1100
,
0101
0000
0000
0011
0000
0001
1000
0000
0100
0010
0000
0000
,
0011
1001
1100
0101
,
1100
0000
0000
0000
0000
0000
0110
0000
0000
0000
0000
0000
1002
0000
0000
0000
0000
0003
1010
0000
0000
0000
0000
0000
,
2100
0000
0000
0000
0000
3000
0101
0000
0000
0000
0000
0000
1002
0000
0000
0000
0000
0003
2100
0000
0000
0000
0000
3000
,
0120
0000
0000
0000
0000
0030
1001
0000
0000
0000
0001
0000
1000
0000
0010
0000
0100
0000
0010
0000
0000
0000
0000
0000
,
1010
1100
0101
1001
,
0110
1001
0011
0110
,
0011
1010
0011
1001
,
1010
0000
0000
0010
0100
0010
1000
0000
0001
1000
0000
0000
,
1100
0110
1100
1001
,
0011
0110
1001
1100
,
0101
0011
1010
0110
,
1001
0000
0000
1000
0010
0100
0001
0000
0000
2000
0000
0000
,
0000
0000
0000
3200
,
0000
0000
0000
0000
0000
0000
0320
0032
,
2003
3020
0000
2030
3020
0230
0302
0000
,
0023
0000
0230
0320
0000
0000
0230
0000
,
0000
0000
0000
2000
,
0000
0000
0000
0002
,
0000
0000
0000
0000
,
0000
0000
3303
2000
3200
2300
3200
0000
,
0000
0000
0000
0320
,
0000
0000
0000
0000
0000
0000
0032
2003
,
3020
0230
0000
0320
2030
3002
0003
0000
,
0020
0000
0230
2300
0000
0000
3002
0000
,
0000
0000
0000
2000
,
0000
0000
0000
0020
,
0000
0000
0000
0000
,
0000
0000
0000
3M33
;
