#TITLE:Spice;
#SUBTITLE:;
#ARTIST:Dj Entity;
#TITLETRANSLIT:;
#SUBTITLETRANSLIT:;
#ARTISTTRANSLIT:;
#CREDIT:;
#BANNER:spice - dj entity.banner.jpg;
#BACKGROUND:spice.bg.jpg;
#LYRICSPATH:;
#CDTITLE:CDTITLE.jpg;
#MUSIC:DJ Entity - Spice.mp3;
#OFFSET:-0.080;
#SAMPLESTART:100.000;
#SAMPLELENGTH:12.000;
#SELECTABLE:YES;
#BPMS:0.000=175.520;
#STOPS:;
#BGCHANGES:;
// cache tags:
#FIRSTBEAT:16.000;
#LASTBEAT:353.000;
#SONGFILENAME:Songs/Definitive Keyboard Megapack/Spice - DJ Entity(Leone510)/DJ Entity - Spice.sm;
#HASMUSIC:1;
#HASBANNER:1;
#MUSICLENGTH:140.832;
// end cache tags

//---------------dance-single - ----------------
#NOTES:
     dance-single:
     :
     Medium:
     9:
     0.579,0.721,0.809,0.007,0.004,456.000,114.000,1.000,0.000,0.000:
0000
0000
0000
0000
,
0000
0000
0000
0000
,
0000
0000
0000
0000
,
0000
0000
0000
0000
,
0000
0000
0000
0000
,
0000
0000
0000
0000
,
0000
0000
0000
0000
,
1000
0001
1000
0010
1000
0010
0000
0000
,
0100
0010
0100
0010
,
0100
0010
0100
0010
,
1000
0001
1000
0001
,
1000
0001
1000
0001
,
0010
1000
0010
1000
,
0010
1000
0010
1000
,
0100
0001
0100
0001
,
0100
0001
0100
0001
,
0100
0010
0100
0010
,
0100
0010
0100
0010
,
1000
0001
1000
0001
,
1000
0001
1000
0001
,
0010
1000
0010
1000
,
0010
1000
0010
1000
,
0100
0001
0100
0001
,
0100
0001
0100
0001
,
1000
0001
1000
0001
0100
0001
0100
0010
,
1000
0010
1000
0010
0100
0010
0100
0001
,
1000
0001
1000
0001
1000
0100
0001
0100
,
0001
0100
1000
0100
1000
0010
0001
0010
,
0001
1000
0001
1000
0010
0100
0010
0100
,
0001
0100
0001
0100
0010
1000
0010
1000
,
0010
0001
0010
0001
1000
0010
1000
0010
,
0001
0000
1000
0000
0110
0000
0010
1000
0100
0000
0100
0000
1001
0000
0000
0000
,
0101
1010
0101
1100
,
0110
0000
0101
0000
0110
0000
1010
0100
,
0101
1100
0101
1001
,
1010
0000
0110
0000
1001
0000
0101
0010
,
1010
0110
1001
0101
,
0110
0000
1010
0000
0011
0000
1010
0010
,
1100
1001
0110
0101
,
1010
0110
1010
1001
,
1100
0001
1000
0001
1000
0001
0100
0001
,
0100
1000
0010
1000
0010
0001
0100
0001
,
0100
0010
1000
0010
1000
0010
0100
0010
,
0100
0010
0001
0100
0001
1000
0001
1000
,
0010
1000
0100
0001
0010
0001
1000
0100
,
0010
0001
0100
1000
0001
0010
1000
0100
,
0001
0100
1000
0100
0001
0010
1000
0010
,
0101
1001
1001
0110
,
0101
1010
0101
1100
,
0110
0000
0101
0000
0110
0000
1010
0100
,
0101
1100
0101
1001
,
1010
0000
0110
0000
1001
0000
0101
0010
,
1010
0110
1001
0101
,
0110
0000
1010
0000
0011
0000
1010
0010
,
1100
1001
0110
0101
,
1010
0110
1010
1001
,
0101
1010
0101
1100
,
0110
0000
0101
0000
0110
0000
1010
0100
,
0101
1100
0101
1001
,
1010
0000
0110
0000
1001
0000
0101
0010
,
1010
0110
1001
0101
,
0110
0000
1010
0000
0011
0000
1010
0010
,
1100
1001
0110
0101
,
1010
0100
0001
1000
0011
1001
0101
0110
,
1100
0001
1000
0001
1000
0001
0100
0001
,
0100
1000
0010
1000
0010
0001
0100
0001
,
0100
0010
1000
0010
1000
0010
0100
0010
,
0100
0010
0001
0100
0001
1000
0001
1000
,
0010
1000
0100
0001
0010
0001
1000
0100
,
0010
0001
0100
1000
0001
0010
1000
0100
,
0001
0100
1000
0100
0001
0010
1000
0010
,
0101
1001
1001
0110
,
1100
0001
1000
0001
1000
0001
0100
0001
,
0100
1000
0010
1000
0010
0001
0100
0001
,
0100
0010
1000
0010
1000
0010
0100
0010
,
0100
0010
0001
0100
0001
1000
0001
1000
,
0010
1000
0100
0001
0010
0001
1000
0100
,
0010
0001
0100
1000
0001
0010
1000
0100
,
0001
0100
1000
0100
0001
0010
1000
0010
,
0101
1001
1001
0110
,
1000
0001
1000
0001
,
1000
0010
1000
0010
,
0100
0010
0100
0001
,
0100
0001
0100
0001
,
1000
0001
1000
0001
,
1000
0010
1000
0010
,
0100
0010
0100
0001
,
0100
0001
0100
0001
,
2000
3000
0000
0000
;

//---------------dance-single - ----------------
#NOTES:
     dance-single:
     :
     Hard:
     12:
     1.000,1.000,1.000,0.788,0.298,712.000,263.000,111.000,0.000,72.000:
0000
0000
0000
0000
,
0000
0000
0000
0000
,
0000
0000
0000
0000
,
0000
0000
0000
0000
,
0010
1000
0010
1000
0010
0100
0001
0100
,
0001
1000
0001
1000
0100
0001
0100
0001
,
0100
0010
0100
0010
0100
0010
1000
0001
,
1100
0000
0010
0000
0201
0000
2300
0000
3001
1010
0200
0000
0310
0100
0020
0000
,
1030
0100
0002
0103
1000
0100
0002
0103
,
1000
0100
0002
0103
1000
0100
0002
0103
,
2000
3001
2000
3001
2000
3001
2000
3001
,
2000
3001
2000
3001
2000
3001
2000
3010
,
2000
3010
0002
0013
1000
0010
0002
0013
,
1000
0010
0002
0013
1000
0010
0002
1003
,
0200
1300
0200
1300
0200
1300
0200
1300
,
0200
1300
0200
1300
0200
1300
0200
1300
,
0101
0010
1000
0000
0101
0000
1000
0000
0110
0000
0011
0000
1010
0000
0100
0000
,
0011
1000
0101
1000
0101
1001
0110
0100
,
1010
0100
0110
0001
1010
0101
1001
0010
,
1001
0010
1100
0001
0011
0110
1001
0100
,
0101
1000
0101
1000
0110
0011
1010
0100
,
0011
1000
0101
1000
0101
1001
0110
0100
,
1010
0100
0110
0001
1010
0101
1001
0010
,
1001
0010
1100
0001
0011
0110
1001
0100
,
0101
1000
0101
1000
0110
0011
1010
0100
,
0011
1000
0101
1000
0101
1001
0110
0100
,
1010
0100
0110
0001
1010
0101
1001
0010
,
1001
0010
1100
0001
0011
0110
1001
0100
,
0101
1000
0101
1000
0110
0011
1010
0100
,
0011
1000
0101
1000
0101
1001
0110
0100
,
1010
0100
0110
0001
1010
0101
1001
0010
,
1001
0000
0010
0000
1100
0000
0001
1000
0011
0000
0110
0000
1001
0000
0101
0000
,
0200
2300
3002
2003
,
3020
0000
0230
0000
0302
0000
2003
0011
,
3200
0302
2003
3020
,
0230
0000
0320
0000
0032
0000
2003
0101
,
3002
2003
3020
0032
,
2003
0000
3200
0000
0302
0000
2003
0110
,
3020
0230
2300
3002
,
2023
0000
0000
3030
0220
0000
0000
0330
0202
0000
0000
0303
2002
0000
0000
3003
,
0101
0100
1010
0010
0101
1000
0101
0010
,
1001
0001
1010
0100
0011
0010
1100
0010
,
1001
0010
1100
0010
0101
1000
0011
1000
,
0110
0001
1010
0100
1001
0010
0110
0001
,
0010
0100
1000
0100
0011
0100
1000
0100
0010
0001
0010
0100
1001
0100
0010
0001
,
0010
0100
1000
0100
0011
0100
1000
0100
0010
0001
0010
0100
1001
0100
0010
0001
,
0010
0100
1000
0100
0001
1000
0001
1000
0011
0100
0001
0010
0001
0010
0100
1000
,
0202
0303
2002
3003
0202
0303
0220
0330
,
1101
0010
0101
0010
1011
0100
0011
1000
,
0111
1000
0110
0100
1011
0100
1010
0001
,
1110
0001
0110
0010
1101
0001
0110
1000
,
0111
0001
0110
1000
1101
0010
0101
1000
,
0111
1000
1010
0100
1011
0100
0011
1000
,
0111
0010
1001
0010
1101
0010
0101
1000
,
0111
0010
0110
0001
0111
0100
1100
0010
,
2202
3303
2220
3330
2022
3033
2202
3303
,
1101
0010
0101
0010
1011
0100
0011
1000
,
0111
1000
0110
0100
1011
0100
1010
0001
,
1110
0001
0110
0010
1101
0001
0110
1000
,
0111
0001
0110
1000
1101
0010
0101
1000
,
0111
1000
1010
0100
1011
0100
0011
1000
,
0111
0010
1001
0010
1101
0010
0101
1000
,
0111
0010
0110
0001
0111
0100
1100
0010
,
1101
0100
1110
0100
1011
1011
1101
1011
,
1101
0010
0101
0010
1011
0100
0011
1000
,
0111
1000
0110
0100
1011
0100
1010
0001
,
1110
0001
0110
0010
1101
0001
0110
1000
,
0111
0001
0110
1000
1101
0010
0101
1000
,
0111
1000
1010
0100
1011
0100
0011
1000
,
0111
0010
1001
0010
1101
0010
0101
1000
,
0111
0010
0110
0001
0111
0100
1100
0010
,
2202
3303
2220
3330
2022
3033
2202
3303
,
1101
0010
0101
0010
1011
0100
0011
1000
,
0111
1000
0110
0100
1011
0100
1010
0001
,
1110
0001
0110
0010
1101
0001
0110
1000
,
0111
0001
0110
1000
1101
0010
0101
1000
,
0010
0100
1000
0100
0011
0100
1000
0100
0010
0001
0010
0100
1001
0100
0010
0001
,
0010
0100
1000
0100
0011
0100
1000
0100
0010
0001
0010
0100
1001
0100
0010
0001
,
0010
0100
1000
0100
0001
1000
0001
1000
0011
0100
0001
0010
0001
0010
0100
1000
,
2202
3303
2220
3330
2022
3033
2202
3303
,
0101
1000
0110
0001
1010
0100
1001
0010
,
1100
0010
1010
0001
0110
1000
0101
0010
,
1001
0100
0011
1000
0101
0010
1001
0010
,
1001
0010
1100
0001
1010
0100
0011
1000
,
0010
0100
1000
0100
0011
0100
1000
0100
0010
0001
0010
0100
1001
0100
0010
0001
,
0010
0100
1000
0100
0011
0100
1000
0100
0010
0001
0010
0100
1001
0100
0010
0001
,
0010
0100
1000
0100
0011
0100
1000
0100
0010
0001
0010
0100
1001
0100
0010
0001
,
0010
0100
1000
0100
0011
0100
1000
0100
0010
0001
1000
0100
0001
1000
0001
1000
,
2002
3003
0000
0000
;
