#TITLE:Sword Fight;
#SUBTITLE:Brave Fencer Musashi;
#ARTIST:Tsuyoshi Sekito;
#TITLETRANSLIT:;
#SUBTITLETRANSLIT:;
#ARTISTTRANSLIT:;
#CREDIT:;
#BANNER:Sword Fight.png;
#BACKGROUND:Sword Fight-bg.png;
#LYRICSPATH:;
#CDTITLE:!danceguyTitle.png;
#MUSIC:Sword Fight.mp3;
#OFFSET:-0.153;
#SAMPLESTART:30.000;
#SAMPLELENGTH:12.000;
#SELECTABLE:YES;
#BPMS:0.000=199.400;
#STOPS:;
#BGCHANGES:;
// cache tags:
#FIRSTBEAT:2.000;
#LASTBEAT:290.000;
#SONGFILENAME:Songs/VGMP 2/Sword Fight (dAnceguy117)/Sword Fight.sm;
#HASMUSIC:1;
#HASBANNER:1;
#MUSICLENGTH:97.906;
// end cache tags

//---------------dance-single - Heavy----------------
#NOTES:
     dance-single:
     Heavy:
     Hard:
     11:
     1.000,1.000,1.000,0.000,1.000,713.000,137.000,0.000,0.000,0.000:
0000
0000
0000
0000
0000
0000
0000
0000
1001
0000
1000
0010
1000
0000
0010
1000
,
0010
0000
0100
0010
0100
0000
0010
0100
0010
0000
0100
0001
0100
0000
0001
0100
,
0001
0000
1000
0001
1000
0000
0001
1000
0001
0000
1000
0100
1000
0000
0100
1000
,
0100
0000
0010
0100
0010
0000
0001
0010
0001
0000
1000
0001
1000
0000
0010
0100
,
0010
0000
1000
0001
0010
0001
1000
0100
0011
0000
0001
0010
0001
0000
1000
0001
,
1000
0000
0010
0100
0010
0000
0100
0001
0100
0000
0001
1000
0001
0000
0010
1000
,
0010
0000
1000
0100
1000
0001
1000
0001
0110
0000
0010
0100
0010
0000
0100
0001
,
0100
0000
0010
1000
0010
0000
1000
0001
1100
0000
0001
1000
0001
0000
0100
0000
,
0010
0000
1000
0000
0100
0010
0100
0010
1001
0010
0100
1000
0001
0100
0010
1000
,
0100
0010
0001
0100
0010
1000
0100
0010
0001
0010
0100
1000
0001
0100
0010
1000
,
0100
0010
0001
0100
0010
1000
0100
0010
0101
1000
0010
0100
0001
0010
0100
1000
,
0001
0100
0010
1000
0100
0010
0001
1000
0110
0001
0100
0010
1000
0001
0010
0100
,
1000
0001
0100
0001
0100
0010
1000
0010
1100
0001
0100
0010
1000
0100
0010
0001
,
1000
0001
0010
0100
1000
0100
0010
0001
1000
0010
0100
0001
0010
0100
1000
0100
,
1000
0010
0100
0010
0100
0001
1000
0010
0100
0001
0010
0001
0010
0100
1000
0001
,
1000
0100
0010
0001
1000
0010
0100
0001
1000
0001
0100
0010
0100
0001
1000
0010
,
0100
0000
0100
0000
0110
0000
0001
0000
1001
0000
0000
0000
0001
0000
1010
0001
,
0100
1000
0000
1000
0010
0000
1100
1010
,
0010
0110
1000
0101
1010
0100
1001
0110
,
0001
1100
0010
0101
1010
0010
1001
0011
,
0001
1100
0010
0110
0101
0001
0011
0110
,
0100
1100
1000
1010
1001
0000
0100
0010
,
0000
0101
1000
0110
1010
0100
1001
0011
,
0100
1010
1000
1100
0110
0001
1010
0011
,
0100
0000
0101
0000
1000
0001
0010
0100
1010
0001
0100
0010
1000
0010
0100
0001
,
0010
0100
1000
0001
1000
0100
1000
0100
1000
0010
0100
0001
0010
0100
1000
0001
,
0100
0010
1000
0100
0010
0001
0100
0010
1100
0001
0100
0010
1000
0001
0010
0100
,
1000
0010
0100
0001
0010
0100
0010
0100
0010
0001
1000
0010
0100
0001
0010
0100
,
1000
0001
0100
0010
1000
0010
0100
0001
0110
0000
0000
0000
0000
0000
0000
0000
,
0000
0000
0000
0000
0001
1000
0001
1000
0010
0000
0000
0000
0000
0000
0000
0000
,
0000
0000
0101
0000
,
0000
0000
0000
0000
0010
0100
0010
0100
0001
0000
0000
0000
0000
0000
1000
0000
,
0010
0000
1000
0000
0000
0000
0000
0000
1001
0000
0000
0000
0011
0000
0101
0010
,
0100
1000
0000
1000
0001
0000
0011
0110
,
1000
0101
0010
1100
1010
0100
1001
0110
,
0001
1100
0010
1001
0011
0100
1010
0101
,
0010
1100
0001
0110
1001
0010
1010
1100
,
0100
0110
0010
0011
1001
0000
1000
0010
,
0000
0110
0100
0101
1001
1000
0011
0110
,
0100
1001
1000
0101
1010
0010
1001
0011
,
0100
0000
1100
0000
0001
0010
0100
1000
0011
0100
0001
0010
0100
1000
0001
0100
,
0010
1000
0001
0010
0100
1000
0100
1000
0100
0010
0001
1000
0010
0100
0001
0010
,
0100
1000
0001
0100
0010
1000
0100
0010
1001
0010
0100
1000
0001
0100
0010
1000
,
0001
0010
0100
1000
0010
0100
0010
0100
0010
1000
0100
0010
0001
1000
0010
0100
,
0001
0010
0100
1000
0010
0100
0001
1000
0101
0000
0000
0000
0000
0000
0000
0000
,
0000
0000
0000
0000
0100
1000
0100
1000
0010
0000
0000
0000
0000
0000
0000
0000
,
0000
0000
1001
0000
,
0000
0000
0000
0000
0010
0001
0010
0001
1000
0000
0000
0000
0000
0000
0100
0000
,
0010
0000
0100
0000
1001
0000
0010
0100
1001
0000
0000
0001
0010
0100
1000
0001
,
0100
1010
0101
0010
1010
1100
0011
0101
,
1001
0000
0101
0000
0110
0000
1010
0000
1100
0000
0000
1000
0010
0100
0001
1000
,
0100
0011
1100
0001
1001
0101
1010
0110
,
1010
0000
1100
0000
1001
0000
0011
0000
0110
0000
0000
1000
0010
0100
0001
1000
,
0100
1001
1001
0010
0101
1001
0101
0110
,
1010
0000
1100
0000
1010
0000
0011
0000
1100
0000
0000
0001
0010
0100
1000
0001
,
0100
1010
1010
0001
1100
0110
1100
0110
,
0011
0000
0101
0000
0010
0100
0010
0100
1010
0000
0001
0100
0001
0000
1000
0001
,
1000
0000
0010
1000
0010
0000
1000
0100
1000
0000
0100
0010
0100
0000
0010
0001
,
0010
0000
0001
1000
0001
0000
0100
0010
0100
0000
0010
1000
0010
0000
1000
0100
,
1000
0000
0100
0010
0100
0000
0010
0001
0010
0000
0001
1000
0001
0000
1000
0010
,
1000
0000
0010
0100
0010
0000
0100
0001
1010
0000
1000
0100
1000
0000
0001
0010
,
0001
0000
1000
0001
1000
0000
0010
0100
0010
0000
0100
0001
0100
0000
0001
1000
,
0001
0000
1000
0100
1000
0000
0100
0010
1001
0000
0001
0010
0100
1000
0001
0100
,
0010
1000
0100
0010
0001
1000
0010
0100
1001
0100
0010
1000
0001
0010
0100
1000
,
0001
1000
0010
0100
0010
1000
0001
0010
1100
0000
0000
0000
0000
0000
0000
0000
,
0000
0000
0001
0000
,
0000
0000
0000
0000
,
0100
0000
0001
0000
,
0010
0000
0000
0000
0001
0100
0001
0100
1010
0000
0000
0000
0000
0000
0000
0000
,
0000
0000
0000
0000
1001
0000
0000
0010
,
0000
0000
0000
0000
0100
1000
0100
1000
0011
0000
0001
0000
0000
0000
0000
0000
,
0100
0000
0000
0010
1100
0000
0010
1000
,
0001
0000
0010
0000
0100
0010
0100
0010
1001
0000
0000
0000
0000
0000
0000
0000
;

//---------------dance-single - Challenge----------------
#NOTES:
     dance-single:
     Challenge:
     Challenge:
     13:
     1.000,1.000,1.000,0.071,1.000,931.000,241.000,7.000,0.000,60.000:
0000
0000
0000
0000
0000
0000
0000
0000
1110
0000
0001
0100
0001
0000
0001
0100
,
0001
0000
0001
0100
0001
0000
0001
0100
1001
0000
0001
0100
0001
0000
0001
0100
,
0001
0000
0001
0100
0001
0000
0001
0100
0001
0000
0001
0100
0001
0000
0001
0100
,
0101
0000
0001
0100
0001
0000
0001
0100
1001
0000
0001
0100
0001
0000
0001
0100
,
0011
0000
0001
0100
0001
0010
1000
0100
1011
0000
1000
0010
1000
0000
1000
0010
,
1000
0000
1000
0010
1000
0000
1000
0010
1101
0000
1000
0010
1000
0000
1010
0010
,
1000
0000
1000
0010
1001
0100
0001
0100
0111
0000
1010
0100
0010
0000
0010
0100
,
0011
0000
0010
0100
0010
0000
0110
0100
1011
0000
0100
0001
1100
0000
0011
0100
,
1010
0000
0110
1000
0101
0010
1001
0010
1101
0001
0010
0100
1000
0001
0010
0100
,
1000
0001
0010
0100
1000
0001
0010
0100
1000
0100
0010
0001
1000
0100
0010
0001
,
1000
0100
0010
0001
1000
0100
0010
0001
1100
0010
0100
0001
1000
0010
0100
0001
,
1000
0010
0100
0001
1000
0010
0100
0001
1100
0010
1000
0001
0100
0010
1000
0001
,
0100
0010
1000
0001
0100
0010
1000
0001
0110
0001
0100
0001
1000
0001
1000
0010
,
1000
0010
0100
0010
0100
0001
1000
0010
0100
0001
0100
0001
1000
0001
1000
0010
,
1000
0010
0100
0010
0100
0001
1000
0010
1000
0001
1000
0001
0010
0001
0010
0100
,
0010
0100
1000
0100
1000
0001
0010
0100
1000
0001
0100
0001
1000
0010
1000
0100
,
1001
0010
1001
0110
1001
0100
0001
0010
1101
0000
0010
1000
0001
0000
1010
0101
,
1000
0000
0010
0100
0001
0000
1000
0100
0010
0000
0001
1000
0101
0000
1010
0001
,
0110
0000
0011
1000
0101
0000
1010
0001
0110
0000
1100
0001
1010
0000
0011
1000
,
0101
0000
1100
0001
1010
0000
0120
0001
1000
0000
0100
1000
0001
0000
1000
0100
,
0001
0000
0100
1000
0001
0000
1000
0100
1031
0000
0011
1000
0110
0000
1010
0001
,
1100
0000
0101
1000
0110
0000
0011
1000
0101
0000
0010
1000
0100
0000
0010
0001
,
1000
0000
1010
0001
0110
0000
0011
1000
0101
0000
1100
0001
1010
0000
0011
0100
,
1001
0000
1010
0001
0110
0000
1100
0010
0101
0000
1010
0001
1100
0000
0110
1000
,
0011
0000
1001
0010
0001
0010
0100
1000
0111
1000
0001
0010
0100
1000
0010
0100
,
0001
1000
0010
0100
0011
1100
0011
1100
0011
1000
0001
0010
0100
1000
0001
0100
,
0010
0001
1000
0010
0100
0001
1000
0010
1101
0010
0100
0001
1000
0100
0010
0001
,
1000
0010
0001
0100
1010
0101
1010
0101
1010
0001
1000
0100
0001
0010
0100
1000
,
0001
0100
0010
1000
0001
0010
1000
0100
1011
0000
0010
0100
0010
0000
1000
0001
,
1000
0000
0100
0010
1100
0001
1010
0101
1010
0000
0001
0100
0001
0000
0001
0010
,
0001
0000
1000
0100
1000
0000
0010
0001
1110
0000
0001
0100
0001
0000
1000
0100
,
1000
0000
0010
0100
1010
0001
0110
1001
0110
0000
0010
0100
0010
0000
1100
0001
,
1010
0000
0000
0000
0000
0000
0000
0000
0101
0000
0000
0000
1000
0000
0000
0000
0002
0000
0000
0000
0000
0000
0000
0000
0000
0000
0000
0000
0000
0000
0000
0003
1011
0000
0000
0000
0000
0000
0000
0000
0100
0000
0000
0000
0001
0000
0000
0000
1000
0000
0000
0000
0000
0000
0000
0000
0101
0000
0000
0000
1010
0000
0000
0000
,
0001
0000
0100
0010
1000
0000
0001
0010
0100
0000
1000
0001
1010
0000
0101
1000
,
0110
0000
1100
0001
1010
0000
0101
1000
0110
0000
0011
1000
0101
0000
1100
0001
,
1010
0000
0011
1000
0101
0000
0210
1000
0001
0000
0010
0001
1000
0000
0001
0010
,
1000
0000
0010
0001
1000
0000
0001
0010
1301
0000
1100
0001
0110
0000
0101
1000
,
0011
0000
1010
0001
0110
0000
1100
0001
1010
0000
0100
0001
0010
0000
0100
1000
,
0001
0000
0101
1000
0110
0000
1100
0001
1010
0000
0011
1000
0101
0000
1100
0010
,
1001
0000
0101
1000
0110
0000
0011
0100
1010
0000
0101
1000
0011
0000
0110
0001
,
1100
0000
1001
0100
1000
0100
0010
0001
1110
0001
1000
0100
0010
0001
0100
0010
,
1000
0001
0100
0010
1100
0011
1100
0011
1100
0001
1000
0100
0010
0001
1000
0010
,
0100
1000
0001
0100
0010
1000
0001
0100
1011
0100
0010
1000
0001
0010
0100
1000
,
0001
0100
1000
0010
0101
1010
0101
1010
0101
1000
0001
0010
1000
0100
0010
0001
,
1000
0010
0100
0001
1000
0100
0001
0010
1101
0000
0100
0010
0100
0000
0001
1000
,
0001
0000
0010
0100
0011
1000
0101
1010
0101
0000
1000
0010
1000
0000
1000
0100
,
1000
0000
0001
0010
0001
0000
0100
1000
0111
0000
1000
0010
1000
0000
0001
0010
,
0001
0000
0100
0010
0101
1000
0110
1001
0110
0000
0100
0010
0100
0000
0011
1000
,
0001
0010
0100
1000
0001
0010
0100
1000
0011
0000
0000
0000
0010
0000
0010
0000
2110
0000
0000
0000
0100
0000
3001
0000
0010
0000
0100
0000
1010
0000
0001
0000
,
1000
0110
0011
1000
0111
1101
0111
1110
,
1011
0000
1110
0000
1011
0000
1101
0000
1002
0000
0010
1003
0100
0010
0001
1000
,
0010
0110
1010
0001
1110
0111
1110
1101
,
1011
0000
1101
0000
1011
0000
0111
0000
1201
0000
0010
0301
1000
0010
0100
0001
,
1000
0101
0011
1000
1011
1110
1011
1101
,
0111
0000
1101
0000
0111
0000
1011
0000
0120
0000
0001
0130
0010
0001
1000
0100
,
0010
1100
1010
0001
0111
1101
0111
1110
,
1011
0000
1110
0000
0001
1000
0001
1000
1111
0000
0010
1000
0001
0000
0010
0100
,
1000
0000
0001
1000
0010
0000
0100
0001
1010
0000
0001
0010
0100
0000
1000
0010
,
0101
0000
0010
0100
0001
0000
0010
0100
1011
0000
0001
1000
0010
0000
0100
0001
,
1000
0000
0100
1000
0010
0000
1010
0100
0011
0000
1000
0001
0010
0000
0100
1000
,
0001
0000
1000
0010
0100
0000
0010
0001
1111
0000
0001
1000
0100
0000
0010
0001
,
1000
0000
0010
0100
0001
0000
1000
0001
0110
0000
0001
1000
0010
0000
0100
0001
,
1010
0000
0001
0010
0100
0000
0010
0001
1110
0000
0001
1000
0011
1000
0001
0010
,
0101
1000
0010
0100
1001
0010
0100
1000
0111
1000
0010
1000
0101
0010
1000
0100
,
0011
1000
0101
0010
1000
0010
0101
0010
1101
0000
0001
0100
0001
0000
0001
0100
,
0001
0000
0001
0100
0001
0000
0001
0100
1001
0000
0001
0100
0001
0000
0001
0100
,
0001
0000
0001
0100
0001
0000
0001
0100
0001
0000
0001
0100
0001
0000
0001
0100
,
0101
0000
0001
0100
0001
0000
0001
0100
1001
0000
0001
0100
0001
0000
0001
0100
,
0011
0000
0001
0100
0001
0010
1000
0100
1011
0000
1000
0010
1000
0000
1000
0010
,
1000
0000
1000
0010
1000
0000
1000
0010
1101
0000
1000
0010
1000
0000
1010
0010
,
1000
0000
1000
0010
1001
0100
0001
0100
0111
0000
1010
0100
0010
0000
0010
0100
,
0011
0000
0010
0100
0010
0000
0110
0100
1011
0000
0010
1000
0001
0000
0100
0000
,
0001
0000
1000
0000
0011
1000
0101
0010
1001
0000
0000
0000
0000
0000
0000
0000
;
