#TITLE:I'll Make a Man Out of You;
#SUBTITLE:;
#ARTIST:Fuccen Mulan;
#TITLETRANSLIT:;
#SUBTITLETRANSLIT:;
#ARTISTTRANSLIT:;
#CREDIT:;
#BANNER:Be A Man - bn.png;
#BACKGROUND:Be A Man - bg.png;
#LYRICSPATH:;
#CDTITLE:../aCD.png;
#MUSIC:Be a Man.ogg;
#OFFSET:0.009;
#SAMPLESTART:100.240;
#SAMPLELENGTH:12.000;
#SELECTABLE:YES;
#DISPLAYBPM:228.000;
#BPMS:0.000=227.950,48.000=227.000,65.000=230.000,71.000=228.800,87.000=226.300,97.000=227.400,119.000=228.900,126.000=227.600,151.000=227.400,183.000=226.900,188.000=230.000,192.000=227.400,208.000=228.000,252.000=226.500,256.000=227.800,272.000=227.500,287.000=227.600,305.000=226.000,313.000=228.000,320.000=229.000,323.000=228.000,327.000=226.000,331.000=225.000,335.000=219.000,339.000=228.000,343.000=226.000,352.000=214.000,355.000=221.000,363.000=226.000,367.000=225.000,371.000=224.000,375.000=226.000,388.000=228.000,400.000=228.020,415.000=227.400,430.000=228.200,446.000=227.500,455.000=227.000,465.000=228.000,497.000=228.300,510.000=228.700,524.000=231.500,528.000=224.000,532.000=228.000,544.000=227.000,551.000=227.750,559.000=226.300,567.000=229.300,577.000=226.000,583.000=228.000,589.000=237.000,591.000=222.500,596.000=228.800,605.000=225.150,612.000=228.600,623.000=227.000,635.000=228.000,657.000=233.000,663.000=225.300,668.000=232.000,671.000=225.000,679.000=227.500,692.000=228.400,706.000=227.300,720.000=227.000,729.000=231.200,737.000=227.000;
#STOPS:;
#BGCHANGES:;
// cache tags:
#FIRSTBEAT:0.000;
#LASTBEAT:745.000;
#SONGFILENAME:Songs/Aoreo's Index Jawn/I'll Make a Man Out of You - [Aoreo]/Be a Man.sm;
#HASMUSIC:1;
#HASBANNER:1;
#MUSICLENGTH:201.489;
// end cache tags

//---------------dance-single - EZ/Pad----------------
#NOTES:
     dance-single:
     EZ/Pad:
     Hard:
     17:
     1.000,1.000,0.690,0.382,1.000,1529.000,139.000,77.000,0.000,46.000:
1001
0000
0001
0010
0100
0000
1000
0000
,
0010
0000
0000
0000
0100
0000
0000
0000
0001
1000
0100
0010
0001
1000
0010
0100
,
0010
0000
1000
0100
0010
0000
0001
0000
,
0100
0000
0000
0000
0000
0000
0000
0000
0001
0100
0001
0010
0100
1000
0010
0100
,
0001
0000
1000
0010
0100
0000
0001
0000
,
1000
0000
0000
0000
0100
0000
0000
0000
1000
0001
0010
0100
1000
0010
0100
0010
,
1000
0000
0001
0100
0010
0000
1000
0000
,
0001
0000
0000
0000
0000
0000
0000
0000
1000
0100
0010
0100
1000
0010
0100
0001
,
1000
0000
0001
0100
0010
0000
0100
0000
,
0001
0000
0000
0000
0010
0000
0000
0000
0100
1000
0001
0100
0010
0100
0001
1000
,
0001
0000
0100
0001
0010
0000
0100
0000
,
1000
0000
0000
0000
0000
0000
0000
0000
0001
0100
0001
0010
0100
1000
0001
1000
,
0010
0100
0010
1000
0100
0010
0001
1000
0001
0100
0010
0100
0001
1000
0100
0010
,
0100
1000
0001
0100
0010
0100
0001
1000
0100
0010
0001
1000
0001
0100
0010
0100
,
0001
1000
0001
0010
0100
1000
0001
0100
0010
0100
0001
1000
0002
0000
0000
0000
,
1003
0100
0010
0100
1000
0001
0100
0001
,
1000
1101
0000
0001
,
0111
0000
0100
1110
,
0000
1111
0000
0000
,
0000
0000
0002
0023
,
0230
0000
0300
1000
0001
0000
0010
0000
,
0100
0000
1100
2002
,
0000
0000
3003
0001
1000
0000
0010
0000
,
0100
0000
0000
0000
0000
0000
0000
0000
0001
0100
0001
0010
0100
1000
0001
0100
,
0001
1101
0000
1000
,
1110
0000
0010
0111
,
0000
0202
0000
0303
,
0001
1000
0000
0000
0000
0000
0000
0000
0000
0000
0000
0000
0000
0000
0000
0000
0000
0000
0000
0000
0000
0000
0000
0000
0000
0000
0000
0000
0000
0000
0000
0000
0101
0000
0000
0000
0000
0000
0000
0000
0000
0000
0000
0000
0000
0000
0000
0000
0110
0000
0000
0000
0000
0000
0000
0000
0000
0000
0000
0000
0000
0000
0000
0000
,
2020
0000
0000
3030
,
0000
0000
0101
2002
,
0000
0000
0000
3003
,
1000
0001
0000
0000
0000
0000
0000
0000
0000
0000
0000
0000
0000
0000
0000
0000
0100
0000
0000
0000
0000
0000
0000
0000
0000
0000
0000
0000
0000
0000
0000
0000
0001
0000
0000
0000
0000
0000
0000
0000
0000
0000
0000
0000
0000
0000
0000
0000
0010
0000
0000
0000
0000
0000
0000
0000
0000
0000
0000
0000
0000
0000
0000
0000
,
0120
0000
0000
0000
0230
0000
0000
0300
,
2100
0000
3002
0000
,
0103
0000
0010
0100
0001
0000
0010
0000
,
0110
0100
1000
0001
,
1111
0000
0000
1000
,
1101
0000
0001
0211
,
0000
0000
0300
0000
,
0000
0101
1010
0220
,
0000
0000
0000
0330
,
0000
0101
1001
2200
,
0000
0000
0000
3300
0000
0000
0000
0000
,
0000
0000
0000
0000
0110
0000
0000
0000
0011
0000
0000
0000
2002
0000
0000
3003
,
0000
0000
1000
0100
0010
0100
1000
0010
,
0100
0001
0010
0100
1000
0001
0101
0000
,
0000
0000
2002
3003
,
1000
0100
0010
0100
1000
0010
0100
0001
,
1000
1101
0000
0001
,
0111
0000
0100
1110
,
0000
0000
2002
0000
0000
3003
0000
0000
,
0000
0000
0011
0110
,
2200
0000
3300
1000
0100
0000
1000
0000
,
0001
0000
0101
0220
,
0000
0000
0330
0100
0010
0000
1000
0000
,
0200
0000
0000
0000
0310
0100
1000
0001
,
0100
0111
0000
0001
,
1101
0000
1000
1011
,
0000
0000
0000
0000
0202
0000
0000
0000
0000
0000
0000
0303
0000
0000
0000
0000
,
0000
0000
0101
0110
,
2002
0000
3003
1000
0100
0000
1000
0000
,
0001
0000
0000
0000
0100
0000
0202
0303
,
0001
0010
0100
1000
0010
0100
0010
1000
,
1001
0000
0011
0110
,
2200
3300
1001
0000
,
0101
0000
0000
0001
,
1100
0001
1100
0000
,
0101
0000
0011
0110
,
2200
0000
3300
1001
,
0101
0000
0110
2020
,
0000
0000
3030
0000
,
0000
1100
1001
0202
,
0000
0000
0303
0100
0001
0000
0010
0100
,
2000
0000
0000
3000
1001
0000
0000
0000
0101
0000
0000
0000
0220
0000
0000
0000
,
0000
0000
0330
0100
0001
0000
0010
0000
,
0100
0000
0000
0000
1100
0000
0000
0000
1001
0000
0000
0000
0001
0100
0001
0010
,
0100
1000
0001
0100
0001
1000
0010
0100
0010
1000
0001
0010
0100
1000
0001
0100
,
0010
0100
0001
1000
0100
0010
0100
1000
0001
0100
0010
1000
0001
0000
0000
0000
,
0000
0000
0000
0000
1000
0001
1000
0001
1000
0001
1000
0001
1000
0001
1000
0001
,
1000
0001
1000
0001
1000
0001
1000
0001
1000
0001
1000
0001
1000
0001
1000
0001
,
1110
0000
0000
1111
,
1111
0000
0000
1111
,
1111
0000
0000
1111
,
1111
0000
0000
1111
,
1111
0000
0000
1111
,
1111
0000
0000
1111
,
1001
1000
0100
0010
0001
0010
0001
1000
,
0100
1000
0001
0100
0010
0100
0001
1000
,
1111
0000
0000
1111
,
1111
0000
0000
1111
,
1111
0000
0000
1111
,
1111
0000
0000
1111
,
1111
0000
0000
1111
,
1111
0000
0000
1111
,
1001
0001
0100
0001
0010
0100
1000
0010
,
0100
0001
1000
0001
0010
0100
1000
0001
1000
0010
0100
0010
1000
0001
1000
0001
,
1000
0001
1000
0001
1000
0100
0010
0100
1000
0001
0100
0010
0100
0001
1000
0100
,
0010
0001
1000
0001
0100
0010
0100
0001
1000
0100
0010
0100
1000
0010
0100
0010
,
1000
0001
0010
0100
1000
0001
0100
0001
1000
0100
0010
0100
1000
0001
0100
0001
,
1000
0010
1000
0010
0100
0001
1000
0100
0010
0001
0100
0010
1000
0001
1000
0001
,
1000
0001
1000
0001
1000
0100
0010
0100
1000
0001
0100
0010
0100
0001
1000
0100
,
0010
0001
1000
0001
0100
0010
0100
0001
0010
0100
1000
0001
0100
0010
0100
0001
,
1000
0100
0010
0100
1000
0001
0100
0001
1000
0100
0010
0100
1000
0001
0100
0001
,
1000
0010
1000
0001
0100
0001
1000
0100
0010
0001
0100
0010
1000
0001
1000
0001
,
1000
0001
1000
0001
1000
0100
0010
0001
0100
0010
0100
0001
1000
0100
0010
0100
,
1000
0001
0100
0001
1000
0010
1000
0100
0010
0001
1000
0001
0100
0010
0100
0001
,
0010
0100
1000
0001
0100
0010
0100
0001
1000
0100
1000
0001
0010
0100
1000
0001
,
0100
0010
0100
0001
1000
0100
0010
0001
1000
0100
0010
0100
1000
0001
0100
0001
,
0010
0100
1000
0001
0100
0010
0100
0001
1000
0100
0010
0001
1000
0001
0100
0010
,
0100
0001
1000
0001
0010
0100
1000
0001
0100
0001
0100
0010
1000
0001
1000
0100
,
0010
0100
1000
0001
0100
0001
0100
0010
1000
0001
0100
0001
0010
0100
1000
0001
,
1000
0010
0100
0010
1000
0001
0010
0100
1000
0001
1000
0001
0010
0001
0100
0010
,
1000
0100
1000
0010
0100
0001
0010
0001
0100
0010
1000
0100
0010
0001
0100
0001
,
0010
0100
1000
0010
0100
0010
1000
0100
0010
0001
1000
0010
0100
0010
1000
0001
,
0010
0100
1000
0001
0100
0001
1000
0100
0010
0001
1000
0010
0100
0010
1000
0001
,
0010
0100
1000
0001
0100
0010
0100
0001
1000
0100
0010
0100
1000
0001
0100
0010
,
1000
2222
3333
0001
,
0111
0000
0100
1110
,
0000
0000
0220
0000
0000
0330
0100
0000
,
0101
0000
0001
0010
0100
0000
1000
0010
,
0200
0000
0300
0001
,
1001
0000
1010
0220
,
0000
0000
0330
0100
,
0101
0000
0000
0000
0000
0000
0000
0000
0001
0100
0001
1000
0100
0010
0001
1000
,
0001
1111
0000
0001
,
0111
0000
0100
1110
,
0000
0202
0000
0303
,
0001
1000
0000
0000
0000
0000
0000
0000
0000
0000
0000
0000
0000
0000
0000
0000
0000
0000
0000
0000
0000
0000
0000
0000
0000
0000
0000
0000
0000
0000
0000
0000
0101
0000
0000
0000
0000
0000
0000
0000
0000
0000
0000
0000
0000
0000
0000
0000
0110
0000
0000
0000
0000
0000
0000
0000
0000
0000
0000
0000
0000
0000
0000
0000
,
1010
0000
0000
1000
0001
0000
1000
0000
,
1100
0100
0110
0022
,
0000
0000
0033
0001
1000
0000
0010
0000
,
1000
0100
1000
0001
0100
0001
0010
0100
1000
0001
0100
0001
0020
0000
0000
0000
,
0230
0000
0000
0000
2300
0000
0000
0000
3020
0000
0000
0000
0000
0000
0000
0030
,
0110
0000
0110
0202
,
0000
0000
0303
0000
0022
0033
1001
1000
,
0100
0010
0001
0000
1100
0000
1001
0000
,
0011
0000
0000
0110
,
1100
0000
1001
2002
,
0000
0000
0000
3003
0000
0000
0000
0000
,
0000
0101
0110
2020
,
0000
0000
0000
3030
,
0000
0110
0101
2002
,
0000
0000
3003
0000
,
1000
0000
0000
0000
1100
0000
0000
0000
0110
0000
0000
0000
0010
0001
1000
0001
,
0100
0010
0100
0001
1000
0100
0010
0001
1000
0001
0100
0010
0100
0001
1000
0100
,
0010
0100
1000
0001
0100
0010
0100
0001
0010
0100
1000
0001
0100
0001
1000
0100
,
0010
0100
1000
0001
0100
0010
0100
0001
1000
0100
0010
0001
1000
0010
0100
0010
,
1000
0001
0100
0001
1000
0010
1000
0001
0100
0001
0010
0100
1000
0001
1000
0001
,
1000
0001
1000
0001
1000
0100
0010
0100
1000
0001
0100
0010
0100
0001
1000
0100
,
0010
0001
1000
0001
0100
0010
0100
0001
1000
0100
0010
0100
1000
0010
0100
0010
,
1000
0001
0100
0001
1000
0100
0010
0001
1000
0001
0100
0010
0100
0001
1000
0001
,
0010
0100
1000
0001
1000
0010
0100
0010
1000
0001
0010
0100
1000
0001
1000
0001
,
1000
0001
1000
0001
1000
0010
0100
0010
1000
0001
0010
0100
1000
0001
0100
0010
,
0100
0001
1000
0100
0010
0100
1000
0001
0100
0001
1000
0010
0100
0010
1000
0001
,
1000
0100
0010
0001
1000
0001
0100
0010
0100
0001
1000
0100
0010
0100
1000
0001
,
0100
0001
1000
0010
0100
0010
1000
0001
0010
0100
0010
0100
1000
0001
1000
0001
,
1000
0001
1000
0001
1000
0100
0010
0001
0100
0001
1000
0010
0100
0010
1000
0001
,
1000
0100
0010
0001
0100
0001
1000
0100
0010
0100
1000
0010
0100
0010
1000
0001
,
1000
0100
0010
0001
1000
0001
0100
0001
1000
0100
0010
0100
1000
0001
0100
0010
,
0100
0001
1000
0100
0010
0001
1000
0001
0100
0010
0100
0001
1000
0100
0010
0100
,
1000
0001
0100
0001
0100
0010
1000
0001
1000
0100
0010
0001
1000
0010
0100
0010
,
1000
0001
1000
0100
0010
0100
1000
0001
0100
0001
1000
0010
0100
0010
1000
0001
,
1000
0100
0010
0001
1000
0001
0100
0010
0100
0001
1000
0100
0010
0100
1000
0001
,
0100
0001
0100
0010
1000
0010
0100
0001
1000
0001
0100
0010
1000
0100
1000
0010
,
0100
0001
0010
0001
0100
0010
1000
0100
0010
0001
0100
0010
1000
0100
0010
0001
,
0100
0001
0010
0100
1000
0010
0100
0001
0010
0001
0100
0010
1000
0100
0010
0001
,
1000
0100
0010
0100
1000
0001
0100
0010
0100
0001
0010
0100
1000
0001
1000
0010
,
1000
0001
0100
0001
1000
0100
1000
0001
0010
0100
0010
0100
1000
0001
1000
0001
,
1000
0001
1000
0001
1000
0100
0010
0001
0100
0001
1000
0100
1000
0010
0100
0010
,
1000
0001
0100
0001
0100
0010
1000
0010
0100
0001
1000
0001
0010
0100
1000
0001
,
0100
0001
1000
0010
1000
0001
0100
0001
0010
0100
1000
0001
0100
0010
1000
0001
,
1000
0100
0010
0001
0100
0001
1000
0010
0100
0001
0010
0100
1000
0001
1000
0001
,
1000
0001
1000
0001
1000
0010
0100
0001
1000
0001
0010
0100
1000
0001
0100
0010
,
0100
0001
1000
0100
0010
0100
1000
0001
0100
0010
0100
0001
1000
0100
0010
0001
,
1000
0100
1000
0001
0100
0010
0100
0001
1000
0001
0010
0100
1000
0010
1000
0001
,
0100
0001
1000
0100
0010
0100
1000
0001
0100
0001
0010
0100
1000
0001
1000
0001
,
1000
0001
1000
0001
1000
0010
0100
0010
1000
0001
0010
0100
1000
0010
1000
0001
,
0100
0001
1000
0100
0010
0100
1000
0001
0100
0010
0100
0001
1000
0100
0010
0001
,
1000
0001
0100
0010
0100
0001
1000
0100
0010
0100
1000
0001
0100
0010
0100
0001
,
1000
0100
0010
0001
1000
0001
0100
0010
0100
0001
0010
0100
1000
0001
0100
0010
,
1000
0001
1000
0100
0010
0001
0100
0001
1000
0100
0010
0100
1000
0001
0100
0010
,
0100
0001
1000
0100
0010
0001
1000
0001
0100
0010
0100
0001
1000
0001
1000
0100
,
0010
0001
1000
0001
0100
0010
0100
0001
1000
0001
0010
0100
1000
0001
0100
0010
,
0100
0001
1000
0100
0010
0001
1000
0001
0100
0010
0100
0001
1000
0100
1000
0010
,
0100
0001
0010
0001
0100
0010
1000
0100
1000
0010
0100
0001
0010
0001
0100
0010
,
1000
0100
0010
0001
0100
0010
1000
0100
1000
0010
0100
0001
2000
0000
0000
0000
,
0000
3000
0000
0000
;

//---------------dance-single - Be a Man----------------
#NOTES:
     dance-single:
     Be a Man:
     Challenge:
     26:
     1.000,1.000,0.665,0.382,1.000,1831.000,134.000,77.000,0.000,44.000:
1001
0000
0001
0010
0100
0000
1000
0000
,
0010
0000
0000
0000
0000
0000
0100
0000
0000
0000
0000
0000
0001
0100
0001
1000
0100
0010
0001
1000
0001
0100
0010
0100
,
0001
0000
1000
0100
0010
0000
0001
0000
,
0100
0000
0000
0000
0000
0000
0000
0000
0000
0000
0000
0000
0001
0100
0001
0100
0010
1000
0001
1000
0100
0010
0001
1000
,
0001
0000
1000
0010
0100
0000
0001
0000
,
1000
0000
0000
0000
0000
0000
0001
0000
0000
0000
0000
0000
1000
0001
0100
0001
0100
0010
1000
0010
0100
0001
1000
0001
,
1000
0000
0001
0100
0010
0000
1000
0000
,
0001
0000
0000
0000
0000
0000
0000
0000
0000
0000
0000
0000
1000
0001
0100
0001
1000
0100
0010
0001
1000
0001
0100
0010
,
1000
0000
0001
0100
0010
0000
0100
0000
,
0001
0000
0000
0000
0000
0000
0010
0000
0000
0000
0000
0000
0001
0100
0001
1000
0010
0100
0010
1000
0001
1000
0100
0010
,
0001
0000
0100
0001
0010
0000
0100
0000
,
1000
0000
0000
0000
0000
0000
0000
0000
0000
0000
0000
0000
0001
0100
0001
1000
0010
0100
0010
1000
0001
1000
0100
0010
,
0001
1000
0001
0100
0001
0100
0010
1000
0010
0100
0001
1000
0001
0100
0010
0100
0001
1000
0001
1000
0100
0010
0100
0010
,
0001
1000
0100
1000
0001
0100
0001
0100
0010
1000
0010
0100
0001
0100
0001
1000
0010
0100
0010
1000
0001
1000
0001
0100
,
0010
0100
0001
1000
0100
0010
0001
1000
0100
0010
0001
1000
0001
0100
0010
0100
0001
1000
0002
0000
0000
0000
0000
0000
,
1003
0100
0010
0100
1000
0001
0100
0001
,
1000
1101
0000
0001
,
0111
0000
0100
1110
,
0000
1111
0000
0000
,
0000
0000
0002
0023
,
0230
0000
0300
1000
0001
0000
0010
0000
,
0100
0000
1100
2002
,
0000
0000
3003
0001
1000
0000
0010
0000
,
0100
0000
0000
0000
0000
0000
0000
0000
0000
0000
0000
0000
0001
0100
0001
1000
0100
0010
0001
1000
0001
0100
0010
0100
,
0001
1101
0000
1000
,
1110
0000
0010
0111
,
0000
0202
0000
0303
,
0001
1000
0000
0000
0000
0000
0000
0000
0000
0000
0000
0000
0000
0000
0000
0000
0000
0000
0000
0000
0000
0000
0000
0000
0000
0000
0000
0000
0000
0000
0000
0000
0101
0000
0000
0000
0000
0000
0000
0000
0000
0000
0000
0000
0000
0000
0000
0000
0110
0000
0000
0000
0000
0000
0000
0000
0000
0000
0000
0000
0000
0000
0000
0000
,
2020
0000
0000
3030
,
0000
0000
0101
2002
,
0000
0000
0000
3003
,
1000
0001
0000
0000
0000
0000
0000
0000
0000
0000
0000
0000
0000
0000
0000
0000
0100
0000
0000
0000
0000
0000
0000
0000
0000
0000
0000
0000
0000
0000
0000
0000
0001
0000
0000
0000
0000
0000
0000
0000
0000
0000
0000
0000
0000
0000
0000
0000
0010
0000
0000
0000
0000
0000
0000
0000
0000
0000
0000
0000
0000
0000
0000
0000
,
0120
0000
0000
0000
0230
0000
0000
0300
,
2100
0000
3002
0000
,
0103
0000
0010
0100
0001
0000
0010
0000
,
0110
0100
1000
0001
,
1111
0000
0000
1000
,
1101
0000
0001
0211
,
0000
0000
0300
0000
,
0000
0101
1010
0220
,
0000
0000
0000
0330
,
0000
0101
1001
2200
,
0000
0000
0000
3300
0000
0000
0000
0000
,
0000
0000
0000
0000
0110
0000
0000
0000
0011
0000
0000
0000
2002
0000
0000
3003
,
0000
0000
0000
0000
1000
0100
0010
0100
1000
0010
0100
0010
1000
0001
0010
0100
,
1000
0010
0100
0010
1000
0100
0010
0001
1000
0001
0010
0100
1000
0000
0000
0000
,
0000
0000
2002
3003
,
1000
0100
0010
0100
1000
0010
0100
0001
,
1000
1101
0000
0001
,
0111
0000
0100
1110
,
0000
0000
2002
0000
0000
3003
0000
0000
,
0000
0000
0011
0110
,
2200
0000
3300
1000
0100
0000
1000
0000
,
0001
0000
0101
0220
,
0000
0000
0330
0100
0010
0000
1000
0000
,
0200
0000
0000
0000
0310
0100
1000
0001
,
0100
0111
0000
0001
,
1101
0000
1000
1011
,
0000
0000
0000
0000
0202
0000
0000
0000
0000
0000
0000
0303
0000
0000
0000
0000
,
0000
0000
0101
0110
,
2002
0000
3003
1000
0100
0000
1000
0000
,
0001
0000
0000
0000
0100
0000
0202
0303
,
0001
0010
0100
1000
0010
0100
0010
1000
,
1001
0000
0011
0110
,
2200
3300
1001
0000
,
0101
0000
0000
0001
,
1100
0001
1100
0000
,
0101
0000
0011
0110
,
2200
0000
3300
1001
,
0101
0000
0110
2020
,
0000
0000
3030
0000
,
0000
1100
1001
0202
,
0000
0000
0303
0100
0001
0000
0010
0100
,
2000
0000
0000
3000
1001
0000
0000
0000
0101
0000
0000
0000
0220
0000
0000
0000
,
0000
0000
0330
0100
0001
0000
0010
0000
,
0100
0000
0000
0000
0000
0000
1100
0000
0000
0000
0000
0000
1001
0000
0000
0000
0000
0000
0001
0100
0001
0100
0010
1000
,
0010
0100
0001
1000
0001
0100
0010
0100
0001
1000
0001
0010
0100
1000
0001
0010
0100
1000
0001
0100
0001
1000
0010
0100
,
0010
1000
0001
0100
0001
0100
0010
1000
0001
1000
0100
0010
0001
1000
0100
1000
0001
0100
0001
0000
0000
0000
0000
0000
,
0000
0000
0000
0000
0000
0000
1000
0001
0100
0001
0100
0010
1000
0010
0100
0001
1000
0001
0100
0010
0100
0001
1000
0001
,
0100
0010
0100
0010
1000
0001
0100
0001
0100
0010
1000
0001
1000
0100
0010
0001
1000
0100
1000
0001
0100
0001
1000
0001
,
1000
0000
0000
1111
,
1111
0000
0000
1111
,
1111
0000
0000
1111
,
1111
0000
0000
1111
,
1111
0000
0000
1111
,
1111
0000
0000
1111
,
1000
0100
1000
0001
0010
0100
1000
0010
0100
0010
1000
0100
0010
0001
1000
0001
,
0100
0010
0100
0001
0010
0100
1000
0001
0100
0010
0100
0001
1000
0100
0010
0001
,
1000
0000
0000
1111
,
1111
0000
0000
1111
,
1111
0000
0000
1111
,
1111
0000
0000
1111
,
1111
0000
0000
1111
,
1111
0000
0000
1111
,
1000
0100
1000
0010
0100
0010
1000
0100
0010
0001
0100
0001
1000
0010
0100
0010
,
1000
0001
0100
0001
0100
0010
1000
0010
0100
0001
1000
0001
1000
0100
0010
0001
1000
0010
1000
0001
0100
0001
1000
0100
,
0010
0000
0001
0000
1000
0000
0001
0000
0100
0000
0010
0000
1000
0000
0000
0100
0000
0000
0010
0000
0000
0100
0000
0000
1000
0000
0000
0001
0000
0000
0100
0000
0000
0010
0000
0000
0100
0000
0000
0001
0000
0000
1000
0000
0000
0100
0000
0000
,
0010
0001
1000
0001
0100
0010
0100
0001
1000
0100
0010
0100
1000
0010
0100
0010
,
1000
0001
0010
0100
1000
0001
0100
0001
1000
0100
0010
0100
1000
0001
0100
0001
,
1000
0010
1000
0010
0100
0001
0100
0010
1000
0010
0100
0001
1000
0001
0010
0100
1000
0001
0010
0100
1000
0001
0100
0001
,
1000
0000
0010
0000
0100
0000
0010
0000
1000
0000
0001
0000
1000
0000
0000
0100
0000
0000
0010
0000
0000
0100
0000
0000
1000
0000
0000
0001
0000
0000
0100
0000
0000
0010
0000
0000
0100
0000
0000
0001
0000
0000
1000
0000
0000
0100
0000
0000
,
0010
0001
1000
0001
0100
0010
0100
0001
0010
0100
1000
0001
0100
0010
0100
0001
,
1000
0100
0010
0100
1000
0001
0100
0001
1000
0100
0010
0100
1000
0001
0100
0001
,
1000
0010
1000
0001
0100
0001
0100
0010
1000
0010
0100
0001
1000
0001
0010
0100
1000
0001
0100
0001
0100
0010
1000
0010
,
0100
0000
0001
0000
1000
0000
0100
0000
0010
0000
0001
0000
1000
0000
0000
0100
0000
0000
0010
0000
0000
0001
0000
0000
0100
0000
0000
0010
0000
0000
0100
0000
0000
0001
0000
0000
1000
0000
0000
0100
0000
0000
0010
0000
0000
0100
0000
0000
,
1000
0001
0100
0001
1000
0010
1000
0100
0010
0001
1000
0001
0100
0010
0100
0001
,
0010
0100
1000
0001
0100
0010
0100
0001
1000
0100
1000
0001
0010
0100
1000
0001
,
0100
0010
0100
0001
1000
0100
0010
0001
1000
0100
0010
0100
1000
0001
0100
0001
,
0010
0100
1000
0001
0100
0010
0100
0001
1000
0100
0010
0001
1000
0001
0100
0010
,
0100
0001
1000
0001
0010
0100
1000
0001
0100
0001
0100
0010
1000
0001
1000
0100
,
0010
0100
1000
0001
0100
0001
0100
0010
1000
0001
0100
0001
0010
0100
1000
0001
,
1000
0000
0000
0010
0000
0000
0100
0000
0000
0010
0000
0000
1000
0000
0000
0001
0000
0000
0010
0000
0000
0100
0000
0000
1000
0000
0000
0001
0000
0000
1000
0000
0000
0001
0000
0000
0100
0000
0001
0000
0100
0000
0001
0000
1000
0000
0010
0000
,
0100
0001
1000
0010
1000
0010
0100
0001
1000
0001
0100
0001
1000
0100
0010
0001
1000
0100
0010
0001
1000
0100
1000
0001
,
0100
0001
0100
0010
1000
0010
0100
0001
0100
0001
1000
0010
0100
0010
1000
0001
1000
0010
0100
0010
1000
0001
0100
0001
,
0100
0000
0001
0000
1000
0000
0010
0000
1000
0000
0001
0000
0100
0000
0001
0000
1000
0000
0100
0000
0010
0000
0001
0000
1000
0000
0100
0000
0010
0000
0001
0000
1000
0000
0001
0000
1000
0000
0000
0010
0000
0000
1000
0000
0000
0001
0000
0000
,
0010
0100
1000
0001
0100
0010
0100
0001
1000
0100
0010
0100
1000
0001
0100
0010
,
1000
2222
3333
0001
,
0111
0000
0100
1110
,
0000
0000
0220
0000
0000
0330
0100
0000
,
0101
0000
0001
0010
0100
0000
1000
0010
,
0200
0000
0300
0001
,
1001
0000
1010
0220
,
0000
0000
0330
0100
,
0101
0000
0000
0000
0000
0000
0000
0000
0000
0000
0000
0000
0001
0100
0001
1000
0100
0010
0001
1000
0001
0100
0010
0100
,
0001
1111
0000
0001
,
0111
0000
0100
1110
,
0000
0202
0000
0303
,
0001
1000
0000
0000
0000
0000
0000
0000
0000
0000
0000
0000
0000
0000
0000
0000
0000
0000
0000
0000
0000
0000
0000
0000
0000
0000
0000
0000
0000
0000
0000
0000
0101
0000
0000
0000
0000
0000
0000
0000
0000
0000
0000
0000
0000
0000
0000
0000
0110
0000
0000
0000
0000
0000
0000
0000
0000
0000
0000
0000
0000
0000
0000
0000
,
1010
0000
0000
1000
0001
0000
1000
0000
,
1100
0100
0110
0022
,
0000
0000
0033
0001
1000
0000
0010
0000
,
1000
0100
1000
0001
0100
0001
0010
0100
1000
0001
0100
0001
0020
0000
0000
0000
,
0230
0000
0000
0000
2300
0000
0000
0000
3020
0000
0000
0000
0000
0000
0000
0030
,
0110
0000
0110
0202
,
0000
0000
0303
0000
0022
0033
1001
1000
,
0100
0010
0001
0000
1100
0000
1001
0000
,
0011
0000
0000
0110
,
1100
0000
1001
2002
,
0000
0000
0000
3003
0000
0000
0000
0000
,
0000
0101
0110
2020
,
0000
0000
0000
3030
,
0000
0110
0101
2002
,
0000
0000
3003
0000
,
1000
0000
0000
0000
0000
0000
1010
0000
0000
0000
0000
0000
0101
0000
0000
0000
0000
0000
1000
0001
0100
0001
0100
0010
,
1000
0010
0100
0001
1000
0001
1000
0010
0100
0010
1000
0001
0100
0001
1000
0010
0100
0010
1000
0001
1000
0001
0100
0010
,
0100
0001
1000
0100
0010
0001
1000
0100
0010
0001
1000
0100
0010
0001
1000
0001
0100
0010
0100
0001
1000
0001
0100
0010
,
0100
0001
1000
0001
0010
0100
1000
0001
0100
0001
1000
0010
0100
0010
1000
0001
0100
0001
0100
0010
1000
0010
0100
0001
,
1000
0001
0100
0010
0100
0001
1000
0001
1000
0010
0100
0001
0100
0001
1000
0010
0100
0001
1000
0100
0010
0001
1000
0100
,
1000
0000
0100
0000
0010
0000
0001
0000
1000
0000
0001
0000
1000
0000
0000
0100
0000
0000
0010
0000
0000
0100
0000
0000
1000
0000
0000
0001
0000
0000
0100
0000
0000
0010
0000
0000
0100
0000
0000
0001
0000
0000
1000
0000
0000
0100
0000
0000
,
0010
0001
1000
0001
0100
0010
0100
0001
1000
0100
0010
0100
1000
0010
0100
0010
,
1000
0001
0100
0001
1000
0100
0010
0001
1000
0001
0100
0010
0100
0001
1000
0001
,
0100
0001
0100
0010
1000
0010
0100
0001
0100
0001
1000
0010
0100
0001
0100
0001
1000
0010
0100
0010
1000
0001
1000
0100
,
0010
0000
0001
0000
1000
0000
0100
0000
1000
0000
0001
0000
0100
0000
0000
0010
0000
0000
1000
0000
0000
0100
0000
0000
1000
0000
0000
0001
0000
0000
0010
0000
0000
0100
0000
0000
1000
0000
0000
0001
0000
0000
0100
0000
0000
0010
0000
0000
,
0100
0001
1000
0100
0010
0100
1000
0001
0100
0001
1000
0010
0100
0010
1000
0001
,
1000
0100
0010
0001
1000
0001
0100
0010
0100
0001
1000
0100
0010
0100
1000
0001
,
1000
0010
0100
0010
1000
0001
0100
0001
1000
0100
0010
0001
1000
0001
0100
0010
0100
0001
1000
0001
0010
0100
1000
0001
,
0100
0000
0001
0000
1000
0000
0010
0000
1000
0000
0001
0000
1000
0000
0000
0100
0000
0000
0010
0000
0000
0001
0000
0000
0100
0000
0000
0001
0000
0000
1000
0000
0000
0010
0000
0000
0100
0000
0000
0010
0000
0000
1000
0000
0000
0001
0000
0000
,
1000
0100
0010
0001
0100
0001
1000
0100
0010
0100
1000
0010
0100
0010
1000
0001
,
1000
0100
0010
0001
1000
0001
0100
0001
1000
0100
0010
0100
1000
0001
0100
0010
,
0100
0001
1000
0100
0010
0001
1000
0001
0100
0010
0100
0001
1000
0100
0010
0100
,
1000
0001
0100
0001
0100
0010
1000
0001
1000
0100
0010
0001
1000
0010
0100
0010
,
1000
0001
1000
0100
0010
0100
1000
0001
0100
0001
1000
0010
0100
0010
1000
0001
,
1000
0100
0010
0001
1000
0001
0100
0010
0100
0001
1000
0100
0010
0100
1000
0001
,
0100
0000
0000
0001
0000
0000
0100
0000
0000
0010
0000
0000
1000
0000
0000
0010
0000
0000
0100
0000
0000
0001
0000
0000
1000
0000
0000
0001
0000
0000
0100
0000
0000
0010
0000
0000
1000
0000
0001
0000
0100
0000
0001
0000
0100
0000
0010
0000
,
1000
0010
0100
0001
1000
0001
1000
0010
0100
0010
1000
0001
0100
0001
1000
0010
0100
0010
1000
0001
1000
0001
0100
0010
,
0100
0001
1000
0100
0010
0001
1000
0100
0010
0001
1000
0100
0010
0001
1000
0001
0100
0010
0100
0001
1000
0001
0100
0010
,
0100
0001
1000
0001
0010
0100
1000
0001
0100
0001
1000
0010
0100
0010
1000
0001
0100
0001
0100
0010
1000
0010
0100
0001
,
1000
0001
0100
0010
0100
0001
1000
0001
1000
0010
0100
0001
0100
0001
1000
0010
0100
0001
1000
0100
0010
0001
1000
0100
,
1000
0000
0100
0000
0010
0000
0001
0000
1000
0000
0001
0000
1000
0000
0000
0100
0000
0000
0010
0000
0000
0001
0000
0000
0100
0000
0000
0001
0000
0000
1000
0000
0000
0100
0000
0000
1000
0000
0000
0010
0000
0000
0100
0000
0000
0010
0000
0000
,
1000
0001
0100
0001
0100
0010
1000
0010
0100
0001
1000
0001
0010
0100
1000
0001
,
0100
0001
1000
0010
1000
0001
0100
0001
0010
0100
1000
0001
0100
0010
1000
0001
,
1000
0010
1000
0001
0100
0001
0100
0010
1000
0001
1000
0010
0100
0010
1000
0001
0100
0001
0100
0001
1000
0100
0010
0001
,
1000
0000
0100
0000
0010
0000
0001
0000
1000
0000
0001
0000
1000
0000
0000
0010
0000
0000
0100
0000
0000
0001
0000
0000
1000
0000
0000
0001
0000
0000
0010
0000
0000
0100
0000
0000
1000
0000
0000
0001
0000
0000
0100
0000
0000
0010
0000
0000
,
0100
0001
1000
0100
0010
0100
1000
0001
0100
0010
0100
0001
1000
0100
0010
0001
,
1000
0100
1000
0001
0100
0010
0100
0001
1000
0001
0010
0100
1000
0010
1000
0001
,
0100
0001
0100
0001
1000
0010
0100
0010
1000
0001
1000
0010
0100
0010
1000
0001
0010
0100
1000
0001
0010
0100
1000
0001
,
0100
0000
0001
0000
1000
0000
0010
0000
0100
0000
0001
0000
1000
0000
0000
0010
0000
0000
0100
0000
0000
0010
0000
0000
1000
0000
0000
0001
0000
0000
0010
0000
0000
0100
0000
0000
1000
0000
0000
0010
0000
0000
1000
0000
0000
0001
0000
0000
,
0100
0001
1000
0100
0010
0100
1000
0001
0100
0010
0100
0001
1000
0100
0010
0001
,
1000
0001
0100
0010
0100
0001
1000
0100
0010
0100
1000
0001
0100
0010
0100
0001
,
1000
0100
0010
0001
1000
0001
0100
0010
0100
0001
0010
0100
1000
0001
0100
0010
,
1000
0001
1000
0100
0010
0001
0100
0001
1000
0100
0010
0100
1000
0001
0100
0010
,
0100
0001
1000
0100
0010
0001
1000
0001
0100
0010
0100
0001
1000
0001
1000
0100
,
0010
0001
1000
0001
0100
0010
0100
0001
1000
0001
0010
0100
1000
0001
0100
0010
,
0100
0000
0000
0001
0000
0000
1000
0000
0000
0100
0000
0000
0010
0000
0000
0001
0000
0000
1000
0000
0000
0001
0000
0000
0100
0000
0000
0010
0000
0000
0100
0000
0000
0001
0000
0000
1000
0000
0001
0000
0100
0000
0001
0000
0100
0000
0010
0000
,
1000
0010
0100
0001
1000
0001
0100
0010
0100
0001
1000
0001
0010
0100
1000
0001
0010
0100
1000
0001
0100
0001
1000
0010
,
1000
0001
0100
0001
0100
0010
1000
0010
0100
0001
1000
0001
0010
0100
1000
0001
0010
0100
2000
0000
0000
0000
0000
0000
,
0000
3000
0000
0000
;
