#TITLE:Once in a Life Time;
#SUBTITLE:;
#ARTIST:Dragonforce;
#TITLETRANSLIT:;
#SUBTITLETRANSLIT:;
#ARTISTTRANSLIT:;
#CREDIT:;
#BANNER:(cerdo_claro)Once In A Life Time-bn.jpg;
#BACKGROUND:(cerdo_claro)Once In A Life Time-bg.jpg;
#LYRICSPATH:;
#CDTITLE:!duktitle.png;
#MUSIC:(cerdo_claro)Once In A Lifetime.ogg;
#OFFSET:-2.310;
#SAMPLESTART:44.159;
#SAMPLELENGTH:15.800;
#SELECTABLE:YES;
#BPMS:0.000=200.000;
#STOPS:;
#BGCHANGES:;
// cache tags:
#FIRSTBEAT:0.000;
#LASTBEAT:1526.750;
#SONGFILENAME:Songs/toune 2/(cerdo_claro)Once in a Life Time/(cerdo_claro)Once In A Life Time.sm;
#HASMUSIC:1;
#HASBANNER:1;
#MUSICLENGTH:486.164;
// end cache tags

//---------------dance-single - Blank----------------
#NOTES:
     dance-single:
     Blank:
     Hard:
     13:
     1.000,1.000,1.000,0.588,0.944,3067.000,744.000,286.000,0.000,15.000:

1100
0000
0000
0000
0000
0001
0000
0000
0000
0000
0000
0010
0000
0000
0000
0001
,
0000
0000
0000
0000
0000
0010
0000
0000
0000
0000
0000
0000
0001
0000
0000
0000
,
0220
0000
0300
1000
0000
0000
0001
0000
,
2030
0000
0000
3000
0011
0000
0000
0000
,
1100
0000
0000
0000
0000
0000
0001
0000
0000
0000
0000
0100
0000
0000
0000
0000
,
0010
0000
0000
1000
0000
0000
0001
0000
,
2100
0000
0000
0000
0000
0000
0010
0000
0000
0000
0000
3100
0000
0000
0000
0000
,
0002
0000
0000
0000
0000
0003
0000
0110
0000
0000
0000
0000
1000
0000
0000
0000
,
0011
0000
0000
0000
0000
0000
0100
0000
0000
0000
0000
0000
0010
0000
0000
1000
,
0000
0000
0000
0000
0000
0001
0000
0000
0000
0000
0000
0000
0010
0000
0000
1100
,
0011
0000
0000
0000
0000
0000
0002
0000
0000
0000
0000
0003
1000
0000
0000
0000
,
0020
0000
0000
0000
0000
0000
0000
0030
0001
0000
0000
0000
0000
0100
0000
0000
,
0000
0012
0000
0000
0000
0000
0000
0000
0000
0000
0000
0000
1000
0000
0000
0000
0000
0000
0000
0000
0000
0000
0000
0000
0010
0000
0000
0000
0000
0000
0000
0000
,
0100
0000
0000
1000
0000
0000
0100
0000
,
0113
0000
0000
0100
0000
0000
0010
0000
,
2000
0000
0000
0000
0000
0000
0000
3000
0011
0000
0000
0000
0100
0000
0000
0000
,
0011
0000
0000
1000
0000
0000
0001
0000
,
2000
0000
0000
0000
0000
0000
0000
3000
0001
0000
0000
0000
2000
0000
0000
3000
,
0011
0000
0011
0000
,
0011
1010
1100
0101
,
1001
0000
0011
0000
,
1100
0000
1001
0000
,
0210
0000
0000
0000
0000
0000
0000
0002
0000
0000
0000
0000
0000
0000
0303
0000
,
0011
1100
0011
1100
0000
0000
0000
0000
0011
1100
0011
1100
0000
0000
0000
0000
,
1000
0010
1000
0010
1000
0010
1000
0010
1000
0010
1000
0010
1000
0100
0010
0001
,
1000
0001
1000
0001
1000
0001
1000
0001
0010
0100
1000
0100
0010
0001
0010
0100
,
1000
0010
0100
0010
0100
0010
0100
0010
0100
0010
0100
0010
0001
0010
0100
1000
,
0001
1000
0001
1000
0001
1000
0001
1000
0001
0010
0100
1000
0100
0010
0001
0010
,
0100
1000
0010
1000
0010
1000
0010
1000
0010
1000
0010
1000
0100
0010
0001
0010
,
0100
1000
0001
1000
0001
1000
0001
0010
0100
1000
0100
0010
0001
0010
0100
1000
,
0010
1000
0010
1000
0010
1000
0010
1000
0010
1000
0010
1000
0100
0010
0001
0010
,
0100
1000
0100
1000
0100
1000
0100
1000
0100
0010
0001
0010
0100
1000
0100
0010
,
0001
0100
0001
0100
0001
0100
0001
0100
0001
0100
0001
0100
0001
0010
0100
1000
,
0001
1000
0001
1000
0001
1000
0001
1000
0100
0010
0001
0010
0100
1000
0100
0010
,
0001
0100
0001
0100
0001
0100
0001
0100
0001
0100
0001
0100
0001
0010
0100
1000
,
0100
1000
0010
1000
0010
1000
0010
1000
0100
0010
0001
0010
0100
1000
0100
0010
,
0001
0100
0001
0100
0001
0100
0001
0010
0100
1000
0100
0010
0001
0100
0010
1000
,
0001
1000
0001
1000
0001
1000
0001
1000
0100
0010
0001
0010
0100
1000
0100
0010
,
0001
0100
0010
1000
0001
0100
0010
1000
0001
0100
0010
1000
0100
0010
0001
0010
,
0100
1000
0010
1000
0010
1000
0010
1000
0100
0010
0001
0010
0100
1000
0100
0010
,
0001
0100
0001
0100
0001
0100
0001
0100
0001
0100
0001
0100
0001
0010
0100
1000
,
0100
0010
0100
0010
0100
0010
0100
0010
0001
0010
0100
1000
0100
0010
0001
0010
,
0100
1000
0010
0100
0001
1000
0010
0100
0001
1000
0010
0100
0001
0010
0100
1000
,
0001
1000
0001
1000
0001
1000
0001
1000
0001
0010
0100
1000
0100
0010
0001
0010
,
0100
1000
0010
1000
0010
1000
0010
1000
0010
1000
0010
1000
0001
0010
0100
1000
,
0100
0001
0100
0001
0100
0001
0100
0001
0010
0100
1000
0100
0010
0001
0010
0100
,
1000
0010
1000
0010
1000
0010
1000
0010
1000
0010
1000
0001
0010
0100
1000
0100
,
0010
0001
1000
0001
1000
0001
1000
0001
0010
0100
1000
0100
0010
0001
0010
0100
,
1000
0010
0100
0001
1000
0010
0100
0001
1000
0010
0100
0001
0010
0100
1000
0100
,
0010
0001
0100
0010
1000
0001
0100
0010
0001
0010
0100
1000
0010
0100
0001
1000
,
0001
0010
0100
1000
0100
0010
0001
0010
0100
1000
0100
0010
0001
0100
0010
1000
,
0001
0010
0001
0010
0001
0010
0001
0010
0001
0010
0100
1000
0100
0010
0001
0010
,
0100
1000
0010
1000
0010
1000
0010
1000
0010
1000
0010
1000
0010
0100
0001
1000
,
0010
0100
0001
0010
0100
1000
0100
0010
0001
0100
0010
1000
0001
0100
0010
1000
,
0001
1000
0001
1000
0001
1000
0001
1000
0001
1000
0001
1000
0001
1000
0100
0010
,
0001
1000
0010
1000
0010
1000
0010
0000
0002
0000
0000
0000
2003
0000
0000
0000
,
3220
0000
0000
0000
0000
0000
0000
0330
,
1100
0101
1010
0011
,
0220
0330
0011
0100
1100
0001
0110
1100
,
0011
0000
1000
0000
0110
0000
1001
0000
0010
0000
1000
0000
0110
0000
0001
0010
,
0100
1000
0010
1000
0010
1000
0100
0010
0001
0100
0010
1000
0001
0010
0001
1000
,
0100
1000
0010
0100
0010
1000
0100
0010
0001
0100
0010
1000
0001
0010
0100
1000
,
0000
0011
0000
0000
1010
0000
0100
0000
0011
0000
0001
0000
0110
0000
1000
0000
,
0011
0000
0010
0000
0110
0000
1001
0000
1000
0000
0001
0000
0110
0000
0000
0001
,
0010
0001
0010
0100
1000
0010
1000
0001
0010
0001
1000
0100
0010
0001
1000
0001
,
0010
0001
0010
0001
0010
0100
0010
0100
0010
0100
1000
0100
1000
0100
1000
0011
,
0000
0000
0000
0011
0000
0000
0000
1100
0000
0000
0000
0011
0000
1100
0000
0101
,
0000
0000
0000
0110
0000
0000
2200
0000
0000
0000
0000
0000
0000
3300
0000
0001
,
0010
0001
1000
0100
1000
0010
0100
0001
0010
0100
1000
0010
0100
0001
1000
0001
,
1000
0001
1000
0001
1000
0001
1000
0001
1000
0001
1000
0001
1000
0001
1000
0101
,
0000
0000
0000
0011
0000
0010
0000
1100
0000
0010
0000
0110
0000
0000
0000
0000
,
0101
0000
0000
0000
0011
0000
1010
0000
0000
0000
0000
0000
0110
0000
0000
0001
,
0000
0000
0101
0000
0101
0101
0000
1100
,
1100
0000
0000
0110
0000
0000
0000
0000
1001
0000
1000
0100
0010
0001
0010
0100
,
0011
0100
0010
1100
0011
0010
1100
0011
,
0110
1100
0010
1010
0101
0010
1000
0010
,
0001
0010
0001
1000
0100
1000
0001
0010
0100
1000
0010
0100
0001
1000
0100
1000
,
0011
0000
0000
0000
0011
0000
1010
0000
0000
0000
0000
0011
0000
0000
0000
1100
,
0000
0000
1100
0011
1000
0010
0110
0011
,
0010
0110
0100
1100
1000
1100
0110
1001
,
0200
0000
0000
2300
0000
0000
0002
0000
,
3023
0000
0000
0000
0000
0000
0000
0002
0000
0000
0000
0000
0000
0000
0000
0000
,
1133
0000
1001
0010
1100
0011
1000
0011
,
0110
1100
0001
1100
0011
1000
1100
0110
,
0001
0010
0100
1000
0010
0100
0001
1000
0010
1000
0010
0001
0100
0001
0100
1000
,
0002
0000
0000
0003
2000
3000
0002
0000
0000
0000
0000
0003
2000
0000
0000
3000
,
0011
0000
0011
1010
0011
0110
0010
1100
,
0011
1000
0110
1001
0110
0011
1100
0010
,
2002
0000
0000
0000
,
0000
0000
0000
0000
,
3003
0110
0011
1000
0011
0010
1100
1100
,
0010
0110
0110
0011
1010
0001
0110
1000
,
0010
0100
0011
0010
1100
0010
0110
0110
,
0000
0000
0002
0003
0020
0030
0200
0300
2000
3000
0000
0000
0110
0000
1000
0000
,
0010
0100
0011
0010
0110
0100
1100
1010
,
0010
0000
0000
0000
0000
0000
0110
0000
0000
0000
0110
0000
0000
0000
0000
0000
0000
0100
0000
0000
0000
0000
0000
0000
0011
0000
0000
0000
1000
0000
0000
0000
,
0011
0000
0000
0000
0000
0000
1000
0000
0000
0000
0000
0000
0011
0000
0000
0000
0000
0000
0000
0000
0000
0000
0000
0000
1100
0000
0000
0001
0000
0000
0110
0000
,
0000
0200
0302
0023
0230
2300
3020
0230
,
0301
0010
0011
0010
0110
0100
1001
1001
,
0000
0000
0020
0030
0200
0300
0002
0003
0020
0030
0000
0000
0110
0000
0000
0000
,
0000
0000
0011
0010
1100
0100
0011
0101
,
0000
0000
0020
0030
2000
3000
0020
0030
0200
0300
0000
0000
0011
0000
0000
0000
,
0000
0000
0000
0011
0000
0000
0000
0000
1100
0000
0001
0000
0110
0000
0110
0000
,
1000
0100
0011
1001
0100
0010
1100
0100
,
1001
0000
0001
0000
0110
0000
0110
0000
0000
0000
0000
0101
0000
0000
0000
0000
,
1010
0010
0100
0010
0011
0000
0000
0000
,
0011
0010
0100
1000
0001
0010
0100
0010
,
1001
0001
0010
1001
0010
0100
0011
0010
,
1010
0100
0010
0101
0010
1000
0011
0110
,
1100
0100
0010
0011
1000
0010
0110
1000
,
0110
0001
0010
1001
0010
0100
0011
0001
,
1010
0001
0100
0110
0001
1100
0010
0001
,
0110
0010
1100
0020
0000
0000
0000
0030
,
0002
2003
3020
0230
0302
0023
0230
1300
,
0202
0000
0000
0000
0000
0000
0303
1100
,
0010
0100
0011
1000
0010
0101
0010
0100
,
1010
0010
0100
0110
1000
0010
1001
0010
,
0101
0010
1000
0001
1100
0010
0101
0010
,
0110
1000
0011
1010
0010
0001
1010
0100
,
0011
1000
0100
1001
0010
0001
1100
0010
,
0011
1000
0011
1010
0010
0001
1000
0010
,
1001
1001
1001
1001
,
2000
3000
0011
1100
0011
0000
0001
2000
,
0000
3000
0000
0000
0011
0000
1010
0000
0110
0000
0000
0000
1000
0000
0002
0000
,
0000
0003
0000
0000
1010
0000
1100
0000
0011
0000
0000
0000
0100
0000
0020
0000
,
0000
0030
0000
0000
0011
0000
1010
0000
0011
0000
0000
0000
0010
0000
0200
0000
,
0000
0300
0000
0000
0110
0000
1001
0000
1010
0000
0000
0000
0010
0000
2000
0000
,
0000
3000
0000
0000
0101
0000
0110
0000
1001
0000
0000
0000
0100
0000
0002
0000
,
0000
0003
0000
0000
0011
0000
1100
0000
0110
0000
0000
0000
2000
0000
3000
0000
,
0000
0002
0000
0000
0000
0000
0000
0003
0000
1000
0000
0000
0000
0100
0000
0000
0010
0000
0000
0001
0000
0000
0000
0010
0000
0000
0000
0000
0000
0000
0000
0000
0000
1000
0000
0000
0000
0000
0000
0000
0010
0000
0000
0000
0000
0000
0000
0000
0100
0000
0000
0000
0000
0000
0000
0000
0001
0000
0000
0000
0000
0000
0000
0000
,
0000
0000
0011
1100
0011
0000
0001
2000
,
0000
3000
0000
0000
1100
0000
0011
0000
1100
0000
0000
0000
1000
0000
0002
0000
,
0000
0003
0000
0000
1100
0000
0101
0000
0110
0000
0000
0000
0001
0000
2000
0000
,
0000
3000
0000
0000
0101
0000
0011
0000
1100
0000
0000
0000
0010
0000
0200
0000
,
0000
0300
0000
0000
1100
0000
0101
0000
1100
0000
0000
0000
0100
0000
0020
0000
,
0000
0030
0000
0000
0110
0000
1001
0000
0101
0000
0000
0000
0100
0000
0002
0000
,
0000
0003
0000
0000
1010
0000
0110
0000
1001
0000
0000
0000
0010
0000
2000
0000
,
3001
0010
0100
1000
0100
0010
0001
0100
1001
0000
0000
1001
0000
0000
0110
0000
,
2001
0000
3011
1010
0010
0011
0100
0011
,
1100
0010
1001
1001
0010
0100
0001
1000
,
0001
0010
0100
1000
0010
1000
0001
0100
0001
1000
0100
1000
0010
0100
0001
0010
,
0100
1000
0010
0100
0001
0010
0001
1000
0100
0010
0001
0100
0010
1000
0010
1000
,
0011
0100
0010
1100
1010
0001
1100
0110
,
0011
0001
0110
0110
1000
0001
1100
0010
,
2000
0000
0000
0200
0000
0000
0000
0000
,
3311
0110
1100
1001
,
0200
0000
0311
1010
0001
0110
1000
0001
,
1001
0010
0110
0201
0000
0000
0000
0000
,
0301
0010
0001
1000
0100
1000
0001
0100
0001
0100
0010
0100
1000
0100
0010
0001
,
1000
0100
1000
0010
0100
0001
0010
0100
1000
0010
0100
0001
0010
0001
1000
0100
,
0011
1100
0001
1100
0010
0101
0010
0001
,
1010
0010
0011
0011
0100
0010
0101
0100
,
1010
0000
0100
0000
2000
0000
0000
0000
0002
0000
0000
0000
0000
0000
0000
3003
,
0001
0010
0001
1000
0100
0010
0001
0100
0010
1000
0100
0010
0001
0010
0001
1100
,
0000
0011
1000
0110
0011
0100
0011
1100
,
0110
0101
1000
0011
0110
1100
0010
1100
,
1000
0100
0010
0001
1000
0100
1000
0010
0100
0001
0010
0100
1000
0010
0100
0010
,
1100
0001
0110
0011
1000
0010
0110
0010
,
1100
0010
0011
0110
1100
0010
1100
0110
,
1100
0101
0001
0011
0110
1100
0010
0110
,
0110
0001
1000
0011
1000
0010
0011
0010
,
1000
0100
0010
0100
1000
0100
0020
0000
0000
0000
0000
0000
0000
0000
0000
0030
,
1001
0000
0011
1010
0011
1001
0010
1100
,
0110
0011
0100
0011
0110
1100
0010
1100
,
0001
0010
0001
1000
0100
0010
0001
0100
0010
1000
0100
1000
0001
0100
0001
1000
,
0002
0000
0000
0003
2000
3000
0002
0000
0000
0000
0000
0003
2000
0000
0000
0000
,
0002
3003
0000
0000
0011
0000
1010
0000
0011
0000
0101
0000
0010
0000
1100
0000
,
0110
0011
0010
0011
0110
1100
0010
1001
,
2002
0000
0000
0000
,
0000
0000
0000
0000
,
3003
0110
1100
0001
1100
0100
0011
0011
,
0100
0110
0110
1100
0101
1000
0110
0001
,
0100
0010
1100
0100
0011
0100
0110
0110
,
0000
0000
2000
3000
0200
0300
0020
0030
0002
0003
0000
0000
0110
0000
0001
0000
,
0100
0010
1100
0100
0110
0010
0011
0101
,
0100
0000
0000
0000
0000
0000
0110
0000
0000
0000
0110
0000
0000
0000
0000
0000
0000
0010
0000
0000
0000
0000
0000
0000
1100
0000
0000
0000
0001
0000
0000
0000
,
1100
0000
0000
0000
0000
0000
0001
0000
0000
0000
0000
0000
1100
0000
0000
0000
0000
0000
0000
0000
0000
0000
0000
0000
0011
0000
0000
1000
0000
0000
0110
0000
,
0000
0020
2030
3200
0320
0032
0203
0320
,
1030
0100
1100
0100
0110
0010
1001
1001
,
0000
0000
0200
0300
0020
0030
2000
3000
0200
0300
0000
0000
0110
0000
0000
0000
,
0000
0000
1100
0100
0011
0010
1100
1010
,
0000
0000
0200
0300
0002
0003
0200
0300
0020
0030
0000
0000
1100
0000
0000
0000
,
0000
0000
0000
1100
0000
0000
0000
0000
0011
0000
1000
0000
0110
0000
0110
0000
,
0001
0010
1100
1001
0010
0100
0011
0010
,
1001
0000
1000
0000
0110
0000
0110
0000
0000
0000
0000
1010
0000
0000
0000
0000
,
0101
0100
0010
0100
1100
0000
0000
0000
,
1100
0100
0010
0001
1000
0100
0010
0100
,
1001
1000
0100
1001
0100
0010
1100
0100
,
0101
0010
0100
1010
0100
0001
1100
0110
,
0011
0010
0100
1100
0001
0100
0110
0001
,
0110
1000
0100
1001
0100
0010
1100
1000
,
0101
1000
0010
0110
1000
0011
0100
1000
,
0110
0100
0011
0200
0000
0000
0000
0300
,
0002
0023
0230
2300
3020
0230
0302
1003
,
2020
0000
0000
0000
0000
0000
0000
3030
,
0011
1100
0110
0101
1000
0010
0101
0010
,
1100
0010
1000
0110
0001
0100
0110
1000
,
0110
0001
1000
0010
0101
1000
0110
0001
,
0101
0100
1000
1010
0100
0010
1001
0010
,
0011
0100
0001
0110
0010
0100
1010
0100
,
1010
0010
0101
0101
0100
0010
1000
0001
,
0011
0101
0101
0101
,
2000
0000
0000
3000
1100
0000
0011
0000
1100
0000
0000
0000
1000
0000
0002
0000
,
0000
0003
0000
0000
1100
0000
0101
0000
0110
0000
0000
0000
0001
0000
2000
0000
,
0000
3000
0000
0000
0101
0000
0011
0000
1100
0000
0000
0000
0010
0000
0200
0000
,
0000
0300
0000
0000
1100
0000
0101
0000
1100
0000
0000
0000
0100
0000
0020
0000
,
0000
0030
0000
0000
0110
0000
1001
0000
0101
0000
0000
0000
0100
0000
0002
0000
,
0000
0003
0000
0000
1010
0000
0110
0000
1001
0000
0000
0000
0010
0000
2000
0000
,
0000
3000
0000
0000
1100
0000
0011
0000
0110
0000
0000
0000
0002
0000
0003
0000
,
0000
2000
0000
0000
0000
0000
0000
3000
0000
0001
0000
0000
0000
0010
0000
0000
0100
0000
0000
1000
0000
0000
0000
0100
0000
0000
0000
0000
0000
0000
0000
0000
0000
0001
0000
0000
0000
0000
0000
0000
0100
0000
0000
0000
0000
0000
0000
0000
0010
0000
0000
0000
0000
0000
0000
0000
1000
0000
0000
0000
0000
0000
0000
0000
,
0000
0000
1100
0011
1100
0000
1000
0002
,
0000
0003
0000
0000
0011
0000
1100
0000
0011
0000
0000
0000
0001
0000
2000
0000
,
0000
3000
0000
0000
0011
0000
1010
0000
0110
0000
0000
0000
1000
0000
0002
0000
,
0000
0003
0100
0000
0001
0000
1000
0000
0010
0000
0100
0000
0001
0000
0020
0000
,
0000
0030
0000
0000
0011
0000
1010
0000
0011
0000
0000
0000
0010
0000
0200
0000
,
0000
0300
0000
0000
0110
0000
1001
0000
1010
0000
0000
0000
0010
0000
2000
0000
,
0000
3000
0000
0000
0101
0000
0110
0000
1001
0000
0000
0000
0000
1000
0000
0000
,
0002
0000
0003
1000
0100
0010
0001
0100
0010
1000
0100
1000
0001
0010
0100
1000
,
0011
1000
0100
0010
0001
0010
0100
1000
0100
0010
0001
1000
,
0011
1000
0010
0100
0001
1000
0011
1000
0001
0010
0001
1000
,
0110
0001
0010
0100
1000
0010
0100
0001
0010
0100
1000
0010
,
1100
0010
0100
0001
0010
0001
0110
0001
1000
0010
0100
0001
,
0110
1000
0010
0100
0001
0010
0100
1000
0010
0100
0001
0010
,
1100
0001
0010
0001
1000
0010
0101
0010
1000
0010
0100
0001
,
1100
0001
0010
0100
1000
0010
0100
0001
0100
0010
1000
0010
,
0101
0000
0000
0000
1000
0000
0000
0000
0100
0000
0000
0000
0010
0000
0000
0000
0001
0000
0000
0000
0100
0000
0000
0000
0011
0000
0000
0000
1000
0000
0000
0000
0001
0000
0000
0000
1000
0000
0000
0000
0100
0000
0002
0000
0000
1003
0000
0000
,
0001
0010
0100
1000
0011
0000
1100
0000
0110
0000
0101
0000
1010
0000
0110
0000
,
1000
0100
0010
0001
1100
0000
0011
0000
1010
0000
0101
0000
0110
0000
1100
0000
,
0001
0100
0010
1000
0011
0000
1100
0000
0110
0000
0101
0000
1010
0000
0110
0000
,
0001
0000
0000
0000
0100
0000
0000
0000
0010
0000
0000
0000
1000
0000
0000
0000
0001
0000
0000
0000
1000
0000
0000
0000
0011
0000
0000
1100
0000
0000
0011
0000
0000
1100
0000
0000
0011
0000
0000
1100
0000
0000
0011
0000
0000
1100
0000
0000
,
0001
0010
0100
1000
0011
0000
1100
0000
0110
0000
0011
0000
1100
0000
0110
0000
,
1000
0100
0010
0001
1100
0000
0110
0000
0011
0000
1100
0000
0110
0000
0001
0100
,
0010
1000
0110
0000
0011
0000
1100
0000
0110
0000
0011
0000
1100
0000
0110
0000
,
1000
0010
0100
0001
1100
0000
0011
0000
1010
0000
0101
0000
0110
0000
1100
0000
,
0001
0010
0100
1000
0020
0000
0000
0030
1000
0100
0010
0001
0200
0000
0000
0300
,
0001
0100
0010
1000
0020
0000
0000
0030
1000
0010
0100
0001
0200
0000
0000
0300
,
0001
0010
0100
1000
0020
0000
0000
0030
1000
0100
0010
0001
0200
0000
0000
0300
,
0011
1010
1100
0011
,
2000
0000
3020
0000
0230
0000
0301
0010
,
0100
1000
0010
0100
0000
0001
0000
0010
,
1000
0001
0010
0100
1000
0010
1000
0001
,
0001
0000
0010
0000
0100
0000
1000
0000
0010
0000
1000
0000
0100
0000
0002
0000
0000
0000
0000
0000
0000
0000
0000
0000
0000
0000
0000
0000
0000
0003
0100
0000
,
0001
0100
0010
1000
0010
0100
0001
0100
0010
1000
0010
0100
0001
0010
0100
1000
,
0000
0000
0000
0000
0000
0000
0002
0000
0000
0000
0000
0000
0000
0000
0000
0000
0000
0000
0000
0000
0000
0000
0000
0000
0000
0000
0000
0000
0000
0000
0000
0000
0000
0000
0000
0000
0000
0000
0000
0000
0000
0023
0000
0000
0000
0000
0000
0000
0000
0000
0000
0000
0000
0000
0000
0000
0000
0000
0000
0000
0000
0000
0000
0000
0000
0000
0000
0000
0000
0000
0000
0000
0000
0000
0000
0230
0000
0000
0000
0000
0000
0000
0000
0000
0000
0000
0000
0000
0000
0000
0000
0000
0000
0000
0000
0000
0000
0000
0000
0000
0000
0000
0000
0000
0000
0000
0000
0000
0000
0000
2300
0000
0000
0000
0000
0000
0000
0000
0000
0000
0000
0000
0000
0000
0000
0000
0000
0000
0000
0000
0000
0000
0000
0000
0000
0000
0000
0000
0000
0000
0002
0000
0000
0000
0000
0000
0000
0000
0000
0000
0000
0000
0000
0000
0000
0000
0000
0000
0000
0000
0000
0000
0000
0000
0000
0000
0000
0000
3003
0000
0000
0000
0000
0000
0000
0000
0000
0000
0000
0000
2000
0000
0000
0000
0000
0000
0000
0000
0000
0000
0000
0000
,
3001
0010
0100
1000
0010
1000
0001
0100
0001
1000
0010
1000
0001
0010
0100
1000
,
0001
0000
0000
0000
1000
0000
0000
0000
0000
0000
0000
0000
0010
0000
0000
0000
0000
0000
0000
0000
1000
0000
0000
0000
0000
0000
0000
0000
0001
0000
0000
0000
0000
0000
0000
0000
2000
0000
0000
0000
0000
0000
0000
0000
0000
3000
0000
0000
,
0001
0010
0100
1000
0100
0010
0001
0010
0100
1000
0100
0010
0001
0010
0100
1000
,
0001
1000
0010
1000
0001
0100
0001
1000
0010
1000
0001
0100
0001
0010
0100
1000
,
0001
0010
0001
0010
0001
0010
0001
0010
0100
0010
0100
0010
0100
0010
0100
0010
,
0100
1000
0100
1000
0100
1000
0100
0002
0000
0000
0000
0000
0000
0003
0000
1000
,
0100
1000
0010
0100
0010
1000
0100
0010
0001
0100
0010
0001
0010
0100
1000
0001
,
1000
0010
1000
0001
0100
0001
1000
0100
1000
0010
0100
0001
0010
0100
1000
0010
,
0000
0000
0010
0100
0010
0000
0000
0000
0000
0000
0001
0000
0000
0000
0100
0000
0000
0000
1000
0001
1000
0000
0000
0000
0000
0000
0010
0000
0000
0000
0000
0000
,
0001
0010
0100
1000
0010
1000
0001
0100
0001
0100
0010
1000
0100
0010
0001
0000
,
1000
0010
0100
0001
1000
0010
0100
0001
2000
0000
0000
0000
3001
0000
0000
0000
,
0001
0010
0100
1000
0100
0010
0001
0100
0002
0000
0000
0000
1003
0000
0000
0000
,
0001
0000
0000
1000
0010
0000
0200
0000
0000
0000
0301
0000
0000
0000
0001
0000
,
0010
0100
1000
0020
0000
0000
0130
0000
,
0001
0000
0001
0001
0001
0010
0010
0010
,
0010
0100
0100
0100
0100
1000
1000
1000
,
1000
0002
0000
0000
0000
0000
0000
0000
0000
0000
0000
0000
0000
0000
0000
0000
0003
0000
0000
0000
0000
0000
0000
0000
0020
0000
0000
0000
0000
0000
0000
0000
0000
0000
0000
0000
0000
0000
0000
0000
0000
0000
0000
0000
0000
0000
0000
0000
0030
0000
0000
0000
2000
0000
0000
0000
0000
0000
0000
0000
0000
0000
0000
0000
,
0000
3001
0010
0100
1000
0010
0100
0002
0000
0000
0000
0000
0000
0000
0000
0003
,
0000
0001
0010
0100
1000
0010
0100
0001
0010
0100
1000
0010
0100
0001
0010
0100
,
1000
0010
0100
0001
0100
0010
1000
0010
0100
0001
0100
0010
1000
0010
0100
0001
,
0010
0100
1000
0100
0010
0001
0010
0100
1000
0100
0010
0001
0010
0100
1000
0010
,
1000
0001
1000
0010
1000
0001
1000
0001
0020
0000
0000
0000
0000
0000
0030
0000
,
0000
0001
0010
0100
1000
0010
0100
0001
1000
0010
1000
0001
0100
0001
0010
1000
,
0010
0100
0001
0100
0001
0010
0100
1000
0010
0100
0001
1000
0002
0000
0000
0000
,
0003
1000
0100
0010
0001
0100
0010
1000
0010
0100
0001
1000
0002
0000
0000
0003
,
0001
0010
0100
1000
0100
0010
0001
0010
0100
1000
0001
0010
0001
1000
0100
1000
,
0010
0000
0000
0000
0000
0000
0000
0000
0000
0000
0000
0000
0002
0000
0000
0000
0000
0000
0000
0000
0000
0000
0000
0000
0000
0000
0000
0000
0000
0000
0000
0000
0000
0000
0000
0000
0000
0000
0000
0000
0000
0000
0000
0000
0000
0000
0000
0000
0003
0000
0000
0000
0000
0000
0000
0000
0000
0000
0000
1000
0000
0000
0000
0000
0000
0000
0000
0000
0000
0000
0000
0000
0000
0000
0000
0000
0000
0000
0000
0000
0000
0000
0000
0000
0000
0000
0000
0000
0000
0000
0000
0010
0000
0000
0000
0000
0000
0000
0000
0000
0000
0000
0000
0000
0000
0000
0000
0000
0000
0000
0000
0000
0100
0000
0000
0000
0000
0000
0000
0000
0000
0000
0000
0000
0000
0000
0000
0000
0000
0000
0000
0000
0000
0000
0000
0000
0000
0000
0000
0000
0000
0000
0000
0000
0000
0000
0000
0000
0000
0000
0000
0000
0001
0000
0000
0000
0000
0000
0000
0000
0000
0000
0000
0000
0000
0000
0000
0000
0000
0000
0000
0000
0000
0000
0000
0000
0000
0000
0000
0010
0000
0000
0000
0000
0000
0000
0000
0000
0000
0000
0000
0000
,
0000
0000
0000
0000
0000
0000
0000
0000
0000
0100
0000
0000
0000
0000
0000
0000
0000
0000
0000
0000
0000
0000
0000
0000
0000
1000
0000
0000
0000
0000
0000
0000
0000
0000
0000
0000
0000
0000
0000
0000
0000
0010
0000
0000
0000
0000
0000
0000
0000
0100
0000
0000
0000
0000
0000
0000
0000
0001
0000
0000
0000
0000
0000
0000
,
0010
0000
0000
0000
0000
0000
0000
0000
0100
0000
0000
0000
1000
0000
0000
0000
0000
0000
0000
0000
0000
0010
0000
0000
0000
0100
0000
0000
0000
0001
0000
0000
,
0000
0000
0000
0000
0000
0010
0000
0000
0000
0000
0000
0000
0000
0000
0000
0000
0000
0000
0000
0000
0000
0000
0000
0000
0000
0000
0000
0000
0000
0000
0000
0000
0000
0000
0000
0100
0000
0000
0000
0000
0000
0000
0000
0000
0000
0000
0000
0000
0000
0000
0000
0000
0000
0000
0000
0000
0000
0000
0000
1000
0000
0000
0000
0000
0000
0000
0000
0000
0000
0000
0000
0000
0000
0000
0000
0000
0000
0000
0000
0000
0020
0000
0000
0000
0000
0000
0000
0000
0000
0000
0000
0000
0000
0000
0000
0000
0000
0000
0000
0000
0000
0000
0000
0000
0000
0000
0000
0000
0000
0000
0000
0000
0000
0000
0000
0000
0000
0000
0000
0000
0000
0000
0000
0000
0000
0000
0000
0000
0000
0000
0000
0000
0000
0000
0000
0000
0000
0000
0000
0000
0000
0000
0000
0000
0000
0000
0000
0000
0000
0000
0000
0000
0000
0000
0000
0000
0000
0000
0000
0000
0000
0000
0000
0000
0000
0000
0000
0000
0000
0000
0000
0000
0000
0000
0000
0000
0030
0000
0000
0000
0000
0000
0000
0000
0000
0000
0000
0000
0000
0000
0000
0000
,
0001
0010
0100
1000
0100
0010
0001
0100
0001
0100
1000
0010
1000
0010
0100
0010
,
0001
1000
0001
1000
0010
0100
0001
0010
0100
1000
0010
0100
0001
0010
0001
2000
,
0000
3011
0000
0110
0000
1100
0000
1001
0000
0000
0000
1100
0000
0110
0000
0011
,
0000
0000
0000
0011
0000
0110
0000
2100
0000
0000
0000
3001
0000
0000
0000
0000
,
0001
0010
0001
1000
0100
1000
0010
0100
0001
0010
0100
1000
0001
0100
0001
0100
,
0010
1000
0100
0010
0001
0010
0100
1000
0010
0100
0001
0010
0100
0010
0001
1000
,
0001
0100
0010
1000
0001
0100
0010
1000
0001
0100
0010
1000
0001
0100
0010
1000
,
0001
1000
0100
0010
0001
0010
0100
1000
0002
0000
0000
0000
0000
0000
0003
0000
,
0000
0000
0000
0000
0000
0000
0000
1000
0000
0000
0000
0000
0000
0000
0000
0000
0000
0000
0000
0000
0000
0000
0000
0000
0000
0000
0000
0000
0000
0000
0000
0001
0000
0000
0000
0000
0000
0000
0000
0000
0000
0000
0000
0000
0000
0000
0000
0000
0000
0000
0000
0000
0000
0000
0000
0100
0000
0000
0000
0000
0000
0000
0000
0000
0000
0000
0000
0000
0000
0000
0000
0000
0000
0000
0000
0000
0000
0000
0000
0010
0000
0000
0000
0000
0000
0000
0000
0000
0000
0000
0000
0000
0000
0000
0000
0000
0000
0000
0000
0000
0000
0000
0000
0000
0000
0000
0000
0000
0000
0000
0000
0000
0000
0000
0000
0000
0000
0000
0000
0000
0000
0000
0000
0000
0001
0000
0000
0000
0000
0000
0000
0000
0000
0000
0000
0000
0000
0000
0000
0000
0000
0000
0000
0000
0000
0000
0000
0000
0000
0000
0000
0000
0000
0000
0000
0000
0000
0000
0000
0000
0000
0000
0000
0000
0000
0000
0000
0000
0000
0001
0000
0000
0000
0000
0000
0000
0000
0000
0000
0000
0000
0000
0000
0000
0000
0000
0000
0000
0000
0000
0000
0000
,
0000
0000
0010
0000
0000
0000
0000
0000
0000
0000
0000
0000
0000
0000
0000
0000
0000
0000
0000
0000
0000
0000
0000
0000
0000
0000
0100
0000
0000
0000
0000
0000
0000
0000
0000
0000
0000
0000
0000
0000
0000
0000
0000
0000
0000
0000
0000
0000
0000
0000
0000
0000
1000
0000
0000
0000
0000
0000
0000
0000
0000
0000
0000
0000
0000
0000
0000
0000
0000
0000
0000
0000
0000
0000
0000
0000
0010
0000
0000
0000
0000
0000
0000
0000
0000
0000
0000
0000
0000
0000
0000
0000
0000
0000
0000
0000
0000
0000
0000
0000
0000
0000
0000
0000
0000
0000
0000
0000
0000
0000
0000
0000
0000
0000
0000
0000
0000
0000
0000
0010
0000
0000
0000
0000
0000
0000
0000
0000
0000
0000
0000
0000
0000
0000
0000
0000
0000
0000
0000
0000
0000
0000
0000
0000
0000
0000
0000
0000
0000
0000
0000
0000
0000
0000
0000
0000
0000
0000
0000
0000
0000
0000
0000
0000
0000
0000
0000
0000
0000
0000
0000
0000
0000
0000
0000
0000
0000
0000
0000
0000
1000
0000
0000
0000
0000
0000
0000
0000
0000
0000
0000
0000
,
0001
0010
0100
1000
0010
1000
0001
0100
0001
1000
0100
0010
0001
0100
0010
1000
,
0011
0000
0010
0000
1000
0001
0100
0010
,
0000
0000
0000
0000
0000
0000
2002
0000
0000
0000
0000
0000
0000
0000
0000
0000
0000
0000
0000
0000
0000
0000
0000
0000
0000
0000
0000
0000
0000
0000
0000
0000
0000
0000
0000
0000
0000
0000
0000
0000
0000
0000
0000
0000
0000
0000
0000
0000
0000
0000
0000
0000
0000
0000
0000
0000
0000
0000
0000
0000
0000
0000
0000
0000
0000
0000
0000
0000
0000
0000
0000
0000
0000
0000
0000
0000
0000
0000
0000
0000
0000
0000
0000
0000
0000
0000
0000
0000
0000
0000
0000
0000
0000
0000
0000
0000
0000
0000
0000
0000
0000
0000
0000
0000
0000
0000
0000
0000
0000
0000
0000
0000
0000
0000
0000
0000
0000
0000
0000
0000
3003
0000
0000
0000
0000
0000
0000
0000
0000
0000
0000
0000
0000
0000
0000
0000
0000
0000
0000
0000
0001
0000
0000
0000
0000
0000
0000
0000
0000
0000
0000
0000
0000
0000
0000
0000
0000
0000
0000
0000
0000
0000
0000
0000
0000
0000
1000
0000
0000
0000
0000
0000
0000
0000
0000
0000
0000
0000
0000
0000
0000
0000
0000
0000
0000
0000
0000
0000
0000
0000
0000
0000
,
0000
0010
0000
0000
0000
0000
0000
0000
0000
0000
0000
0000
0000
0000
0000
0000
0000
0000
0000
0000
0000
0000
0000
0000
0000
0100
0000
0000
0000
0000
0000
0000
0000
0000
0000
0000
0000
0000
0000
0000
0000
0000
0000
0000
0000
0000
0000
0000
0000
0000
0000
0000
0000
0000
0000
0000
0000
0000
0000
0000
0000
0000
0000
0000
0000
0000
0000
0000
0000
0000
0000
0000
0000
0001
0000
0000
0000
0000
0000
0000
0000
0000
0000
0000
0000
0000
0000
0000
0000
0000
0000
0000
0000
0000
0000
0000
0000
0000
0000
0000
0000
0000
0000
0000
0000
0000
0000
0000
0000
0000
0000
0000
0000
0000
0000
0000
0000
0000
0000
0000
0000
0000
0000
0000
0000
0000
0000
0000
0000
0001
0000
0000
0000
0000
0000
0000
0000
0000
0000
0000
0000
0000
0000
0000
0000
0000
0000
0000
0000
0000
0000
0000
0000
0000
0000
0000
0000
0000
0000
0000
0000
0000
0000
0000
0000
0000
0000
0000
0000
0000
0000
0000
0000
0000
0000
0000
0000
0000
0000
0000
0010
0000
0000
0000
0000
0000
0000
0000
0000
0000
0000
0000
,
0000
0000
0000
0000
0000
0000
0000
0000
0000
0000
0000
0000
0100
0000
0000
0000
0000
0000
0000
0000
0000
0000
0000
0000
0000
0000
0000
0000
0000
0000
0000
0000
0000
0000
0000
0000
0000
0000
0000
0000
0000
0000
0000
0000
0000
0000
0000
0000
0000
0000
0000
0000
1000
0000
0000
0000
0000
0000
0000
0000
0000
0000
0000
0000
0000
0000
0000
0000
0000
0000
0000
0000
0000
0000
0000
0000
0000
0000
0000
0000
0000
0000
0000
0000
0000
0000
0000
0000
0000
0000
0000
0000
0000
0000
0000
0000
0000
0000
0000
0000
0010
0000
0000
0000
0000
0000
0000
0000
0000
0000
0000
0000
0000
0000
0000
0000
0000
0000
0000
0000
0000
0000
0000
0000
0000
0000
0000
0000
0000
0000
0000
0000
0000
0000
0000
0000
0000
0000
0000
0000
0000
0000
0000
0000
0000
0100
0000
0000
0000
0000
0000
0000
0000
0000
0000
0000
0000
0000
0000
0000
0000
0000
0000
0000
0000
0000
0000
0000
0010
0000
0000
0000
0000
0000
0000
0000
0000
0000
0000
0000
0000
0000
0000
0000
0000
0000
0000
0000
0000
0000
0000
0000
,
0002
0000
0003
0000
0000
0000
1000
0001
,
0100
0010
1000
0001
0010
0100
1000
0010
,
0100
1001
1001
0010
0100
1000
0010
0100
,
0011
0011
0011
1100
1100
1100
0110
0110
,
0110
1001
1001
1001
0001
0010
0100
0000
,
1000
0100
0010
0001
0100
0010
1000
0001
0010
0001
1000
0100
1000
0001
0100
0001
,
0010
0100
1000
0010
0100
0001
0010
0001
1000
0100
0010
0001
0100
0001
0100
0000
,
1001
0000
1001
0000
1001
0000
1100
0110
,
0011
0110
1100
0220
0000
0330
0000
0000
,
1000
0100
1000
0010
0100
0010
1000
0100
1000
0001
0010
0100
1000
0010
0100
0001
,
1000
0010
0100
0001
1000
0001
1000
0010
1000
0010
0100
0001
0010
0001
1000
0010
,
0100
0001
0010
0000
0001
0000
1000
0000
0010
0000
0100
0000
0001
0000
0010
0000
,
0100
1000
0010
0100
0001
0010
0100
1000
,
0011
0020
0230
2300
,
3011
2000
3020
0032
,
1003
0010
0100
0002
0013
0100
1000
0010
0200
0301
0010
0001
0200
0310
1000
0100
,
0020
0031
0100
0010
2000
3100
0010
0001
0200
0310
1000
0001
0200
0310
1000
0001
,
0110
0002
2003
3020
,
0230
0000
0000
0302
0000
0000
0023
0000
,
0230
0000
0000
2300
0000
0000
0000
0000
,
3001
0010
0100
1000
0010
0100
0001
0010
0001
1000
0100
1000
0010
0100
0001
1000
,
0011
0000
0002
0100
2003
0010
3020
1000
,
0030
0000
0002
1000
2003
0001
3020
0100
,
0030
0000
2000
0001
3200
0010
0320
0001
,
0032
1000
0203
0010
0320
0100
0230
0001
,
0300
0002
2003
3020
,
0230
0000
0000
0302
0000
0000
0023
0000
,
0230
0000
0000
0000
0000
0000
2302
0000
0000
0000
0000
0000
0000
3003
0000
0000
,
0001
0010
0001
1000
0100
1000
0010
0100
0001
0100
0010
1000
0100
0010
0001
1000
,
0011
1100
0011
1100
0011
0100
0110
0001
,
0110
1100
0010
1100
0110
0001
0110
1001
,
0001
0010
0100
1000
0010
0100
0001
1000
0001
0100
0010
1000
0001
0010
0100
1000
,
0001
0010
0001
1000
0100
0010
0001
0010
0100
1000
0001
0100
0001
1000
0100
0010
,
0100
1000
0011
0000
1000
0000
0011
0000
0110
0000
1100
0000
0010
0000
1100
0000
,
0110
0011
0010
0110
0110
1000
0011
0010
,
0002
0000
0000
2003
0000
0000
3002
0000
,
0023
0000
0000
0000
0000
0000
0000
2000
0000
0000
0000
0000
0000
0000
3030
0101
,
1000
0010
0011
1100
0110
0001
0110
0011
,
0110
1100
0010
1100
0110
0011
1000
0110
,
0001
0010
0100
1000
0010
0100
0001
0100
0001
0100
1000
0010
1000
0010
0100
0001
,
0010
0100
1000
0010
0100
0001
0010
0100
1000
0010
0100
0001
0010
0001
1000
0100
,
0010
1000
0011
0100
1100
0110
0011
0001
,
0110
1100
0010
1100
0010
0110
0011
1000
,
0022
0000
0000
0000
,
0000
0000
0000
0000
,
0033
0000
0011
0100
1100
0000
0110
0110
,
0000
0002
0023
0230
2300
3000
0110
0000
,
0000
0000
0011
0000
0110
0000
1100
1010
,
0100
0110
0001
0101
1010
0100
0110
0000
,
0000
0000
0101
0000
0011
0000
1010
1100
,
0000
0000
0110
0110
0000
0000
1001
0000
,
0011
0000
0000
0110
0000
0000
1100
0000
,
0002
0023
0230
2300
3020
0230
0302
0023
,
0230
0300
1100
0000
0110
0000
0101
0011
,
0000
0002
0203
0320
2030
3000
0110
0000
,
0000
0000
0011
0000
0110
0000
1100
1010
,
0000
0020
0230
0302
0023
0030
0110
0000
,
0000
0000
1010
0000
0011
0000
0110
1100
,
0000
0000
0110
0110
0000
0000
1001
0000
,
0110
0000
0110
1100
0000
0000
0011
0000
,
0110
0002
0023
0230
2300
3020
0230
0302
,
2203
0000
0000
0000
,
0000
0000
0000
0000
,
3311
0000
0000
0000
,
0000
0000
0000
0000
,
0000
0000
0000
0000
,
0000
0000
0000
0000
,
0022
0000
0000
0000
0000
0000
0000
0033
,
1100
1100
1100
1100
0011
0000
1000
0001
,
0110
1000
0100
0010
0001
0100
0010
1000
,
0011
0100
0001
1100
0010
1000
0110
0001
,
0110
1000
0010
0011
1000
0010
0011
0110
,
1100
0001
0100
1010
0100
0010
0101
1000
,
0011
0100
0001
1100
0010
0100
0110
0001
,
1001
0100
1000
0011
1000
0010
1100
0010
,
0101
0010
1010
0101
1000
0010
0100
0010
,
0002
0023
0230
2300
3020
0230
0302
0023
,
0230
0312
0000
0000
0000
0000
0000
0000
,
1103
0010
0100
0011
0010
0001
0110
0100
,
1001
0010
0100
0011
0010
0001
0110
0100
,
1001
0010
0001
1000
0101
0100
1010
0010
,
0101
0010
1010
0110
0001
0010
1100
0010
,
0220
0000
0000
0330
0011
0010
0110
0100
,
1100
1000
1001
0020
0000
0030
0110
0000
,
0202
0000
0000
0303
0011
0100
1100
0001
,
0110
0010
0011
1100
0000
0000
0011
0000
,
2020
0000
0000
3030
0101
0000
1010
0000
,
0200
0000
0020
2332
0000
0000
0000
0000
,
0000
3003
0000
0000
,
0022
0000
0000
0000
0000
0000
0000
0033
,
2200
0000
0000
3300
,
1001
0000
0011
0000
,
0110
2002
0000
0000
0000
0000
0000
0000
0000
0000
0000
3003
0000
0000
0000
0000
;
