#TITLE:Blue Sky;
#SUBTITLE:;
#ARTIST:DJ Sharpnel feat. DJ Jea;
#TITLETRANSLIT:;
#SUBTITLETRANSLIT:;
#ARTISTTRANSLIT:;
#CREDIT:;
#BANNER:bluesky bn.png;
#BACKGROUND:bluesky bg.png;
#LYRICSPATH:;
#CDTITLE:;
#MUSIC:Bluesky.ogg;
#OFFSET:0.166;
#SAMPLESTART:89.636;
#SAMPLELENGTH:13.240;
#SELECTABLE:YES;
#DISPLAYBPM:145.000;
#BPMS:0.000=145.000;
#STOPS:;
#BGCHANGES:;
// cache tags:
#FIRSTBEAT:34.000;
#LASTBEAT:584.000;
#SONGFILENAME:Songs/SHARPNELSTREAMZ v2/Bluesky/Bluesky.sm;
#HASMUSIC:1;
#HASBANNER:1;
#MUSICLENGTH:244.319;
// end cache tags

//---------------dance-single - 13 (Nappo)----------------
#NOTES:
     dance-single:
     13 (Nappo):
     Challenge:
     13:
     1.000,0.986,0.029,0.377,1.000,1655.000,7.000,92.000,18.000,0.000:
0000
0000
0000
0000
,
0000
0000
0000
0000
,
0000
0000
0000
0000
,
0000
0000
0000
0000
,
0000
0000
0000
0000
,
0000
0000
0000
0000
,
0000
0000
0000
0000
,
0000
0000
0000
0000
,
0000
0000
0000
0000
0000
0000
0000
0000
0000
0000
0000
0000
0000
0000
0000
0000
0002
0003
0000
0000
2000
3000
0000
0000
0020
0030
0000
0000
2000
3000
0000
0000
,
0002
0003
0000
0000
0200
0300
0000
0000
0002
0003
0000
0000
2000
3000
0000
0000
0200
0300
0000
0000
2000
3000
0000
0000
0002
0003
0000
0000
0020
0030
0000
0000
,
0200
0300
0000
0000
2000
3000
0000
0000
0200
0300
0000
0000
0020
0030
0000
0000
0200
0300
0000
0000
2000
3000
0000
0000
0002
0003
0000
0000
0200
0300
0000
0000
,
0020
0030
0000
0000
2000
3000
0000
0000
0002
0003
0000
0000
0200
0300
0000
0000
0002
0003
0000
0000
0020
0030
0000
0000
0200
0300
0000
0000
2000
3000
0000
0000
,
0002
0003
0000
0000
0200
0300
0000
0000
0002
0003
0000
0000
2000
3000
0000
0000
0200
0300
0000
0000
2000
3000
0000
0000
0002
0003
0000
0000
0200
0300
0000
0000
,
0002
0003
0000
0000
2000
3000
0000
0000
0002
0003
0000
0000
0200
0300
0000
0000
0002
0003
0000
0000
0020
0030
0000
0000
0200
0300
0000
0000
2000
3000
0000
0000
,
0002
0003
0000
0000
0020
0030
0000
0000
0200
0300
0000
0000
0020
0030
0000
0000
0002
0003
0000
0000
0200
0300
0000
0000
0002
0003
0000
0000
2000
3000
0000
0000
,
0020
0030
0000
0000
2000
3000
0000
0000
0020
0030
0000
0000
0200
0300
0000
0000
0002
0003
0000
0000
0200
0300
0000
0000
0002
0003
0000
0000
2000
3000
0000
0000
,
0200
0300
0000
0000
0020
0030
0000
0000
0002
0003
0000
0000
2000
3000
0000
0000
1001
0000
0000
0000
0000
0000
0000
0000
0001
0000
0000
0000
0001
0000
0000
0000
,
0100
0100
0010
0010
1000
1000
0001
0001
,
0010
0000
0010
0000
0100
0000
0100
0000
1000
0001
1000
0001
0100
0010
1000
0001
,
1000
0001
0010
0100
1000
0010
0100
0001
1000
0100
0010
0001
1000
0010
0100
0001
,
0010
0100
1000
0001
0100
0001
1000
0010
0200
0000
0000
0000
0000
0000
0300
0000
,
0000
0000
0000
0000
,
M002
0000
0003
0000
1002
0000
0003
0000
1000
0100
0010
0001
1000
0010
1000
0001
,
1000
0100
0010
0001
1000
0010
1000
0001
1000
0100
0010
0001
1000
0010
1000
0100
,
0010
0001
0100
0001
1000
0010
0100
0001
1000
0100
0010
0001
1000
0010
1000
0001
,
1000
0100
0010
0001
1000
0010
1000
0001
1000
0100
0010
0001
1000
0010
0100
0001
,
1000
0100
0010
0001
1000
0001
0100
0001
1000
0100
0010
0001
1000
0010
1000
0001
,
1000
0100
0010
0001
1000
0010
1000
0001
1000
0100
0010
0001
1000
0010
1000
0100
,
0010
0001
1000
0010
0100
0001
1000
0100
1000
0010
0100
0001
1000
0001
1000
0100
,
1000
0010
0100
0001
1000
0001
1000
0100
1000
0010
0100
0001
1000
0100
0010
0001
,
20M0
0000
3000
0000
2010
0000
3000
0000
0010
0100
0001
1000
0010
0100
0001
1000
,
0001
0010
0100
1000
0001
0010
0100
1000
0010
0100
0001
1000
0010
0100
0001
1000
,
0001
0010
0100
1000
0010
0100
0001
1000
0001
0010
0001
1000
0001
0010
0001
1000
,
0010
0100
0001
1000
0010
0100
0001
1000
0001
0010
0100
1000
0001
0100
0010
1000
,
0001
0010
0001
1000
0010
0100
0001
1000
0001
0010
0100
1000
0001
0010
0100
1000
,
0001
0100
0001
1000
0001
0100
0001
1000
0010
0100
0001
1000
0100
0010
0001
1000
,
0001
0010
0100
1000
0010
0100
0001
1000
0100
1000
0001
1000
0100
1000
0001
1000
,
0010
0100
0001
1000
0010
0100
0001
1000
0001
0010
0100
1000
0001
0010
0100
1000
,
0M02
0000
0003
0000
0102
0000
0003
0000
0100
0010
1000
0001
0100
0010
1000
0001
,
1000
0100
0010
0001
1000
0100
0010
0001
0100
0010
1000
0001
0100
0010
1000
0001
,
1000
0100
0010
0001
0100
0010
1000
0001
1000
0100
1000
0001
1000
0100
1000
0001
,
0100
0010
1000
0001
0100
0010
1000
0001
1000
0100
0010
0001
1000
0010
0100
0001
,
1000
0100
1000
0001
0100
0010
1000
0001
1000
0100
0010
0001
1000
0100
0010
0001
,
1000
0010
1000
0001
1000
0010
1000
0001
0100
0010
1000
0001
0010
0100
1000
0001
,
1000
0100
0010
0001
0100
0010
1000
0001
0010
0001
1000
0001
0010
0001
1000
0001
,
0100
0010
1000
0001
0100
0010
1000
0001
1000
0100
0010
0001
1000
0100
0010
0001
,
20M0
0000
3000
0000
2010
0000
3000
0000
0010
0100
0001
1000
0010
0100
0001
1000
,
0001
0010
0100
1000
0001
0010
0100
1000
0010
0100
0001
1000
0010
0100
0001
1000
,
0001
0010
0100
1000
0010
0100
0001
1000
0001
0010
0001
1000
0001
0010
0001
1000
,
0010
0100
0001
1000
0010
0100
0001
1000
0001
0010
0100
1000
0001
0100
0010
1000
,
0001
0010
0001
1000
0010
0100
0001
1000
0001
0010
0100
1000
0001
0010
0100
1000
,
0001
1000
0001
1000
0100
1000
0001
0100
,
0001
0000
1000
0000
0010
0000
1000
0000
0010
0100
0010
0100
0001
1000
0001
1000
,
0001
0010
0001
0010
0100
1000
0100
1000
0001
1000
0001
1000
0010
0100
0010
0100
,
0001
1000
0001
1000
0001
1000
0001
1000
0100
0010
0001
1000
0100
0010
0001
1000
,
0010
1000
0001
0100
0010
1000
0100
1000
0010
0100
0001
0010
0100
1000
0010
1000
,
0100
1000
0001
0100
0001
1000
0100
1000
0010
0100
0001
1000
0010
0100
0001
1000
,
0010
1000
0001
0010
0100
1000
0010
1000
0100
0010
0001
0010
0100
1000
0001
1000
,
0010
0100
0001
1000
0100
1000
0010
1000
0001
0100
0010
1000
0100
1000
0010
0100
,
0001
0010
0100
1000
0010
1000
0100
1000
0001
0100
0001
1000
0100
1000
0010
0100
,
0001
0010
0100
1000
0001
1000
0001
0010
0100
1000
0001
0000
0100
0001
1000
0000
,
0001
0100
0001
0000
1000
0100
0010
0000
0001
1000
0001
0000
1000
0010
0100
0000
,
0002
0000
0003
0000
0002
0000
0003
0000
1000
0010
0100
0001
1000
0010
0100
0001
,
1000
0010
0100
0001
1000
0100
0010
0001
1000
0100
1000
0001
1000
0010
0100
0001
,
0010
0100
1000
0001
1000
0001
0010
0100
1000
0010
0100
0001
1000
0010
0100
0001
,
1000
0010
0100
0001
1000
0100
0010
0001
1000
0100
1000
0001
1000
0010
0100
0001
,
0010
0100
1000
0001
1000
0001
0100
0010
1000
0100
0010
0001
1000
0100
1000
0001
,
0100
0100
0001
0001
1000
1000
0100
0100
,
1000
0000
1000
0000
0001
0000
0001
0000
1000
0001
1000
0001
0100
0010
0100
0010
,
1000
0000
0000
0001
0000
0000
1000
0000
0000
0001
0000
0000
0010
0000
0000
0100
0000
0000
0010
0000
0000
0100
0000
0000
1000
0000
0001
0000
1000
0000
0010
0000
0100
0000
0001
0000
1000
0000
0001
0000
1000
0000
0100
0000
0010
0000
0001
0000
,
0010
0100
1000
0001
0100
0010
1000
0001
0010
0001
1000
0100
2000
0000
0000
0000
0000
0000
3010
0000
0000
0200
0000
0000
,
0000
0301
0010
0100
0010
0001
0100
0010
,
1000
0100
0010
0100
2000
0000
0000
0000
,
0000
0000
0000
3000
,
0000
0000
M000
M000
,
M000
M000
M000
M000
,
M000
M000
M000
M000
,
0000
M000
0000
0000
0000
0000
0000
0000
0000
0000
0000
0000
M000
0000
0000
0000
0000
0000
0000
0000
0000
0000
0000
0000
M000
0000
0000
0000
0000
0000
0000
0000
,
1001
0000
0000
0000
0000
0000
0000
1000
,
0020
0000
0000
0000
0000
0000
1030
0020
,
0000
0000
0000
0000
0000
0000
0030
1000
,
0100
0000
0010
0000
0100
0000
1000
0000
0010
0000
0000
0100
0000
0000
0001
0000
,
0000
0020
0000
0000
0000
0000
0000
0031
,
0200
0000
0000
0000
0000
0000
0301
0200
,
0000
0000
0000
0000
0000
0000
0300
0001
,
0010
0100
0010
0001
0100
1000
0000
1000
,
0000
0200
0000
0000
0000
0000
0000
0000
,
0301
1000
0000
0001
0010
0000
0001
1000
0000
1000
0001
0000
0100
0000
0010
0000
,
1000
0001
0000
0010
0100
0000
1000
0100
0000
0100
1000
0000
0100
0000
0010
0000
,
0001
0100
0000
0001
1000
0000
0010
0100
0000
0100
0010
0000
1000
0000
0001
0000
,
0010
0100
0000
1000
0001
0000
0100
0010
0000
0010
0100
0000
0001
0000
1000
0000
,
0001
1000
0000
0010
0100
0000
0001
0010
0000
0010
0001
0000
0100
0000
0010
0000
,
1000
0010
0000
0100
0001
0000
1000
0100
0000
0100
1000
0000
0001
0000
0100
0000
,
0010
1000
0000
0001
0100
0000
0010
1000
0000
1000
0010
0000
0100
0000
0001
0000
,
0010
0100
0000
1000
0001
0000
1000
0100
0000
0100
1000
0000
0001
0000
1000
0000
,
0001
0100
0001
1000
0001
0100
0001
1000
,
0001
0010
0001
1000
0001
0010
0001
1000
,
0001
0010
0100
0010
0001
0010
0100
0010
,
0001
1000
0010
1000
0001
1000
0010
1000
,
0001
0100
0001
1000
0001
0100
0001
1000
,
0100
1000
0001
1000
0100
1000
0001
1000
,
0100
0010
0001
0010
0100
0010
0001
0010
,
0100
1000
0001
1000
0010
1000
0001
1000
,
0010
0000
0100
0000
0010
0000
0100
0000
0010
1000
0001
1000
0001
0010
0100
1000
,
0001
1000
0001
0010
0100
1000
0001
1000
0010
0100
0001
0010
0100
0010
0001
1000
,
0001
0010
0100
0010
0001
1000
0010
0100
0001
1000
0001
0100
0010
1000
0001
1000
,
0001
1000
0100
0010
0001
0010
0100
1000
0100
0010
0100
1000
0001
0100
0001
1000
,
0010
0100
0001
1000
0010
0100
0001
1000
0010
1000
0001
1000
0100
0010
0001
0010
,
0100
0010
0001
1000
0001
0010
0100
0010
0001
1000
0010
0100
0001
1000
0010
1000
,
0001
0100
0010
1000
0001
1000
0001
1000
0100
0010
0001
0010
0100
0010
0001
1000
,
0001
1000
0010
0100
0001
1000
0010
1000
0001
0100
0001
1000
0100
0010
0001
1000
,
0001
1000
0010
1000
0001
1000
0010
1000
0001
1000
0100
1000
0001
1000
0100
1000
,
0001
0010
0100
0010
0001
0010
0100
0010
0001
1000
0010
1000
0100
1000
0010
1000
,
0100
0010
0001
0100
0001
0010
0001
0100
0001
0010
0001
1000
0001
0100
0001
1000
,
0100
1000
0001
0100
0001
1000
0100
1000
0001
0100
0001
1000
0100
1000
0001
0100
,
0001
0010
0100
0010
0001
0010
0100
0010
0001
1000
0010
1000
0100
1000
0010
1000
,
0100
0010
0001
0100
0001
0010
0001
0100
0001
0010
0001
1000
0001
0100
0001
1000
,
0010
1000
0001
0010
0001
1000
0010
1000
0001
0010
0001
1000
0010
1000
0001
0010
,
0001
0100
0010
0100
0001
0100
0010
0100
0001
1000
0010
1000
0100
1000
0010
1000
,
0100
0010
0001
0100
0001
0010
0001
0100
0001
0010
0001
1000
0001
0100
0001
1000
,
0010
0100
0001
1000
0010
0100
0001
1000
0100
0010
0001
1000
0100
0010
0001
1000
,
0010
0100
0001
1000
0010
0100
0001
1000
0001
0010
0001
1000
0100
1000
0001
0010
,
0001
1000
0010
1000
0001
0010
0001
1000
0010
1000
0001
0010
0001
1000
0010
0100
,
0001
0010
0100
0010
0001
0010
0100
0010
0001
1000
0010
1000
0100
1000
0010
1000
,
0100
0010
0001
0100
0001
0010
0001
0100
0001
0010
0001
1000
0001
0100
0001
1000
,
0010
0100
0001
1000
0010
0100
0001
1000
0010
0100
0001
1000
0100
0010
0001
1000
,
0100
0010
0001
1000
0100
0010
0001
0100
M002
0000
0003
0000
1002
0000
0003
0000
,
0100
0010
1000
0001
0100
0010
1000
0001
0100
0001
1000
0010
0100
0001
0010
0001
,
0100
0010
1000
0100
0010
0001
0100
0001
0010
0001
1000
0010
1000
0001
0010
0001
,
0100
0010
1000
0001
0100
0010
1000
0001
0100
0001
1000
0100
0010
0001
0100
0001
,
0010
0100
1000
0100
0010
0001
1000
0001
0100
0010
1000
0001
0010
0001
0100
0001
,
1000
0010
0100
0001
0010
0001
0100
0010
1000
0100
0010
0001
0100
0001
0010
0001
,
1000
0010
1000
0001
0010
0001
0100
0010
1000
0100
0010
0001
1000
0001
1000
0100
,
0010
0001
1000
0000
0010
1000
0001
0000
1000
0010
1000
0000
0001
0010
0100
0000
,
1000
0001
1000
0000
0001
0100
0010
0000
2000
0000
3000
0000
2000
0000
3000
0000
,
0001
0100
0010
1000
0001
0100
0010
1000
0001
0100
0010
1000
0001
0010
0100
1000
,
0001
0010
0001
1000
0001
0100
0010
1000
0100
0010
0001
1000
0001
1000
0100
0010
,
0001
0100
0010
1000
0001
0100
0010
1000
0001
0100
0010
1000
0001
0010
0100
1000
,
0001
0010
0001
1000
0001
0100
0010
1000
0100
0010
0001
1000
0001
1000
0010
0100
,
0001
0010
0100
1000
0001
0010
0001
1000
0010
0100
0001
1000
0010
0100
0001
1000
,
0100
0010
0100
1000
0100
0010
0100
1000
0001
0100
0001
1000
0001
0100
0001
1000
,
0010
0100
0001
0010
0100
1000
0010
0100
0001
0010
0100
1000
0001
0100
0010
1000
,
0001
1000
0100
1000
0001
1000
0100
1000
0001
0100
0010
1000
0001
0100
0010
1000
,
0002
0000
0013
0200
0000
1300
0010
0100
,
0010
1000
0100
0010
0001
0100
0010
0200
,
0002
0000
0000
0000
,
0303
0000
0000
0000
;
