#TITLE:Sea of Lies;
#SUBTITLE:The Divine Wings of Tragedy (1997);
#ARTIST:Symphony X;
#TITLETRANSLIT:;
#SUBTITLETRANSLIT:;
#ARTISTTRANSLIT:;
#CREDIT:;
#BANNER:sea_bn.png;
#BACKGROUND:sea_bg.png;
#LYRICSPATH:;
#CDTITLE:omega_cdtitle.png;
#MUSIC:02_Sea of lies.mp3;
#OFFSET:-2.075;
#SAMPLESTART:153.600;
#SAMPLELENGTH:12.000;
#SELECTABLE:YES;
#BPMS:0.000=152.250;
#STOPS:;
#BGCHANGES:;
// cache tags:
#FIRSTBEAT:4.000;
#LASTBEAT:639.000;
#SONGFILENAME:Songs/Astronomic Metal Collection 2/(OMEGAspike) Sea of Lies/02_Sea of lies.sm;
#HASMUSIC:1;
#HASBANNER:1;
#MUSICLENGTH:260.602;
// end cache tags

//---------------dance-single - ----------------
#NOTES:
     dance-single:
     :
     Hard:
     12:
     1.000,1.000,1.000,0.334,1.000,1943.000,263.000,87.000,0.000,78.000:
0000
0000
0000
0000
,
0010
0000
1000
0000
0001
0000
1000
0000
0010
0000
0100
0000
0010
0000
0100
1000
,
0001
1000
0010
1000
0100
0000
1000
0000
0100
0010
0001
0010
1000
0100
0010
0100
,
1000
0000
1000
0000
0001
0000
1000
0000
0010
0000
0100
0000
1000
0000
0100
0001
,
0010
0000
1000
0000
0001
0000
1000
0010
0101
0000
0000
0000
1010
0000
0000
0000
,
0100
0000
1000
0000
0001
0000
0100
0000
0001
0000
0010
0000
0100
0000
1000
0010
,
1000
0000
0100
0000
0001
0000
1000
0000
0100
0001
0100
0010
1000
0010
1000
0100
,
0001
0000
1000
0000
0010
0000
1000
0000
0001
0000
0100
0000
1000
0000
0010
0100
,
0001
0010
0100
1000
0001
0100
0010
1000
0101
0000
0000
0000
1001
0000
0000
0000
,
1001
0010
0100
1000
0001
1000
0100
1000
0001
0100
1000
0010
1000
0100
0010
0001
,
0100
0010
1000
0001
0010
0100
0010
1000
0001
0100
0001
0100
0010
1000
0010
1000
,
0001
0010
0100
1000
0001
0100
1000
0100
0001
0010
0100
0010
0100
1000
0010
0001
,
0010
0000
0000
0100
0000
0000
1000
0000
0000
0100
0000
0000
0001
0000
0010
0000
0100
0000
1000
0000
0000
0100
0000
0000
1011
0000
0000
0000
0000
0000
0000
0000
0000
0000
0000
0000
1011
0000
0000
0000
0000
0000
0000
0000
0000
0000
0000
0000
,
1001
0100
0010
1000
0001
0010
0100
1000
0010
0001
0010
0100
1000
0010
0100
0001
,
0010
0100
1000
0100
0010
1000
0100
1000
0001
0001
0001
0001
0100
0100
0100
0100
,
0001
0100
0010
1000
0001
0010
0100
1000
0001
0100
0010
1000
0100
0010
0100
1000
,
0011
0100
0010
1000
0101
1000
0100
0010
1001
0100
0010
0001
1100
0010
0100
1000
,
0011
0100
0010
1000
0101
1000
0001
1000
0110
0001
0010
0100
1000
0001
0100
0001
,
1010
0000
0000
0100
0000
0000
1000
0000
0000
0100
0000
0000
0001
0000
0000
0010
0000
0000
0100
0000
0000
1000
0000
0000
0001
0000
0100
0000
0010
0000
1000
0000
0001
0000
0100
0000
0010
0000
0000
1000
0000
0000
0100
0000
0000
0010
0000
0000
,
0001
0010
0100
1000
0001
0100
0010
1000
0001
1000
0010
0100
0002
0000
0000
0003
,
1001
0010
0100
1000
0001
0010
0001
0010
0100
1000
0010
0100
0001
0010
0100
1000
0100
1000
0001
0010
0100
1000
0001
1000
,
0110
0101
1011
1001
0000
1010
1110
0101
,
0000
0000
0110
0000
0001
0000
1100
0000
1001
0110
0011
0000
1011
0110
1100
0000
,
0000
1010
1110
1001
0000
0110
1101
0011
,
0000
1010
0001
1100
0000
1001
0100
1010
,
0110
0011
1011
0101
0000
0110
1101
0011
,
0000
0000
0110
0000
0001
0000
1100
0000
1001
1010
1100
0000
1101
0101
0011
0000
,
0000
1010
1110
0101
0000
1001
1011
0101
,
0000
0000
0110
0000
0001
0000
1100
0000
0000
0000
2002
0000
0013
0100
0001
3100
,
0011
0101
1011
0011
0000
0110
1101
0011
,
0000
0000
1010
0000
1000
0000
0101
0000
1010
0011
1100
0000
1101
1100
0011
0000
,
0000
0110
1010
1011
0000
0110
0011
1101
,
0000
0110
0000
1011
0000
1100
1011
1101
,
1100
0110
1011
0101
0000
1001
1101
0011
,
0000
0000
0110
0000
0001
0000
1100
0000
0011
1001
0011
0000
1101
1001
1100
0000
,
0000
1010
1011
0101
0000
0110
1101
1010
,
0100
0000
0000
1000
0000
0000
0100
0000
0000
0010
0000
0000
1001
0000
0000
0100
0000
0000
0010
0000
0000
1000
0000
0000
0001
0000
0000
1000
0000
0000
0100
0000
0000
0010
0000
0000
0001
0000
0010
0000
0100
0000
1000
0000
0000
0100
0000
0000
,
0010
0002
0000
0000
0000
0000
0000
0000
0000
0000
0000
0000
0000
0000
0000
0103
0000
0000
0001
0000
0000
0010
0000
0000
,
1000
0000
0000
0100
0000
0000
1000
0000
0100
0000
0010
0000
0001
0000
0010
0000
0100
0000
1000
0000
0001
0000
0010
0000
,
2000
0000
0000
0000
0000
0000
3000
0000
0010
0001
0100
0010
1000
0100
0010
0001
,
0001
0010
0100
1000
0010
0100
0001
0010
0001
1000
0100
0010
0001
1000
0100
0010
,
0001
0010
0100
1000
0001
0100
0010
1000
0100
1000
0010
0100
0001
0010
0100
1000
,
2020
0000
0000
3030
2102
0000
3003
0220
,
0330
2020
0000
0000
0100
3030
1022
0000
,
0100
0033
2002
0000
3003
2021
3030
0202
,
0000
0000
0000
0000
0000
0303
0000
0000
1001
0000
0000
0000
0010
0000
1011
0000
,
0000
0101
1000
0000
0100
1011
0000
0001
,
1001
0010
0100
1000
0001
1000
0100
1000
0001
0100
1000
0010
1000
0100
0010
0001
,
0100
0010
1000
0001
0010
0100
0010
1000
0001
0100
0001
0100
0010
1000
0010
1000
,
0001
0010
0100
1000
0001
0100
1000
0100
0001
0010
0100
0010
0100
1000
0010
0001
,
0010
0000
0000
0100
0000
0000
1000
0000
0000
0100
0000
0000
0001
0000
0010
0000
0100
0000
1000
0000
0000
0100
0000
0000
1011
0000
0000
0000
0000
0000
0000
0000
0000
0000
0000
0000
1101
0000
0000
0000
0000
0000
0000
0000
0000
0000
0000
0000
,
1001
0100
0010
1000
0001
0010
0100
1000
0010
0001
0010
0100
1000
0010
0100
0001
,
0010
0100
1000
0100
0010
1000
0100
1000
0100
0001
0100
0001
1000
0010
1000
0010
,
1000
0100
0010
1000
0001
0010
0100
1000
0001
0100
0010
1000
0100
0010
0100
1000
,
0011
1100
0011
0000
1010
0101
1010
0000
2102
0000
0000
3003
2021
0000
0000
3030
,
0011
0110
1010
0110
1022
0000
0000
0033
2021
0000
3030
0000
0000
0000
0000
0000
,
0000
0000
0010
0100
0011
1000
0001
0010
,
1001
0000
0100
0000
0010
0000
0001
0000
1010
0000
0100
0000
0001
0010
0100
0000
,
1010
0100
1000
0000
0010
0000
0100
0000
1001
0000
0010
0000
0100
0000
1000
0000
,
0011
0000
0100
0000
0010
0000
1000
0000
0101
0000
0010
0000
0001
0100
1000
0000
,
0010
0101
1000
0010
0101
0010
0100
1000
,
1001
0000
0100
0000
0010
0000
1000
0000
0101
0000
0010
0000
0001
0010
0100
0000
,
1001
0100
0001
0000
0100
0000
0010
0000
1001
0000
0100
0000
0010
0000
0001
0000
,
1010
0100
0011
1010
0100
0011
1010
0001
,
0010
0100
1001
0101
1011
0011
0000
0110
,
1011
0000
0101
0000
0000
0000
0110
0000
0001
0000
1100
0000
0011
0011
0101
0000
,
1101
1100
1010
0000
0000
0000
0110
0000
1110
0000
0011
0000
0000
0000
1010
0000
,
1100
1011
0000
0110
0000
1101
0000
1100
,
1011
1011
0110
1010
1101
0101
0000
0110
,
1011
0000
0101
0000
0000
0000
0110
0000
0001
0000
1100
0000
0110
0101
0110
0000
,
1001
2021
0000
0000
0000
0000
0000
0000
,
0000
0000
3031
0100
0010
0000
1000
0000
0100
0000
0010
0000
0100
0000
0001
0000
,
0010
0100
2012
0000
0000
0000
0000
0000
,
0000
0000
0000
3003
0100
1000
0001
0100
0001
1000
0010
0100
1001
0000
0000
0000
,
0010
0001
0010
0100
2020
0000
0000
0000
0000
0000
3030
0000
2012
0000
0000
0000
,
3003
0220
0330
2020
0000
0000
0100
3030
,
0122
0000
1000
0033
2002
0110
3003
2020
,
3030
0000
0202
0000
0000
0000
0000
0000
0000
0303
0000
0000
1001
0000
0000
0000
,
0010
1011
0000
0001
1000
0000
0100
1011
,
0000
0000
0001
0000
1001
0010
0100
1000
0001
1000
0100
1000
0001
0100
1000
0010
,
1000
0100
0010
0001
0100
0010
1000
0001
0010
0100
0010
1000
0001
0100
0001
0100
,
0010
1000
0010
1000
0001
0010
0100
1000
0001
0100
1000
0100
0001
0010
0100
0010
,
0100
1000
0010
0001
1100
0011
1100
0001
0110
1001
0110
1000
0111
0000
0000
0000
,
1110
0000
0000
0000
1001
0100
0010
1000
0001
0010
0100
1000
0010
0001
0010
0100
,
1000
0010
0100
0001
0010
0100
1000
0100
0010
1000
0100
1000
0100
0001
0100
0001
,
1000
0010
1000
0010
1000
0100
0010
1000
0001
0010
0100
1000
0001
0100
0010
1000
,
0100
0010
0100
1000
0001
0010
0100
1000
0001
0010
0100
1000
0111
0000
0000
0000
,
1101
0000
0010
0000
2000
0000
0000
3000
0002
0000
0000
0003
0100
0001
1000
0100
,
0010
0001
1000
0010
0100
1000
0100
0010
1000
0001
0100
0010
0001
0010
0100
1000
,
0100
0000
0000
0010
0000
0000
0001
0000
0000
0100
0000
0000
0001
0000
0000
1000
0000
0000
0010
0000
0000
0001
0000
0000
0001
0000
0000
0100
0000
0000
0010
0000
0000
0001
0000
0000
0100
0000
0000
0010
0000
0000
0100
0000
1000
0000
0010
0000
,
0100
0000
0000
0000
0000
0000
0000
0000
1000
0000
0000
0000
0000
0000
0000
0000
0010
0000
0000
0000
0000
0000
0000
0000
0100
0000
0000
0000
0000
0000
0000
0000
0001
0000
0000
0000
0000
0000
0000
0000
0010
0000
0000
0000
0000
0000
0000
0000
0100
0000
0000
0000
0000
0000
0000
0000
1000
0000
0000
0000
0000
0000
0000
0000
0010
0000
0000
0000
0000
0000
0000
0000
0100
0000
0000
0000
0000
0000
0000
0000
0010
0000
0000
0000
0000
0000
0000
0000
0100
0000
0000
0000
0000
0000
0000
0000
0001
0000
0000
0000
0000
0000
0000
0000
1000
0000
0000
0000
0000
0000
0000
0000
0100
0000
0000
0000
0000
0000
0000
0000
0001
0000
0000
0000
0000
0000
0100
0000
0000
0000
0000
0000
0001
0000
0000
0000
0000
0000
1000
0000
0000
0000
0000
0000
0010
0000
0000
0000
0000
0000
0000
0000
0000
0000
0000
0000
1000
0000
0000
0000
0000
0000
0000
0000
0000
0000
0000
0000
0100
0000
0000
0000
0000
0000
0000
0000
0000
0000
0000
0000
0010
0000
0000
0000
0000
0000
0000
0000
0000
0000
0000
0000
,
0002
0000
0000
0000
0003
0000
0100
1000
0010
0100
0001
0010
0001
1000
0010
0100
,
0001
0000
0000
1000
0000
0000
0010
0000
0000
0100
0000
0000
0010
0000
0000
0001
0000
0000
0010
0000
0000
0100
0000
0000
2000
0000
0000
0000
0000
0000
0000
0000
0000
3000
0000
0000
0100
0000
0000
0000
0010
0000
0000
0000
0001
0000
0000
0000
,
0200
0000
0310
2000
0000
3010
0200
0000
0310
0002
0000
0000
,
0000
0000
0000
0000
0003
0000
0000
0000
0000
0000
0000
0000
1001
0000
0000
0010
0000
0000
0001
0000
0000
0010
0000
0000
1001
0000
0000
0010
0000
0000
0100
0000
0000
0010
0000
0000
1001
0000
0000
0100
0000
0000
0010
0000
0000
0100
0000
0000
,
1001
0100
1000
0100
0011
0100
0001
1000
0110
0001
0010
1000
0110
0001
0100
1000
,
0011
0100
0010
1000
0110
0001
0010
0100
1000
0001
0010
0100
1000
0010
0100
0010
,
0001
0010
0100
1000
0001
0010
0100
1000
0010
0100
0010
0100
0001
0010
0100
1000
,
0110
0000
0000
0000
0000
0000
0001
0000
0000
0000
0000
0000
0000
0000
0000
0000
0000
0000
0000
0000
0000
0000
0000
0000
0000
0000
0000
0000
0000
0000
0000
0000
0000
0000
0000
0000
0000
0000
0000
0000
0000
0000
0000
0000
0000
0000
0000
0000
0001
0000
0000
0000
0000
0000
0000
0000
0010
0000
0000
0000
0000
0000
0000
0000
0100
0000
0000
0000
0000
0000
0000
0000
1000
0000
0000
0000
0000
0000
0000
0000
0010
0000
0000
0000
0000
0000
0000
0000
0100
0000
0000
0000
0000
0000
0000
0000
0001
0000
0000
0000
0000
0000
0000
0000
0010
0000
0000
0000
0000
0000
0000
0000
0100
0000
0000
0000
0000
0000
0000
0000
1000
0000
0000
0000
0000
0000
0000
0000
0100
0000
0000
0000
0000
0000
0000
0000
0010
0000
0000
0000
0000
0000
0000
0000
0001
0000
0000
0000
0000
0000
0000
0000
0010
0000
0000
0000
0000
0000
0000
0000
0100
0000
0000
0000
0000
0000
0000
0000
1000
0000
0000
0000
0000
0000
0000
0000
0010
0000
0000
0000
0000
0000
0000
0000
0100
0000
0000
0000
0000
0000
0000
0000
,
0001
0010
0100
1000
0100
0010
0001
0010
0100
1000
0010
0100
0001
0010
0100
1000
0100
0010
0001
0010
0100
1000
0010
0100
,
0001
0010
0100
1000
0100
0010
0001
0010
0100
1000
0010
0100
0001
0010
0100
1000
0100
0010
0001
0010
0100
1000
0010
0100
,
0001
0010
0100
1000
0100
0010
0001
0010
0100
1000
0010
0100
0001
0010
0100
1000
0100
0010
0001
0010
0100
1000
0010
0100
,
0001
0010
0100
1000
0100
0010
0001
0010
0100
1000
0010
0100
0001
0010
0100
1000
0100
0010
0001
0010
0100
1000
0010
0100
,
0001
0010
0100
1000
0100
0010
0001
0010
0100
1000
0010
0100
0001
0010
0100
1000
0100
0010
0001
0010
0100
1000
0010
0100
,
0001
0010
0100
1000
0100
0010
0001
0010
0100
1000
0010
0100
0001
0010
0100
1000
0100
0010
0001
0010
0100
1000
0010
0100
,
0001
0010
0100
1000
0100
0010
0001
0010
0100
1000
0010
0100
0001
0010
0100
1000
0100
0010
0001
0010
0100
1000
0010
0100
,
0001
0010
0100
1000
0100
0010
0001
0100
0010
1000
0100
0010
0001
0100
0010
1000
0010
0100
0001
0100
0010
1000
0100
0010
,
0001
0100
0010
1000
0010
0100
0001
0100
0010
1000
0100
0010
0001
0100
0010
1000
0010
0100
0001
0100
0010
1000
0100
0010
,
0001
0100
0010
1000
0010
0100
0001
0100
0010
1000
0100
0010
0001
0100
0010
1000
0010
0100
0001
0100
0010
1000
0100
0010
,
0001
0100
0010
1000
0010
0100
0001
0100
0010
1000
0100
0010
0001
0100
0010
1000
0010
0100
0001
0100
0010
1000
0100
0010
,
0001
0100
0010
1000
0010
0100
0001
0010
0100
1000
0010
0100
0001
0010
0100
1000
0100
0010
0001
0010
0100
1000
0010
0100
,
0001
0010
0100
1000
0100
0010
0001
0010
0100
1000
0010
0100
0001
0010
0100
1000
0100
0010
0001
0010
0100
1000
0010
0100
,
0001
0010
0100
1000
0100
0010
0001
0100
0010
1000
0010
0100
0001
0100
0010
1000
0100
0010
0001
0100
0010
1000
0010
0100
,
0001
0100
0010
1000
0100
0010
0001
0100
0010
1000
0010
0100
0001
0100
0010
1000
0100
0010
0001
0100
0010
1000
0010
0100
,
0001
0000
1000
0000
0100
0000
0010
0000
0000
0000
0000
0000
2000
0000
0000
0000
0000
0000
0000
0000
0000
0000
0000
0000
0000
0000
0000
3000
0000
0000
0200
0000
0000
0000
0000
0000
0000
0000
0000
0000
0000
0000
0300
0000
0000
0000
0000
0000
,
1000
0001
0100
0002
0000
0000
0003
1000
0100
0020
0000
0000
,
0000
0000
0000
0030
0200
0000
0000
0000
0000
0000
0000
0000
0000
0300
1000
1000
,
0100
0010
0001
1000
0100
0010
0001
0001
0010
0100
1000
0001
0010
0100
1000
0100
,
2000
0000
0000
3000
1020
0000
0000
0000
0000
0000
0230
0000
0000
0000
0000
0000
,
0320
0032
2003
3002
,
0000
0000
0000
0000
0023
0000
0000
0000
0000
0000
0230
0000
0000
0300
0100
0010
,
1000
0000
0001
0000
0010
0000
0001
0000
0100
0000
0010
0000
1000
0000
0001
0000
0010
0000
1000
0000
0100
0000
0010
0000
0001
0000
0010
0000
0100
0000
1000
0000
0100
0000
0010
0000
0001
0000
0000
0010
0000
0000
0100
0000
0000
1000
0000
0000
,
0001
0000
0000
0100
0000
0000
0010
0000
0000
1000
0000
0000
0001
0000
0000
0000
0020
0000
0000
0000
0000
0000
0000
0000
0000
0000
0000
0000
0000
0000
0000
0000
0000
0000
0000
0000
0000
0000
0000
0000
0230
0000
0000
0000
0000
0000
0000
0000
0000
0000
0000
0000
0000
0000
0000
0000
0000
0000
0000
0000
0000
0000
0000
0000
,
2300
0000
0000
3002
0000
0000
0023
0000
0000
0000
0000
0000
0000
0000
0000
0000
0030
0000
1000
0000
0100
0000
0010
0000
,
0001
0000
0000
0000
0010
0000
0000
0000
0100
0000
0000
0000
2000
0000
0000
0000
0000
0000
0000
0000
0000
0000
0000
0000
0000
0000
0000
0000
0000
0000
0000
0000
0000
3000
0000
0000
0001
0000
1000
0000
0100
0000
0010
0000
0001
0000
1000
0000
,
0001
0000
0000
0000
0000
0000
0000
0000
1000
0000
0000
0000
0000
0000
0000
0000
0100
0000
0000
0000
0000
0000
0000
0000
0010
0000
0000
0000
0000
0000
0000
0000
0001
0000
0000
0000
0000
0000
0000
0000
1000
0000
0000
0000
0000
0000
0000
0000
0001
0000
0000
0000
0000
0000
0000
0000
1000
0000
0000
0000
0000
0000
0000
0000
0100
0000
0000
0000
0000
0000
0000
0000
0010
0000
0000
0000
0000
0000
0000
0000
0001
0000
0000
0000
0000
0000
0000
0000
1000
0000
0000
0000
0000
0000
0000
0000
0001
0000
0000
0000
0000
0000
0000
0000
1000
0000
0000
0000
0000
0000
0000
0000
0010
0000
0000
0000
0000
0000
0000
0000
0100
0000
0000
0000
0000
0000
0000
0000
0001
0000
0000
0000
0000
0000
0000
0000
1000
0000
0000
0000
0000
0000
0000
0000
0001
0000
0000
0000
0000
0000
0010
0000
0000
0000
0000
0000
0100
0000
0000
0000
0000
0000
1000
0000
0000
0000
0000
0000
0001
0000
0000
0000
0000
0000
0010
0000
0000
0000
0000
0000
0100
0000
0000
0000
0000
0000
1000
0000
0000
0000
0000
0000
,
0001
0000
0010
0000
0100
0000
1000
0000
0100
0000
0010
0000
0002
0000
0000
0000
0000
0000
0000
0000
0000
0000
0000
0000
0000
0000
0000
0000
0000
0000
0000
0000
0000
0000
0000
0000
0000
0000
0000
0003
0000
0000
1000
0000
0000
0000
0000
0000
,
0100
0000
0000
0000
0010
0000
0000
0000
0001
0000
0000
0000
0020
0000
0000
0000
0000
0000
0000
0000
0000
0000
0000
0000
0000
0000
0000
0000
0000
0000
0130
0000
0000
0001
0000
0000
2000
0000
0000
0000
0000
0000
0000
0000
0000
0000
0000
0000
,
0000
0000
0000
0000
0000
0000
0000
0000
0000
0000
0000
0000
3000
0000
0000
0000
0002
0000
0000
0000
0000
0000
0000
0000
0000
0000
0000
0000
0000
0000
0000
0000
0000
0000
0000
0000
0000
0000
0000
0003
0002
0000
0000
0000
0000
0000
0000
0000
0000
0000
0000
0000
0000
0000
0000
0000
0000
0000
0000
0000
0000
0000
0000
0000
,
0000
0000
0000
0023
,
0000
0000
0130
0010
2000
0000
0000
0000
0000
0000
0000
0000
0000
0000
0000
0000
,
0000
0000
0000
0000
0000
0000
0000
0000
0000
3000
0000
0000
0001
0000
0010
0000
0100
0000
1000
0000
0010
0000
0100
0000
0001
0000
0010
0000
0100
0000
1000
0000
0100
0000
0010
0000
0001
0000
0010
0000
0100
0000
1000
0000
0010
0000
0100
0000
,
0001
0010
0100
1000
0100
0010
0001
0010
0100
1000
0010
0100
0001
0010
0100
1000
0100
0010
0001
0010
0100
1000
0010
0100
,
0001
0010
0100
1000
0100
0010
0001
0010
0100
1000
0010
0100
0001
0010
0100
1000
0100
0010
0001
0010
0100
1000
0010
0100
,
0001
0010
0100
1000
0100
0010
0001
0010
0100
1000
0010
0100
0001
0010
0100
1000
0100
0010
0001
0010
0100
1000
0010
0100
,
0001
0010
0100
1000
0100
0010
0001
0010
0100
1000
0010
0100
0001
0010
0100
1000
0100
0010
0001
0010
0100
1000
0010
0100
,
0001
0010
0100
1000
0100
0010
0001
0010
0100
1000
0010
0100
0001
0010
0001
1000
0100
0010
0001
0010
0001
0100
1000
0001
,
0100
0001
0100
0010
1000
0100
0010
0001
0010
0100
1000
0010
0100
0010
0100
1000
0100
0010
0001
0010
0001
0100
1000
0001
,
0100
0000
0001
0000
0100
0000
0010
0000
1000
0000
0100
0000
0001
0000
0000
0010
0000
0000
0100
0000
0000
1000
0000
0000
0001
0000
0000
1000
0000
0000
0100
0000
0000
1000
0000
0000
0001
0000
0000
0100
0000
0000
1000
0000
0000
0010
0000
0000
,
1000
0100
0010
0001
0100
0010
1000
0001
0010
0100
0010
1000
0001
0100
0001
0100
,
0010
1000
0010
1000
0001
0010
0100
1000
0001
0100
1000
0100
0001
0010
0100
0010
,
0100
1000
0010
0001
1100
0011
1100
0010
0101
1010
0101
1000
0111
0000
0000
0000
,
1101
0000
0000
0000
1001
0100
0010
1000
0001
0010
0100
1000
0010
0001
0010
0100
,
1000
0010
0100
0001
0010
0100
1000
0100
0010
1000
0100
1000
0001
0100
0001
0100
,
0010
1000
0010
1000
0001
0100
0010
1000
0001
0010
0100
1000
0001
0100
0010
1000
,
0100
0010
0100
1000
0001
0010
0100
1000
0001
0010
0100
1000
0111
0000
0000
0000
,
1011
0000
0000
0000
1001
0010
0100
1000
0001
1000
0100
1000
0001
0100
1000
0010
,
1000
0100
0010
0001
0100
0010
1000
0001
0010
0100
0010
1000
0001
0100
0001
0100
,
0010
1000
0010
1000
0001
0010
0100
1000
0001
0100
1000
0100
0001
0010
0100
0010
,
0100
1000
0010
0001
0010
0100
1000
0001
0010
0100
1000
0100
1011
0000
0000
0000
,
1101
0000
0000
0000
1001
0100
0010
1000
0001
0010
0100
1000
0010
0001
0010
0100
,
1000
0010
0100
0001
0010
0100
1000
0100
0010
1000
0100
1000
0001
0100
0001
0100
,
0010
0000
1000
0000
0010
0000
1000
0000
0001
0000
0100
0000
0010
0000
1000
0000
0001
0000
0010
0000
0100
0000
1000
0000
0001
0010
0100
0000
0010
0000
1000
0000
,
0100
0010
0100
1000
0001
0010
0100
1000
0001
0010
0100
1000
0111
0000
0000
0000
,
1011
0000
0000
0000
0001
0001
0001
0001
1101
0000
0000
0000
1101
0000
0000
0000
,
0111
0000
0000
0000
0000
0000
1101
0000
0000
0000
0000
1110
0000
0000
0000
0000
1011
0000
0000
0000
0000
0000
0000
0000
2022
0000
0000
0000
0000
0000
0000
0000
,
0000
0000
0000
0000
,
0000
0000
0000
0000
,
0000
0000
0000
0000
,
0000
0000
0000
3033
;
