#TITLE:Delirium;
#SUBTITLE:Feels The Arrow;
#ARTIST:Smile;
#TITLETRANSLIT:;
#SUBTITLETRANSLIT:;
#ARTISTTRANSLIT:Smiley;
#CREDIT:;
#BANNER:../bn.png;
#BACKGROUND:../bg.png;
#LYRICSPATH:;
#CDTITLE:;
#MUSIC:Delirium.ogg;
#OFFSET:-0.037;
#SAMPLESTART:64.820;
#SAMPLELENGTH:11.850;
#SELECTABLE:YES;
#BPMS:0.000=163.000,217.000=326.000,219.000=163.000;
#STOPS:208.000=0.368
,209.000=0.368
,210.000=0.368
,211.000=0.368
,216.000=0.368
,217.000=0.368
;
#BGCHANGES:;
// cache tags:
#FIRSTBEAT:0.000;
#LASTBEAT:319.000;
#SONGFILENAME:Songs/EXoduz' Feels The Arrow/Delirium - [Ov3rHell3XoduZ]/Delirium.sm;
#HASMUSIC:1;
#HASBANNER:1;
#MUSICLENGTH:123.615;
// end cache tags

//---------------dance-single - C. Foy----------------
#NOTES:
     dance-single:
     C. Foy:
     Challenge:
     13:
     1.000,1.000,0.073,0.671,1.000,1138.000,9.000,83.000,0.000,0.000:

1000
0100
1000
0010
0100
0001
0010
0100
1000
0001
0100
0001
1000
0100
0010
0100
,
1000
0010
0100
0001
0010
0001
1000
0100
0010
0001
1000
0001
0100
0001
0010
0100
,
1000
0010
0100
0010
1000
0100
0010
0001
1000
0001
0100
0001
0010
0001
0010
0100
,
1000
0010
0100
0010
1000
0100
0010
0001
1000
0001
0100
0001
0010
0100
1000
0001
,
2000
3010
0100
0001
0010
0100
2000
3001
0100
0001
0010
0100
2000
3010
0100
0010
,
1000
0100
0010
0001
1000
0001
0100
0001
0010
0001
0010
0100
1000
0100
1000
0010
,
0200
0301
0010
0001
1000
0100
0020
0031
1000
0001
0100
0001
0020
0130
1000
0001
,
0100
0001
1000
0100
0010
0001
1000
0010
0200
0301
0020
0130
1000
0001
0100
0001
,
2000
3100
1000
0010
0100
0001
0020
0130
1000
0001
0100
0001
2000
3100
0010
0001
,
1000
0001
0100
0001
0010
0100
1000
0010
0100
0010
1000
0100
0010
0001
1000
0001
,
0200
0310
1000
0100
1000
0010
0200
0301
0010
0100
1000
0001
2000
3100
0010
0001
,
1000
0010
0100
0001
0010
0001
1000
0100
0010
0001
1000
0010
1000
0100
0010
0001
,
2000
3001
0100
0001
0010
0100
2000
3010
0100
0010
1000
0100
0020
0031
0100
0001
,
1000
0100
1000
0001
0100
0001
0010
0100
1000
0010
0100
0010
1000
0100
1000
0100
,
0020
0031
0100
0001
0010
0100
2000
3010
0100
0010
1000
0100
0020
0031
0100
0001
,
0010
0100
1000
0001
1000
0100
1000
0100
0020
0031
2000
3010
0100
0001
0020
0130
,
2000
3002
0103
0001
1000
0100
0010
0001
0100
0001
0010
0100
1000
0010
0100
0010
,
1000
0100
1000
0001
0100
0001
0010
0100
1000
0010
0100
0010
1000
0100
0010
0001
,
1000
0001
0010
0001
0010
0100
1000
0010
0100
0010
1000
0100
0010
0001
1000
0001
,
0100
0001
0010
0100
1000
0010
0100
0010
1000
0100
0010
0001
1000
0001
0100
0001
,
2000
0000
3002
0000
2000
0003
3200
0320
,
0032
0000
0000
0000
0203
0000
0000
0000
0302
0000
0000
1003
0100
0000
0010
0001
,
2000
0000
3200
0000
0320
0000
0031
1000
,
0002
0000
0000
0000
2003
0000
0000
0000
3020
0000
0000
0130
0001
0000
0010
0100
,
1000
0100
1000
0001
0100
0001
0010
0100
1000
0100
1000
0010
0100
0001
0010
0001
,
0010
0100
1000
0010
1000
0100
1000
0010
1000
0010
0100
0001
0010
0100
1000
0001
,
1000
0100
1000
0010
0100
0001
0010
0100
2000
0000
0000
0000
3001
0000
1000
0000
,
0002
0000
0000
0000
2003
0000
0000
0000
3100
0010
0001
1000
0010
0100
0001
0010
,
0200
1300
0010
1000
0100
1000
0010
0100
0001
0010
0001
1000
0100
0010
0001
1000
,
0001
0100
0001
0010
0100
1000
0010
1000
0100
1000
0010
0100
0001
0010
0001
0010
,
0100
1000
0010
0100
0010
1000
0100
0010
0001
1000
0100
1000
0001
0100
0010
1000
,
0001
0010
0001
0010
0100
1000
0010
0100
0010
1000
0100
0010
0001
1000
0001
0100
,
0001
0010
0100
1000
0010
0100
0010
1000
0100
1000
0100
0010
0001
1000
0010
0100
,
0001
0010
0100
1000
0001
1000
0001
0100
0001
0010
0100
1000
0010
1000
0100
1000
,
0100
0010
0001
1000
0010
0100
0010
1000
0001
0100
0001
0010
0001
0010
0100
1000
,
0010
0000
0000
0100
0000
0000
0001
0000
0000
1000
0000
0000
0100
0000
0000
0010
0000
0000
0001
0000
0000
1000
0000
0000
0001
0000
0100
0000
0001
0000
0100
0000
0001
0000
0010
0000
0100
0000
1000
0000
0010
0000
1000
0000
0010
0000
0100
0000
,
0002
1003
0100
0010
0001
1000
0100
0010
0001
1000
0010
0100
0001
1000
0010
0100
,
0001
0010
0001
0100
0001
0010
0001
0100
0001
1000
0100
1000
0010
1000
0100
1000
,
0001
0010
0100
1000
0001
0010
0100
1000
0001
0100
0010
1000
0001
0100
0010
1000
,
0001
1000
0100
1000
0100
0010
0001
0010
0001
1000
0010
1000
0010
0100
0001
0100
,
0001
0010
0100
1000
0010
0100
0010
1000
0100
0010
0001
1000
0001
0100
0001
0010
,
0100
1000
0001
1000
0100
1000
0010
0100
0001
0010
0001
0010
0100
1000
0010
0100
,
0010
1000
0100
0010
0001
1000
0001
0100
0001
0010
0100
1000
0010
0100
0001
1000
,
0200
0320
0032
2003
,
3001
0010
0100
1000
0001
0100
0001
1000
0100
1000
0010
0100
0001
0010
0100
1000
,
0001
0100
0010
1000
0100
1000
0010
0100
0001
0010
0100
1000
0001
1000
0100
1000
,
0100
0010
0001
1000
0010
0100
0001
0010
0001
1000
0100
1000
0010
0100
0001
1000
,
0001
0010
0100
1000
0010
0100
0010
1000
0001
0100
0010
1000
0001
0100
0001
1000
,
0100
1000
0010
0100
0001
1000
0010
0100
0001
0010
0100
1000
0010
0100
0001
1000
,
0100
1000
0001
0010
0100
1000
0001
0100
0010
1000
0001
1000
0010
1000
0001
0100
,
0010
1000
0001
0010
0100
1000
0001
0100
0001
1000
0100
1000
0010
0100
0001
0010
,
0100
1000
0001
0100
0001
1000
0100
0010
0002
0203
0302
0023
0230
2300
3002
2003
,
3100
0110
0010
0011
0001
0101
0100
0000
,
0110
0010
1010
1000
1100
0100
0110
0010
,
0011
0000
0000
0000
2002
0000
0000
0000
0000
0000
0000
3003
1000
0100
1000
0010
,
0100
0001
0010
0100
1000
0001
0100
0001
1000
0100
0010
0001
1000
0010
1000
0001
,
0010
0100
1000
0010
0100
0010
1000
0100
0010
0001
1000
0001
0100
0001
0010
0001
,
0010
0100
1000
0010
0100
0010
1000
0100
0010
0001
1000
0001
0100
0001
1000
0010
,
0100
0001
0010
0100
1000
0010
0100
0010
1000
0100
0010
0001
1000
0001
0100
0001
,
0010
0100
1000
0001
1000
0100
1000
0100
0010
0001
1000
0010
0100
0001
1000
0001
,
1000
0100
1000
0010
0100
0001
0010
0100
0010
0001
1000
0001
0100
0001
0010
0100
,
1000
0010
0100
0010
1000
0100
0010
0001
1000
0001
0100
0001
0010
0100
1000
0010
,
0100
0010
1000
0100
0010
0001
1000
0001
1000
0100
1000
0001
1000
0001
0100
0001
,
1000
0001
1000
0010
1000
0001
1000
0001
0010
0001
1000
0010
0100
0010
1000
0100
,
0010
0001
1000
0001
0100
0001
0010
0100
1000
0010
0100
0010
1000
0100
1000
0010
,
0100
0001
0010
0001
0010
0100
1000
0010
0100
0010
1000
0100
0010
0001
1000
0001
,
1000
0100
1000
0010
0100
0001
0010
0001
0010
0100
1000
0010
0100
0010
1000
0100
,
0010
0001
1000
0001
0100
0001
0100
0001
0010
0100
1000
0010
1000
0010
0100
0010
,
1000
0100
0010
0001
1000
0001
0100
0001
0010
0001
0010
0100
1000
0100
1000
0010
,
0100
0010
1000
0100
0010
0001
1000
0001
0100
0001
0100
0001
0010
0100
1000
0010
,
1000
0010
0100
0001
1000
0100
1000
0010
0100
0001
0010
0001
0010
0100
1000
0010
,
0100
0010
1000
0100
0010
0001
1000
0001
0100
0001
0100
0010
1000
0100
0010
0100
,
1000
0010
0100
0001
0010
0001
0010
0100
1000
0010
0100
0010
1000
0100
0010
0001
,
1000
0001
0100
0001
0010
0001
0010
0100
1000
0010
0100
0010
1000
0100
0010
0001
,
1000
0001
0100
0001
0020
0230
2300
3002
0023
0230
2300
3002
0023
0000
0000
0000
,
0230
0000
2300
0000
3020
0230
0302
0000
,
0023
0000
0000
0000
0230
0000
0000
1300
0002
0000
1003
0010
0200
0000
0000
0000
,
0302
0000
0023
0000
0230
2300
3002
0000
,
2003
0000
0000
0000
3010
0100
0001
0010
0001
1000
0100
0010
0002
0000
0000
0000
,
0000
0000
0000
0003
;

//---------------lights-cabinet - ----------------
#NOTES:
     lights-cabinet:
     :
     Easy:
     1:
     0.579,0.900,0.194,0.057,0.101,456.000,24.000,7.000,0.000,9.000:
000000
000000
000000
000000
,
000000
000000
000000
000000
,
000000
000000
000000
000000
,
000000
000000
000000
000000
,
100000
000100
100000
000100
100000
000100
100000
000100
,
010000
001000
010000
001000
010000
001000
010000
000000
,
000100
100000
000100
100000
000100
100000
001000
010000
,
200200
011000
011000
300300
,
001000
000000
000000
001000
010000
000000
000000
000000
001000
000000
000000
001000
010000
000000
000000
000000
,
001000
000000
010000
000000
001000
100000
010000
000000
,
010000
000000
000000
010000
001000
000000
000000
000000
001000
000000
000000
001000
010000
000000
000000
000000
,
100000
000000
000100
000000
010000
000100
010000
000000
,
001000
000000
000000
001000
010000
000000
000000
000000
010000
000000
000000
010000
001000
000000
000000
000000
,
001000
000000
100000
000000
100000
000100
010000
000000
,
010000
000000
000000
010000
001000
000000
000000
000000
001000
000000
000000
001000
010000
000000
000000
000000
,
000100
000000
100000
000000
001000
010000
001000
000000
,
100000
000000
001000
000000
100000
000000
000100
010000
,
001000
000000
100000
000000
000100
010000
000100
100000
,
000100
100000
001000
010000
,
001000
110000
001000
110000
,
100000
001000
100000
010000
100000
001000
100000
000100
,
100000
001000
100000
010000
100000
001000
100000
000000
,
010000
000100
010000
001000
010000
000100
010000
001000
,
010000
000100
010000
001000
020000
000000
030100
000000
,
100000
001000
100000
010000
100000
001000
100000
000100
,
100000
001000
100000
010000
100000
000000
100000
000000
,
010000
000100
010000
001000
010000
000100
010000
001000
,
010000
000100
010000
001000
010000
001000
001000
000000
,
010000
000100
010000
000000
001000
100000
001000
000000
,
010000
000100
010000
001000
100000
001000
010000
000000
,
000100
010000
000100
000000
100000
001000
100000
000000
,
000100
000000
100000
000000
000100
000000
010000
000000
001000
000000
010000
000100
001000
000000
000000
000000
,
100000
001000
100000
000000
000100
010000
000100
000000
,
001000
000100
000100
010000
001000
100000
001000
000000
,
100000
001000
100000
000000
000100
010000
000100
000000
,
100000
000000
001000
000000
001000
000000
010000
000000
001000
000000
010000
000100
010000
000000
000000
000000
,
100000
000000
000000
001000
000000
000000
010000
000000
000100
000000
000000
100000
000000
000000
001000
000000
,
100000
000000
000000
001000
000000
000000
010000
000000
000100
000000
000000
100000
000000
000000
001000
000000
,
100000
000000
000000
001000
000000
000000
010000
000000
000100
000000
000000
100000
000000
000000
001000
000000
,
010000
000100
010000
001000
020000
000000
030100
000000
,
100000
000100
000000
000000
100000
000000
000000
000000
001000
000000
010000
000000
001000
000000
000000
000000
,
001000
100000
000000
000000
001000
000000
000000
000000
010000
000000
001000
000000
100000
000000
000000
000000
,
100000
001000
000000
000000
100000
000000
000000
000000
001000
000000
010000
000000
001000
000000
000000
000000
,
001000
010000
000000
000000
010000
001000
000000
000000
001000
010000
000000
000000
010000
001000
000000
000000
,
100000
010000
000100
000000
000100
010000
100000
000000
,
100000
000000
001000
000000
010000
000100
000100
000000
,
100000
010000
000100
000000
000100
010000
100000
000000
,
000100
100000
100000
001100
,
000100
001000
100000
000000
100000
001000
000100
000000
,
100000
000000
010000
000000
100000
000100
000100
000000
,
100000
010000
000100
000000
000100
010000
100000
000000
,
002000
100000
000100
103000
,
100111
011011
100111
011011
,
101000
001100
010100
011000
,
100111
011011
000000
100000
,
000100
000000
010000
000000
001000
100000
000100
000000
,
010000
000000
001000
100000
001000
010000
000100
000000
,
100000
000000
001000
000000
100000
001000
100000
010000
,
100000
010000
100000
000000
001100
000000
100000
001000
,
100000
010000
100000
001000
100000
000100
100000
001000
,
100000
010000
100000
001000
100000
000000
010000
000100
,
010000
001000
010000
000100
010000
001000
010000
000100
,
010000
001000
010000
000000
000100
000000
100000
001000
,
100000
010000
100000
001000
100000
000100
100000
001000
,
100000
010000
100000
001000
100000
000000
010000
000100
,
010000
001000
010000
000100
010000
001000
010000
001000
,
100000
001000
100000
100000
100000
000000
001000
100000
,
010000
000000
010000
100000
010000
000000
010000
100000
,
000100
010000
001000
100000
001000
000000
000100
001000
,
000100
000000
000100
001000
000100
000000
000100
100000
,
000100
000000
010000
000000
001000
000000
010000
000100
100000
000000
000000
000000
010000
000000
100000
000000
,
010000
000000
100000
001000
100000
000000
000100
010000
,
000100
100000
001000
010000
000100
000000
100000
001000
,
010000
000000
000100
001000
000100
000000
100000
000100
,
010000
000000
001000
000000
010000
000000
000100
010000
001000
000000
000000
000000
010000
000000
000000
000000
,
001100
010000
001100
000100
,
110000
000100
110000
010000
,
001100
010000
001100
000100
,
100000
000000
001000
010000
000100
000000
200211
000000
,
000000
000000
300300
000000
;
