#TITLE:Fake Promise;
#SUBTITLE:;
#ARTIST:DJ Sharpnel;
#TITLETRANSLIT:;
#SUBTITLETRANSLIT:;
#ARTISTTRANSLIT:;
#CREDIT:;
#BANNER:poop.png;
#BACKGROUND:fuuuu.png;
#LYRICSPATH:;
#CDTITLE:;
#MUSIC:13 Fake Promise.mp3;
#OFFSET:0.000;
#SAMPLESTART:202.080;
#SAMPLELENGTH:12.000;
#SELECTABLE:YES;
#BPMS:0.000=190.780,192.000=190.820,320.000=95.370,384.000=190.740;
#STOPS:863.750=1.258
;
#BGCHANGES:;
// cache tags:
#FIRSTBEAT:32.000;
#LASTBEAT:1252.000;
#SONGFILENAME:Songs/toune 1 (2010)/Fake Promise/blank.sm;
#HASMUSIC:1;
#HASBANNER:1;
#MUSICLENGTH:416.835;
// end cache tags

//---------------dance-single - Blank----------------
#NOTES:
     dance-single:
     Blank:
     Challenge:
     12:
     0.781,1.000,0.254,0.549,0.112,1945.000,106.000,229.000,34.000,14.000:

0000
0000
0000
0000
,
0000
0000
0000
0000
,
0000
0000
0000
0000
,
0000
0000
0000
0000
,
0000
0000
0000
0000
,
0000
0000
0000
0000
,
0000
0000
0000
0000
,
0000
0000
0000
0000
,
1000
0010
0100
0001
,
0100
0000
0000
0000
1000
0000
0000
0000
0010
0000
0000
0000
0001
0000
1000
0010
,
1000
0001
0100
1000
,
0010
0000
0000
0000
1000
0000
0001
0010
0100
1000
0010
0000
0100
0000
0100
0000
,
0010
0100
0001
1000
,
0100
0000
0000
0000
0010
0000
0000
0000
0001
0000
0000
0000
0100
0000
0001
0100
,
0001
0010
1000
0001
,
1001
0000
0000
0000
0000
0000
0000
0000
0000
0100
0010
0100
0010
1001
0000
0000
,
0100
0010
1000
0001
0100
1000
0101
0000
,
0100
0001
0010
1000
0100
0010
1001
0000
,
0100
1000
0001
0010
0100
0010
1001
0000
,
0100
1000
0010
1000
0101
0000
1100
0000
,
0010
0100
0001
0100
1000
0010
1001
0000
,
0010
0100
0001
1000
0010
0001
0110
0000
,
1000
0001
1000
0010
0100
0010
1100
0000
,
0101
0000
0000
0000
1010
0000
0000
0000
0010
0100
0010
0100
0011
0000
0000
0000
,
0100
1000
0001
0100
0010
0100
1001
0000
,
0100
0001
0100
0010
1000
0010
0011
0000
,
0100
1000
0100
1000
0001
1000
0110
0000
,
0001
0010
0001
0100
1001
0000
0011
0000
,
0100
1000
0010
0100
0001
0100
0110
0000
,
1000
0100
0001
0010
1000
0100
1010
0000
,
0010
0100
1000
0001
0010
0001
1100
0000
,
0101
0000
0000
0000
1001
0000
0000
0000
0100
0010
0100
0010
1001
0000
0000
0000
,
0001
0010
0001
0010
0001
0010
0001
0010
,
1000
0100
1000
0100
1000
0100
1000
0100
,
0010
0100
0010
0100
0010
0100
0010
0100
,
0001
0100
0001
0100
0001
0100
0001
0100
,
0010
1000
0010
1000
0010
1000
0010
1000
,
0010
0001
0010
0001
0010
0001
0010
0001
,
0010
1000
0010
1000
0010
1000
0010
1000
,
0100
0001
0100
0001
0100
0001
0100
0001
,
1100
0000
0010
0000
0100
0001
1000
0001
,
0000
0100
0001
0000
0010
0010
1000
0001
,
0100
0000
0010
0000
1000
0100
0001
1000
,
0000
0010
0100
0000
0010
0001
0100
1000
,
0010
0000
0100
0000
0010
1000
0001
1000
,
0000
0010
1000
0000
0100
0100
0001
1000
,
0010
0000
0100
0000
0001
0010
1000
0010
,
1001
0000
1001
0000
1001
0110
0101
0000
,
1000
0100
0001
0100
1000
0100
0010
0002
,
0000
0000
0013
0000
0100
1000
0100
0000
0010
0000
0000
0000
0001
0000
0010
0000
,
0100
0000
0010
0100
1000
0000
1000
0100
,
0020
0032
0023
0030
,
1000
0010
0001
0010
1000
0100
0010
0002
,
0000
0000
0103
0000
0010
1000
0010
0000
0001
0000
0000
0000
1000
0000
0100
0000
,
0010
0000
1000
0100
0010
0001
0100
0010
,
1000
0001
0010
0000
0000
0000
1001
0000
,
0001
0010
1000
0100
0001
0010
0100
2000
,
0000
0000
3100
0000
0010
1000
0010
0000
0001
0000
0000
0000
0100
0000
0010
0000
,
0001
0000
0100
0010
0001
0000
0010
0100
,
2000
3200
0320
0030
,
0100
0010
0001
0010
0100
0010
0001
2000
,
0000
0000
3100
0000
0010
0100
0010
0000
0001
0000
0000
0000
1000
0000
0100
0000
,
0001
0000
0100
0010
0001
0010
1000
0100
,
0010
0001
0100
0000
0000
0000
0000
0000
,
0010
0100
1000
0010
0001
0010
0100
2000
,
0000
0000
3010
0000
0001
1000
0001
0000
0010
0000
0000
0000
0010
0000
0100
0000
,
1000
0000
0010
0100
1000
0000
0010
0100
,
0002
0023
2030
3000
,
0100
0010
0001
0100
1000
0010
0001
0200
,
0000
0000
0310
0000
0100
0010
0100
0000
0010
0000
0000
0000
0100
0000
0010
0000
,
0001
0000
0001
0100
1000
0000
1000
0010
,
0001
0100
0010
0000
0000
0000
1001
0000
,
0010
0100
1000
0100
0010
0001
0010
0200
,
0000
0000
1300
0000
0100
0010
0001
0000
0100
0000
0000
0000
1000
0000
0100
0000
,
0010
0000
0100
0010
0001
0000
0010
0100
,
2000
3200
0302
0003
,
1000
0100
0010
0001
0010
0100
1000
0200
,
0000
0000
0310
0000
0001
0100
1000
0000
0010
0000
0000
0000
0100
0000
0010
0000
,
0001
0000
1000
0010
0001
0000
0001
0100
,
0010
0000
0001
0000
0010
0000
1000
0010
0100
0001
1000
0010
0100
0001
1000
0010
,
0200
0000
0000
0300
,
0M00
000M
M000
0M00
,
00M0
M000
00M0
M00M
,
0M00
00M0
0M00
000M
,
0M00
M000
0M0M
000M
,
0M00
00M0
M000
000M
,
0M00
000M
M0M0
0M00
,
000M
M000
0MM0
0M0M
,
M020
0000
0000
2030
,
3020
0000
0002
0230
,
2300
3203
0322
2003
,
3032
0203
2300
3200
,
2302
0000
0000
3023
,
2230
0000
3322
2033
,
3200
0302
2023
3230
,
0302
2003
3020
0230
,
1301
0000
0010
0000
1000
0000
0010
0000
0100
0000
0001
0000
1000
0100
0001
0000
,
1000
0000
0000
0000
0100
0000
1001
0000
0000
0000
0010
0000
0010
0001
0100
1000
,
0001
0010
1000
0000
0100
0000
0001
0000
1000
0000
0000
0000
1001
0000
0100
0000
,
1001
0000
0010
0100
0000
0000
0000
0000
,
0010
0000
0100
1000
0010
0001
0100
0010
,
1000
0001
0100
0001
0001
0100
1000
0100
,
0010
0100
0002
0000
0000
0000
0000
0000
,
0000
0003
0000
0000
,
0110
0000
1000
0000
0100
0000
1000
0000
0001
0000
0010
0000
0100
0001
0010
0000
,
0100
0000
0000
0000
0001
0000
0110
0000
0000
0000
1000
0000
1000
0010
0001
0100
,
0010
1000
0100
0000
0001
0000
0010
0000
0100
0000
0000
0000
1001
0000
0010
0000
,
1001
0000
1000
0001
0000
0000
0000
0000
,
1000
0000
0001
0100
1000
0010
0001
1000
,
0100
0010
0001
1000
1000
0001
0100
0001
,
1000
0001
0020
0000
0000
0000
0000
0000
,
0000
0000
0030
0000
0000
0200
2300
3200
,
2300
3200
0302
0203
2300
3200
0320
0032
,
0000
0000
0023
0000
0130
1000
0200
0000
0320
0000
0000
0000
0230
0000
0320
0000
,
0032
0000
2003
3200
0302
0000
2003
3020
,
0032
0000
0023
0230
2300
0000
3020
0030
,
0002
0023
0230
0320
0032
0023
0230
2300
,
0000
0000
3200
0000
0310
0001
0020
0000
0230
0000
0000
0000
0302
0000
0023
0000
,
2030
0000
3002
0023
0230
0000
0302
0203
,
2300
0000
3200
0320
0000
0230
0320
0032
,
2003
3200
0320
0230
2300
3200
0320
0032
,
0000
0000
0023
0000
1030
0001
2000
0000
3020
0000
0000
0000
0230
0000
0320
0000
,
0032
0000
2003
3200
0302
0000
0203
0320
,
0032
0000
0023
0230
2300
0000
3020
0000
,
0032
0023
2030
3200
0320
0032
0023
0230
,
0000
0000
0320
0000
0130
1000
0200
0000
0302
0000
0000
0000
0023
0000
0230
0000
,
2300
0000
3002
0023
2030
0000
3020
0230
,
2300
0000
3200
0320
0000
0032
0203
2300
,
3200
2300
3020
0032
0023
0230
2300
3200
,
0000
0000
0320
0000
0031
1000
0002
0000
0023
0000
0000
0000
2030
0000
3020
0000
,
0032
0000
0203
0320
0032
0000
2003
3020
,
0032
0000
0023
0230
2300
0000
3020
0000
,
0032
0023
0230
2300
3020
0032
0023
2030
,
0000
0000
3200
0000
0310
0001
0020
0000
0230
0000
0000
0000
0320
0000
0032
0000
,
0023
0000
2030
3002
2003
0000
3200
0320
,
0230
0000
0302
2003
0000
3200
0320
0032
,
0103
0010
0100
0010
0100
0010
0100
0020
,
1030
0001
1000
0001
1000
0001
1000
0002
,
0013
1000
0010
1000
0010
1000
0010
2000
,
3100
0001
0100
0001
0100
0001
0100
0002
,
1003
1000
1000
1000
0001
0001
0001
0001
,
0010
0010
0010
0010
0100
0100
0100
0100
,
0100
0010
0100
0010
0100
0010
0100
0010
0100
0001
0100
0001
0100
0001
0100
0001
,
0010
1000
0010
1000
0010
1000
0010
1000
0010
0001
0010
0001
0010
0001
0010
0001
,
0110
1001
0101
1100
0000
0000
0000
0000
,
1001
0100
0001
0010
0001
0100
0001
1000
,
0010
0100
0010
0001
0000
1000
0000
0010
,
1000
0001
0010
1000
0001
1000
0010
0100
,
0001
0000
1000
0001
0000
0000
0000
0000
,
0010
0100
1000
0010
0100
0001
0100
0010
,
1000
0000
0100
0010
0000
0100
0000
0010
,
0000
1000
0002
0000
0000
0000
0000
0000
,
0003
0000
0000
0000
,
0100
1000
0010
1000
0100
0010
0100
0001
,
1000
0000
0010
0001
0000
0100
1000
0010
,
0100
0001
1000
0010
0100
0001
0010
1000
,
0100
0001
0100
1000
0000
0000
0000
0000
,
0010
0100
0001
1000
0010
0100
0001
0010
,
1000
0010
0100
1000
0001
1000
0000
0100
,
0020
0000
0000
0031
0100
0000
1000
0010
,
0200
0000
0300
0100
0100
0000
0000
0000
,
0010
0100
1000
0100
0010
0001
0100
0010
,
1000
0010
0100
0001
0100
0010
0100
0001
,
1000
0100
1000
0001
0100
0001
0010
0100
,
0010
1000
0010
0100
0010
1000
0001
1000
,
0010
0001
0010
1000
0100
1000
0010
0100
,
1000
0001
0010
0100
0010
0001
0100
1000
,
0010
0001
0100
2000
0000
0000
0000
0000
,
3000
0000
0000
0000
,
0001
0100
0010
0100
0001
1000
0100
0010
,
0100
0001
0010
0100
1000
0010
0100
0001
,
0010
0100
1000
0010
0100
0010
0001
1000
,
0001
0100
0010
0100
0001
0100
0010
0100
,
1000
0100
0010
0001
0100
0010
1000
0100
,
0010
0001
0010
0100
1000
0010
0100
0001
,
0010
0000
0000
0100
1000
0000
0000
0010
,
0001
0000
0000
0100
0010
0000
0000
0000
,
0010
0100
0010
1000
0010
0100
0010
0002
,
0000
0000
0013
0000
0100
0010
0001
0000
1000
0000
0000
0000
0100
0000
0001
0000
,
0100
0000
0010
1000
0010
0000
0001
0100
,
0010
0000
0010
0100
1000
0000
0100
0000
,
1000
0100
1000
0010
1000
0001
1000
0200
,
0000
0000
0310
0000
0001
0100
1000
0000
0010
0000
0000
0000
0100
0000
0010
0000
,
0100
0000
0001
0100
0001
0000
1000
0010
,
1000
0000
0100
0010
0000
0001
0010
0100
,
1000
0010
0001
0100
0010
1000
0100
0020
,
0000
0000
0130
0000
0010
0100
1000
0000
0001
0000
0000
0000
0001
0000
1000
0000
,
0001
0000
1000
0100
1000
0000
0010
0100
,
0010
0000
0100
0010
1000
0000
0001
0000
,
0010
0100
0010
1000
0010
0100
0010
2000
,
0000
0000
3100
0000
0010
0001
0100
0000
0010
0000
0000
0000
1000
0000
0100
0000
,
1000
0000
0001
0100
0001
0000
0100
0010
,
0100
0000
0010
0100
0000
0010
0100
0010
,
0100
0010
0001
0010
0100
1000
0100
0020
,
0000
0000
0130
0000
1000
0010
0001
0000
0100
0000
0000
0000
1000
0000
0001
0000
,
1000
0000
0001
1000
0001
0000
0001
0100
,
0001
0000
0001
0100
1000
0000
0010
0000
,
0010
0100
1000
0010
0001
0100
0010
0200
,
0000
0000
0310
0000
0001
0100
1000
0000
0010
0000
0000
0000
0100
0000
0010
0000
,
1000
0000
1000
0010
0100
0000
0001
0100
,
0010
0000
1000
0100
0000
0010
0001
0010
,
1000
0001
0100
0010
1000
0001
0100
0020
,
0000
0000
0130
0000
1000
0100
0010
0000
0001
0000
0000
0000
0100
0000
0010
0000
,
1000
0000
0010
0100
0001
0000
0010
0100
,
1000
0000
0100
0010
0001
0000
0001
0000
,
1000
0100
0001
0010
1000
0100
0001
0020
,
0000
0000
0130
0000
0001
1000
0001
0000
0010
0000
0000
0000
0100
0000
0010
0000
,
1000
0000
0010
0100
0001
0000
0100
1000
,
0001
0000
0001
0100
0000
1000
0100
1000
,
0010
0000
0020
0000
0000
0031
0100
1000
,
0000
1000
0000
1000
0000
0001
0010
0100
,
0000
0100
0000
0000
0010
0100
0010
0001
,
0010
0000
0100
0000
0000
0000
0001
0010
,
1100
0100
0100
0110
0100
0100
0100
0101
,
0100
0100
0100
0110
0100
0100
0100
0100
,
2200
0000
0000
3300
,
1000
0010
0100
0001
1000
0010
0110
0000
,
0010
0100
0001
1000
0010
0100
1001
0000
,
0001
0010
0100
0001
0100
1000
0101
0000
,
0100
0010
0001
1000
1010
0000
1010
0000
,
0001
0100
0010
1000
0010
0100
1001
0000
,
0100
0010
1000
0010
0100
0010
0101
0000
,
0100
0010
1000
0010
0100
0001
1010
0000
,
1010
0000
0000
0000
1001
0000
0000
0000
0010
0100
0010
0100
0001
0000
0000
0000
,
1001
0000
0000
0000
1001
0000
0000
0000
1001
0000
0000
0000
1001
0000
0001
0010
,
1100
0000
0000
0000
1010
0000
0000
0000
1010
0000
0000
0000
1010
0000
1000
0100
,
0011
0000
0000
0000
0101
0000
0000
0000
0101
0000
0000
0000
0101
0000
0100
0001
,
1010
0000
0000
0000
0101
0000
0000
0000
0110
0000
0010
0000
0100
0000
0010
0001
,
1100
0000
0000
0000
0011
0000
0000
0000
0110
0000
0000
0000
1100
0000
0001
1000
,
0110
0000
0000
0000
1001
0000
0000
0000
0110
0000
0000
0000
0011
0000
0100
0001
,
1010
0000
0000
0000
1100
0000
0000
0000
1010
0000
0000
0000
0101
0000
1000
0100
,
0011
0000
0000
0000
0000
0000
0000
0000
0100
0010
0100
0010
1000
0000
0000
0000
,
1100
0000
0010
0000
0100
0001
1000
0001
,
0000
0100
0001
0000
0010
0010
1000
0001
,
0100
0000
0010
0000
1000
0100
0001
1000
,
0000
0010
0100
0000
0010
0001
0100
1000
,
0010
0000
0100
0000
0010
1000
0001
1000
,
0000
0010
1000
0000
0100
0100
0001
1000
,
0010
0000
0100
0000
0001
0010
1000
0010
,
1001
0000
1001
0000
1001
0110
0110
0000
,
0011
0000
0100
0000
0010
1000
0001
1000
,
0000
0010
1000
0000
0100
0100
0001
1000
,
0010
0000
0100
0000
0001
0010
1000
0001
,
0000
0100
0010
0000
0100
1000
0010
0001
,
0100
0000
0010
0000
0100
0001
1000
0001
,
0000
0100
0001
0000
0010
0010
1000
0001
,
0100
0000
0010
0000
1000
0100
0001
0100
,
1001
0000
1001
0000
1001
0110
1001
0000
,
0010
0100
0010
1000
0010
0001
0100
0020
,
0000
0000
0130
0000
0001
1000
0001
0000
0010
0000
0000
0000
0100
0000
0010
0000
,
0100
0000
0001
0010
0100
0000
1000
0010
,
0100
0010
0001
0000
,
1000
0100
1000
0010
0100
0001
0010
0002
,
0000
0000
0013
0000
0100
1000
0010
0000
0001
0000
0000
0000
0100
0000
0010
0000
,
1000
0000
0001
0010
0001
1000
0100
0010
,
0100
0001
0000
0001
0000
0001
0000
0001
,
0100
1000
0100
0010
0100
0001
0100
0020
,
0000
0000
0031
0000
1000
0100
0001
0000
0010
0000
0000
0000
0010
0000
0100
0000
,
0001
0000
0010
0100
0001
0000
0100
1000
,
0010
1000
0100
0000
,
0010
0100
1000
0001
0010
0100
0010
2000
,
0000
0000
3100
0000
0010
0100
0001
0000
0100
0000
0000
0000
0010
0000
0100
0000
,
0001
0000
1000
0010
0100
0010
0001
1000
,
0010
0000
0000
0000
,
0100
0010
0100
0001
0100
0010
0100
1000
,
0100
0001
0100
0010
0100
0001
0100
1000
,
0010
0100
0010
1000
0010
0100
0010
0001
,
0010
1000
0010
0100
0010
0001
0010
1000
,
0001
0010
0001
1000
0001
0100
0001
0010
,
0001
0100
0001
1000
0001
0010
0001
0100
,
1000
0100
1000
0010
1000
0001
1000
0100
,
1000
0001
1000
0010
1000
0100
1000
0001
,
0100
0010
0100
0010
0001
0100
0001
0100
,
1000
0010
1000
0010
0100
1000
0100
1000
,
0010
0001
0010
0001
0010
1000
0010
1000
,
0100
0010
0100
0010
1000
0001
1000
0001
,
0010
1000
0010
1000
0100
0010
0100
0010
,
0001
0010
0001
0010
1000
0100
1000
0100
,
0001
1000
0001
0100
0001
1000
0001
0100
0001
1000
0001
0100
0001
1000
0001
0100
,
0001
1000
0001
0100
0001
1000
0001
0100
0001
1000
0001
0100
0001
1000
0001
0100
,
0001
0010
0000
0100
1000
0100
0010
1000
,
0001
0100
0000
1000
0010
0100
0001
0100
,
0010
1000
0000
0001
0100
0010
1000
0010
,
0100
0001
0000
0010
1000
0010
0100
0001
,
0010
0100
0000
0001
0100
0001
0010
1000
,
0001
0010
0000
0100
1000
0010
0100
0001
,
0010
0100
0000
0100
0001
0010
1000
0100
,
0001
0100
1000
0100
0010
0001
0000
0000
,
0100
0010
0000
0001
0010
1000
0010
0100
,
0001
0100
0000
1000
0010
0100
0001
1000
,
0010
0001
0000
0100
1000
0010
1000
0100
,
0001
0100
0000
0010
1000
0100
0001
0010
,
0100
0010
0000
0100
1000
0010
0100
0001
,
0010
0100
0000
1000
0010
0100
0001
0010
,
0001
1000
0000
0010
0001
0100
0010
1000
,
0100
0010
0001
0010
0100
1000
0100
0010
,
0001
1000
0000
0010
0100
0001
1000
0010
,
0100
0001
0000
1000
0100
0001
0010
1000
,
0001
0100
0000
0010
0100
0001
1000
0010
,
0100
0001
0000
1000
0010
0100
0001
0100
,
0010
1000
0000
0010
0100
0001
1000
0100
,
0010
0100
0000
0001
0100
0010
1000
0100
,
0001
0010
0000
0100
0010
0100
1000
0001
,
0010
0100
0010
1000
0100
0001
0000
0010
,
0100
0001
0000
0100
1000
0010
0100
0001
,
1000
0010
0000
0010
0100
0001
1000
0100
,
0001
0100
0000
0001
0010
0100
0010
1000
,
0010
0001
0000
0100
1000
0001
0100
1000
,
0010
0100
0000
0010
0001
0100
0010
1000
,
0100
0001
0000
0010
0100
0001
1000
0010
,
0100
0001
0000
0010
1000
0100
0001
0010
,
1000
0100
0001
0010
0100
1000
0100
0010
,
2002
0000
0000
0000
,
3003
0000
0000
0000
;
