#TITLE:Cmd+Ctrl+C;
#SUBTITLE:;
#ARTIST:DJ Sharpnel;
#TITLETRANSLIT:;
#SUBTITLETRANSLIT:;
#ARTISTTRANSLIT:;
#CREDIT:;
#BANNER:cmd+ctrl+c bn.png;
#BACKGROUND:cmd+ctrl+c bg.png;
#LYRICSPATH:;
#CDTITLE:;
#MUSIC:Cmd+Ctrl+C.ogg;
#OFFSET:-0.049;
#SAMPLESTART:21.157;
#SAMPLELENGTH:21.098;
#SELECTABLE:YES;
#BPMS:0.000=182.000;
#STOPS:;
#BGCHANGES:;
// cache tags:
#FIRSTBEAT:0.000;
#LASTBEAT:592.000;
#SONGFILENAME:Songs/SHARPNELSTREAMZ v2/Cmd+Ctrl+C/Cmd+Ctrl+C.sm;
#HASMUSIC:1;
#HASBANNER:1;
#MUSICLENGTH:196.075;
// end cache tags

//---------------dance-single - 14+ (CTalon)----------------
#NOTES:
     dance-single:
     14+ (CTalon):
     Challenge:
     14:
     1.000,1.000,0.184,0.056,1.000,1835.000,36.000,11.000,0.000,0.000:
1001
0000
0000
0000
0000
0000
0000
0000
0000
0000
0001
0000
0000
0000
0010
0100
,
1000
0000
0000
0000
0000
0000
0000
0000
0010
0000
0000
0100
0000
0000
0001
1000
,
0010
0000
0000
0000
0000
0000
0000
0000
0000
0000
1000
0000
0000
0000
0100
0010
,
0100
0000
0000
0000
0000
0000
0000
0000
1000
0000
0000
0001
0000
0000
0100
0010
,
1000
0000
0000
0000
0000
0000
0000
0000
0000
0000
0100
0000
0000
0000
0010
0001
,
1000
0000
0000
0000
0000
0000
0000
0000
0100
0000
0000
1000
0000
0000
0001
1000
,
0001
0000
0000
0000
0000
0000
0000
0000
0000
0000
0010
0000
0000
0000
0100
1000
,
0001
0000
0000
0000
0000
0000
0000
0000
1000
0001
1000
0010
0100
0001
0010
0100
,
1000
0001
1000
0001
1000
0010
1000
0010
,
0100
0001
0100
0001
0010
0001
0010
0001
,
1000
0010
1000
0010
0100
0001
0100
0001
,
1000
0000
0001
0000
1000
0000
0001
0000
1000
0100
0010
0000
0001
0000
0010
0100
,
1000
0010
1000
0010
0100
0001
0100
0001
,
1000
0001
1000
0001
1000
0100
1000
0100
,
1000
0010
0100
0001
0010
0100
1000
0001
1000
0001
0010
0100
1000
0010
0100
0001
,
1000
0000
0000
0000
0000
0000
0000
0000
0000
0000
0000
0000
0001
1000
0001
1000
,
0001
0010
0100
1000
0001
1000
0100
0010
0001
0100
0010
1000
0010
0100
0001
0100
,
0001
0010
0100
1000
0001
0010
0100
1000
0010
0100
0001
0010
0001
0100
0010
1000
,
0001
0010
0100
1000
0001
1000
0100
0010
0001
0100
0010
1000
0010
0100
0001
0100
,
0001
0010
0100
1000
0001
0010
0100
1000
0001
1000
0001
0100
0010
1000
0100
1000
,
0001
0100
0001
0010
0100
1000
0010
1000
0001
0100
0010
1000
0010
0100
0001
0100
,
0001
1000
0001
1000
0010
0100
0001
0010
0100
1000
0001
0010
0100
0010
0001
1000
,
0001
0100
0010
0100
0001
0100
0010
0100
0001
1000
0100
1000
0001
1000
0100
1000
,
0001
0000
0010
0001
1000
0000
0010
0100
0001
1000
0010
0000
0010
0000
0100
0001
,
1000
0100
0010
0001
1000
0001
0010
0100
1000
0010
0100
0001
0100
0010
1000
0010
,
1000
0100
0010
0001
1000
0100
0010
0001
0100
0010
1000
0100
1000
0010
0100
0001
,
1000
0100
0010
0001
1000
0001
0010
0100
1000
0010
0100
0001
0100
0010
1000
0010
,
1000
0100
0010
0001
1000
0100
0010
0001
1000
0001
1000
0010
0100
0001
0010
0001
,
1000
0010
1000
0100
0010
0001
0100
0001
1000
0010
0100
0001
0100
0010
1000
0010
,
1000
0001
1000
0001
0100
0010
1000
0100
0010
0001
1000
0100
0010
0100
1000
0001
,
1000
0010
0100
0010
1000
0010
0100
0010
1000
0001
0010
0001
1000
0001
0010
0001
,
2000
0000
0000
0000
0000
0000
0000
0000
0000
0000
0000
0000
3100
0000
0000
0000
0000
0000
0010
0000
0000
0000
0000
0000
0001
0000
0000
0000
0000
0000
1000
0000
0000
0000
0000
0000
0001
0000
0100
0000
0001
0000
0100
0000
0000
0010
0000
0000
,
1000
0000
0000
0001
0000
0000
0000
0000
0000
1000
0000
0000
0001
0000
0000
0000
0000
0000
0010
0000
0000
0000
0000
0000
0100
0000
0000
0000
0000
0000
0000
0000
0000
0000
0000
0000
1000
0000
0001
0000
1000
0000
0001
0000
1000
0000
0001
0000
,
1000
0010
0100
0001
1000
0010
0100
0001
0010
0100
1000
0010
1000
0100
0010
0001
,
1000
0010
0100
0001
1000
0001
0100
0010
1000
0100
0010
0001
0010
0100
1000
0100
,
1000
0010
0100
0001
1000
0010
0100
0001
1000
0001
1000
0100
0010
0001
0100
0001
,
1000
0100
1000
0010
0100
0001
0010
0001
1000
0100
0010
0001
0010
0100
1000
0100
,
1000
0001
1000
0001
0010
0100
1000
0010
0100
0001
1000
0010
0100
0010
1000
0001
,
1000
0100
0010
0100
1000
0100
0010
0100
1000
0001
0100
0001
1000
0001
0100
0001
,
1000
0100
0010
0001
0010
0100
1000
0001
1000
0001
1000
0000
0000
0000
0000
0000
,
0001
0100
0010
1000
0001
1000
0010
0100
0001
0010
0100
1000
0100
0010
0001
0010
,
0001
0100
0010
1000
0001
0100
0010
1000
0100
0010
0001
0100
0001
0010
0100
1000
,
0001
0100
0010
1000
0001
1000
0010
0100
0001
0010
0100
1000
0100
0010
0001
0010
,
0001
0100
0010
1000
0001
0100
0010
1000
0001
1000
0001
0010
0100
1000
0010
1000
,
0001
0010
0001
0100
0010
1000
0100
1000
0001
0010
0100
1000
0100
0010
0001
0010
,
0001
1000
0001
1000
0100
0010
0001
0100
0010
1000
0001
0100
0010
0100
0001
1000
,
0001
0010
0100
0010
0001
0010
0100
0010
0001
1000
0010
1000
0001
1000
0010
1000
,
0001
0010
0001
0100
0001
1000
0010
1000
0400
0000
0000
0000
0000
0000
0000
0000
,
1300
1001
1100
0101
,
0110
1001
1100
0011
,
1001
0001
0100
0010
1000
0100
0010
0001
,
1000
0000
0010
0000
0100
0000
0010
0000
1000
0100
0010
0000
0001
0000
1000
0000
,
0001
0100
0010
1000
0001
0010
0100
1000
0100
1000
0001
0100
0010
1000
0010
0100
,
0001
0010
0100
1000
0010
0100
0010
1000
0100
0010
0001
0100
0010
0100
0001
1000
,
0001
0010
0100
1000
0100
0010
0001
0100
,
0010
1000
0010
0100
0010
1000
0001
0010
,
0001
0100
0001
0010
0100
0010
0001
1000
,
0010
0100
0001
1000
0001
0010
0100
1000
,
0010
1000
0100
0010
0100
1000
0001
0100
,
0001
0100
0010
0100
0001
0010
0001
1000
,
0100
0010
0001
0100
0010
1000
0001
0010
,
0100
0000
0000
0000
0000
0000
0000
0000
0000
0010
0000
0000
0000
0000
0000
0000
0000
0000
0001
0000
0000
0000
0000
0000
0000
0000
0000
1000
0000
0000
0000
0000
0000
0000
0000
0000
0100
0000
1000
0000
0100
0000
1000
0000
0100
0000
1000
0000
,
0100
0000
0010
0000
0011
0000
0001
1000
0010
0000
1000
0000
1001
0000
0001
0000
,
0100
0000
0010
0000
1010
0000
1000
0001
0010
0000
0100
0000
1100
0000
1000
0000
,
0001
0000
0100
0000
0110
0000
0010
1000
0001
0000
1000
0000
1010
0000
0010
0000
,
0100
0000
0001
0000
1001
0000
1000
0100
0010
0000
0001
0000
0011
0000
0010
0000
,
0001
0000
1000
0000
1010
0000
0010
0100
0001
0000
1000
0000
1100
0000
0100
0000
,
0010
0000
0001
0000
1001
0000
1000
0010
0100
0000
0001
0000
0011
0000
0010
0000
,
0100
0000
1000
0000
1001
0000
0001
0100
0010
0000
1000
0000
1001
0000
0001
0000
,
0010
0000
0000
0000
0000
0000
0001
0000
0000
0000
0000
0000
1000
0000
0000
0000
0000
0000
0010
0000
0000
0100
0000
0000
0000
0000
0000
0001
0000
0000
0010
0000
0000
0100
0000
0000
1000
0000
0001
0000
1000
0000
0001
0000
0000
0100
0000
0000
,
0010
1000
0010
1000
0001
0010
0001
0010
,
0001
1000
0001
1000
0100
1000
0100
1000
,
0010
1000
0010
1000
0001
0100
0001
0100
,
0001
1000
0001
1000
0100
0010
0100
0010
,
0001
1000
0001
1000
0010
0100
0010
0100
,
0010
1000
0010
1000
0001
0010
0001
0010
,
0100
1000
0100
1000
0001
0100
0001
0100
,
0001
0000
2000
3010
0000
0200
0000
0301
,
1000
0010
1000
0010
0100
0000
0001
0000
1000
0100
0010
0001
1000
0000
0001
0000
,
0100
0010
0100
0001
1000
0000
0001
0000
0010
0100
1000
0100
0010
0000
0100
0000
,
1000
0001
0100
0010
0100
0000
0001
0000
0010
0001
1000
0100
1000
0000
0010
0000
,
0100
0010
1000
0001
1000
0000
0100
0000
0010
0001
0010
0100
1000
0000
0001
0000
,
0100
0010
1000
0001
0010
0000
0100
0000
1000
0001
0100
0001
0100
0000
0010
0000
,
1000
0100
0010
0001
0010
0000
0001
0000
1000
0010
0100
0010
1000
0000
0001
0000
,
0010
0100
1000
0001
1000
0000
0100
0000
0010
0100
1000
0001
0100
0000
0010
0000
,
0100
0001
1000
0001
0010
0000
0100
0000
1000
0001
1000
0001
0100
0000
0010
0000
,
1000
0001
0010
0100
1000
0000
0001
0000
0100
0010
1000
0001
1000
0000
0100
0000
,
0010
0100
1000
0001
1000
0000
0001
0000
0100
0010
1000
0001
0010
0000
0100
0000
,
1000
0001
1000
0001
0100
0000
0010
0000
0100
0001
1000
0100
0010
0000
0001
0000
,
1000
0100
0010
0001
1000
0000
0010
0000
0100
0010
1000
0001
0010
0000
0100
0000
,
1000
0001
0100
0001
0100
0000
0001
0000
0010
0100
1000
0001
1000
0000
0010
0000
,
0100
0010
1000
0001
1000
0000
0100
0000
0010
0100
1000
0100
1000
0000
0001
0000
,
0100
0010
0100
0001
1000
0000
0001
0000
0010
0100
1000
0001
0100
0000
0010
0000
,
1000
0100
0010
0001
1000
0000
0010
0000
0100
0010
1000
0001
1000
0000
0001
0000
,
1000
0100
0010
0001
1000
0001
0100
0010
1000
0001
0010
0001
0100
0010
1000
0001
,
1000
0100
1000
0001
0100
0010
0100
0001
0010
0001
0100
0001
1000
0001
1000
0010
,
1000
0001
0010
0100
0010
0100
1000
0001
0100
0010
1000
0100
0010
0001
0100
0001
,
1000
0100
1000
0001
0100
0010
0100
0001
1000
0100
1000
0010
0100
0010
1000
0100
,
1000
0100
0010
0001
1000
0001
0100
0010
1000
0001
0010
0001
0100
0010
1000
0001
,
1000
0100
1000
0001
0100
0010
0100
0001
0010
0001
0100
0001
1000
0001
1000
0010
,
1000
0001
0010
0100
0010
0100
1000
0001
0100
0010
1000
0100
0010
0001
0100
0001
,
1000
0100
1000
0001
0100
0010
0100
0001
1000
0100
1000
0010
0100
0010
1000
0100
,
1000
0010
0100
0001
1000
0001
0010
0100
1000
0001
0100
0001
0010
0100
1000
0001
,
1000
0010
1000
0001
0010
0100
0010
0001
0100
0001
0010
0001
1000
0001
1000
0100
,
1000
0001
0100
0010
0100
0010
1000
0001
0010
0100
1000
0010
0100
0001
0010
0001
,
1000
0010
1000
0001
0010
0100
0010
0001
1000
0010
1000
0100
0010
0100
1000
0010
,
1000
0010
0100
0001
1000
0001
0010
0100
1000
0001
0100
0001
0010
0100
1000
0001
,
1000
0010
1000
0001
0010
0100
0010
0001
0100
0001
0010
0001
1000
0001
1000
0100
,
1000
0001
0100
0010
0100
0010
1000
0001
0010
0100
1000
0010
0100
0001
0010
0001
,
2000
3000
0000
0000
0000
0000
0000
0000
0000
0000
0000
0000
0000
0000
0000
0000
2200
0000
3300
0000
0000
0000
0000
0000
0000
0000
0000
0000
0000
0000
0000
0000
0220
0000
0000
0000
0330
0000
0000
0000
0000
0000
0000
0000
0000
0000
0000
0000
0022
0000
0000
0000
0000
0000
0000
0000
0033
0000
0000
0000
0000
0000
0000
0000
,
0001
0010
0100
1000
0001
1000
0100
0010
0001
0100
0010
1000
0010
0100
0001
0100
,
0001
0010
0100
1000
0001
0010
0100
1000
0010
0100
0001
0010
0001
0100
0010
1000
,
0001
0010
0100
1000
0001
1000
0100
0010
0001
0100
0010
1000
0010
0100
0001
0100
,
0001
0010
0100
1000
0001
0010
0100
1000
0001
1000
0001
0100
0010
1000
0100
1000
,
0001
0100
0001
0010
0100
1000
0010
1000
0001
0100
0010
1000
0010
0100
0001
0100
,
0001
1000
0001
1000
0010
0100
0001
0010
0100
1000
0001
0010
0100
0010
0001
1000
,
0001
0100
0010
0100
0001
0100
0010
0100
0001
1000
0100
1000
0001
1000
0100
1000
,
0001
0000
0010
0001
1000
0000
0010
0100
0001
1000
0010
0000
0010
0000
0100
0001
,
1000
0100
0010
0001
1000
0001
0010
0100
1000
0010
0100
0001
0100
0010
1000
0010
,
1000
0100
0010
0001
1000
0100
0010
0001
0100
0010
1000
0100
1000
0010
0100
0001
,
1000
0100
0010
0001
1000
0001
0010
0100
1000
0010
0100
0001
0100
0010
1000
0010
,
1000
0100
0010
0001
1000
0100
0010
0001
1000
0001
1000
0010
0100
0001
0010
0001
,
1000
0010
1000
0100
0010
0001
0100
0001
1000
0010
0100
0001
0100
0010
1000
0010
,
1000
0001
1000
0001
0100
0010
1000
0100
0010
0001
1000
0100
0010
0100
1000
0001
,
1000
0010
0100
0010
1000
0010
0100
0010
1000
0001
0010
0001
1000
0001
0010
0001
,
2000
0000
0000
0000
0000
0000
0000
0000
0000
0000
0000
0000
3100
0000
0000
0000
0000
0000
0010
0000
0000
0000
0000
0000
0001
0000
0000
0000
0000
0000
1000
0000
0000
0000
0000
0000
0001
0000
0100
0000
0001
0000
0100
0000
0000
0010
0000
0000
,
1000
0000
0000
0001
0000
0000
0000
0000
0000
1000
0000
0000
0001
0000
0000
0000
0000
0000
0010
0000
0000
0000
0000
0000
0100
0000
0000
0000
0000
0000
0000
0000
0000
0000
0000
0000
1000
0000
0001
0000
1000
0000
0001
0000
1000
0000
0001
0000
,
1000
0010
0100
0001
1000
0010
0100
0001
0010
0100
1000
0010
1000
0100
0010
0001
,
1000
0010
0100
0001
1000
0001
0100
0010
1000
0100
0010
0001
0010
0100
1000
0100
,
1000
0010
0100
0001
1000
0010
0100
0001
1000
0001
1000
0100
0010
0001
0100
0001
,
1000
0100
1000
0010
0100
0001
0010
0001
1000
0100
0010
0001
0010
0100
1000
0100
,
1000
0001
1000
0001
0010
0100
1000
0010
0100
0001
1000
0010
0100
0010
1000
0001
,
1000
0100
0010
0100
1000
0100
0010
0100
1000
0001
0100
0001
1000
0001
0100
0001
,
1000
0100
0010
0001
0010
0100
1000
0001
1000
0001
1000
0000
0000
0000
0000
0000
,
0001
0100
0010
1000
0001
1000
0010
0100
0001
0010
0100
1000
0100
0010
0001
0010
,
0001
0100
0010
1000
0001
0100
0010
1000
0100
0010
0001
0100
0001
0010
0100
1000
,
0001
0100
0010
1000
0001
1000
0010
0100
0001
0010
0100
1000
0100
0010
0001
0010
,
0001
0100
0010
1000
0001
0100
0010
1000
0001
1000
0001
0010
0100
1000
0010
1000
,
0001
0010
0001
0100
0010
1000
0100
1000
0001
0010
0100
1000
0100
0010
0001
0010
,
0001
1000
0001
1000
0100
0010
0001
0100
0010
1000
0001
0100
0010
0100
0001
1000
,
0001
0010
0100
0010
0001
0010
0100
0010
0001
1000
0010
1000
0001
1000
0010
1000
,
0001
0010
0001
0100
0001
1000
0010
1000
0400
0000
0000
0000
0000
0000
0000
0000
,
1300
1001
1100
0101
,
0110
1001
1100
0011
,
1001
0001
0100
0010
1000
0100
0010
0001
,
1000
0000
0010
0000
0100
0000
0010
0000
1000
0100
0010
0000
0001
0000
1000
0000
,
0001
0100
0010
1000
0001
0010
0100
1000
0100
1000
0001
0100
0010
1000
0010
0100
,
0001
0010
0100
1000
0010
0100
0010
1000
0100
0010
0001
0100
0010
0100
0001
1000
,
0001
0000
0000
0000
;

//---------------dance-single - 13 (CTalon)----------------
#NOTES:
     dance-single:
     13 (CTalon):
     Hard:
     13:
     1.000,1.000,0.204,0.071,1.000,1672.000,40.000,14.000,0.000,0.000:
1001
0000
0000
0000
0000
0000
0000
0000
0000
0000
0001
0000
0000
0000
0010
0100
,
1000
0000
0000
0000
0000
0000
0000
0000
0010
0000
0000
0100
0000
0000
0001
1000
,
0010
0000
0000
0000
0000
0000
0000
0000
0000
0000
1000
0000
0000
0000
0100
0010
,
0100
0000
0000
0000
0000
0000
0000
0000
1000
0000
0000
0001
0000
0000
0100
0010
,
1000
0000
0000
0000
0000
0000
0000
0000
0000
0000
0100
0000
0000
0000
0010
0001
,
1000
0000
0000
0000
0000
0000
0000
0000
0100
0000
0000
1000
0000
0000
0001
1000
,
0001
0000
0000
0000
0000
0000
0000
0000
0000
0000
0010
0000
0000
0000
0100
1000
,
0001
0000
0000
0000
0000
0000
0000
0000
1000
0001
1000
0010
0100
0001
0010
0100
,
1000
0001
1000
0001
1000
0010
1000
0010
,
0100
0001
0100
0001
0010
0001
0010
0001
,
1000
0010
1000
0010
0100
0001
0100
0001
,
1000
0000
0001
0000
1000
0000
0001
0000
1000
0100
0010
0000
0001
0000
0010
0100
,
1000
0010
1000
0010
0100
0001
0100
0001
,
1000
0001
1000
0001
1000
0100
1000
0100
,
1000
0010
0100
0001
0010
0100
1000
0001
1000
0001
0010
0100
1000
0010
0100
0001
,
1000
0000
0000
0000
0000
0000
0000
0000
0000
0000
0000
0000
0001
1000
0001
1000
,
0001
0010
0100
1000
0001
1000
0100
0010
0001
0100
0010
1000
0010
0100
0001
0100
,
0001
0010
0100
1000
0001
0010
0100
1000
0010
0100
0001
0010
0001
0100
0010
1000
,
0001
0010
0100
1000
0001
1000
0100
0010
0001
0100
0010
1000
0010
0100
0001
0100
,
0001
0010
0100
1000
0001
0010
0100
1000
0001
1000
0001
0100
0010
1000
0100
1000
,
0001
0100
0001
0010
0100
1000
0010
1000
0001
0100
0010
1000
0010
0100
0001
0100
,
0001
1000
0001
1000
0010
0100
0001
0010
0100
1000
0001
0010
0100
0010
0001
1000
,
0001
0010
0100
1000
0001
0100
0010
0100
,
0001
0000
0010
0001
1000
0000
0010
0100
0001
1000
0010
0000
0010
0000
0100
0001
,
1000
0100
0010
0001
1000
0001
0010
0100
1000
0010
0100
0001
0100
0010
1000
0010
,
1000
0100
0010
0001
1000
0100
0010
0001
0100
0010
1000
0100
1000
0010
0100
0001
,
1000
0100
0010
0001
1000
0001
0010
0100
1000
0010
0100
0001
0100
0010
1000
0010
,
1000
0100
0010
0001
1000
0100
0010
0001
1000
0001
1000
0010
0100
0001
0010
0001
,
1000
0010
1000
0100
0010
0001
0100
0001
1000
0010
0100
0001
0100
0010
1000
0010
,
1000
0001
1000
0001
0100
0010
1000
0100
0010
0001
1000
0100
0010
0100
1000
0001
,
1000
0010
1000
0100
1000
0010
0100
0010
,
2000
0000
0000
0000
3100
0000
0010
0000
0001
0000
1000
0000
0004
0000
0103
0010
,
1000
0001
0000
1000
0001
0000
0010
0000
0100
0000
0000
0000
1004
0000
0000
0000
,
1003
0010
0100
0001
1000
0010
0100
0001
0010
0100
1000
0010
1000
0100
0010
0001
,
1000
0010
0100
0001
1000
0001
0100
0010
1000
0100
0010
0001
0010
0100
1000
0100
,
1000
0010
0100
0001
1000
0010
0100
0001
1000
0001
1000
0100
0010
0001
0100
0001
,
1000
0100
1000
0010
0100
0001
0010
0001
1000
0100
0010
0001
0010
0100
1000
0100
,
1000
0001
1000
0001
0010
0100
1000
0010
0100
0001
1000
0010
0100
0010
1000
0001
,
1000
0010
1000
0010
0100
0001
1000
0100
,
1000
0000
0010
0000
0100
0000
0001
0000
1000
0001
1000
0000
0000
0000
0000
0000
,
0001
0100
0010
1000
0001
1000
0010
0100
0001
0010
0100
1000
0100
0010
0001
0010
,
0001
0100
0010
1000
0001
0100
0010
1000
0100
0010
0001
0100
0001
0010
0100
1000
,
0001
0100
0010
1000
0001
1000
0010
0100
0001
0010
0100
1000
0100
0010
0001
0010
,
0001
0100
0010
1000
0001
0100
0010
1000
0001
1000
0001
0010
0100
1000
0010
1000
,
0001
0010
0001
0100
0010
1000
0100
1000
0001
0010
0100
1000
0100
0010
0001
0010
,
0001
1000
0001
1000
0100
0010
0001
0100
0010
1000
0001
0100
0010
0100
0001
1000
,
0001
0100
0001
1000
0100
1000
0100
0010
,
0001
0010
0001
0100
0001
1000
0010
1000
0400
0000
0000
0000
0000
0000
0000
0000
,
1300
1001
1100
0101
,
0110
1001
1100
0011
,
1001
0001
0100
0010
1000
0100
0010
0001
,
1000
0000
0010
0000
0100
0000
0010
0000
1000
0100
0010
0000
0001
0000
1000
0000
,
0001
0100
0010
1000
0001
0010
0100
1000
0100
1000
0001
0100
0010
1000
0010
0100
,
0001
0010
0100
1000
0010
0100
0010
1000
0100
0010
0001
0100
0010
0100
0001
1000
,
0001
0010
0100
1000
0100
0010
0001
0100
,
0010
1000
0010
0100
0010
1000
0001
0010
,
0001
0100
0001
0010
0100
0010
0001
1000
,
0010
0100
0001
1000
0001
0010
0100
1000
,
0010
1000
0100
0010
0100
1000
0001
0100
,
0001
0100
0010
0100
0001
0010
0001
1000
,
0100
0010
0001
0100
0010
1000
0001
0010
,
0100
0000
0000
0000
0000
0000
0000
0000
0000
0010
0000
0000
0000
0000
0000
0000
0000
0000
0001
0000
0000
0000
0000
0000
0000
0000
0000
1000
0000
0000
0000
0000
0000
0000
0000
0000
0100
0000
1000
0000
0100
0000
1000
0000
0100
0000
1000
0000
,
0100
0000
0010
0000
0011
0000
0001
1000
0010
0000
1000
0000
1001
0000
0001
0000
,
0100
0000
0010
0000
1010
0000
1000
0001
0010
0000
0100
0000
1100
0000
1000
0000
,
0001
0000
0100
0000
0110
0000
0010
1000
0001
0000
1000
0000
1010
0000
0010
0000
,
0100
0000
0001
0000
1001
0000
1000
0100
0010
0000
0001
0000
0011
0000
0010
0000
,
0001
0000
1000
0000
1010
0000
0010
0100
0001
0000
1000
0000
1100
0000
0100
0000
,
0010
0000
0001
0000
1001
0000
1000
0010
0100
0000
0001
0000
0011
0000
0010
0000
,
0100
0000
1000
0000
1001
0000
0001
0100
0010
0000
1000
0000
1001
0000
0001
0000
,
0010
0000
0000
0000
0000
0000
0001
0000
0000
0000
0000
0000
1000
0000
0000
0000
0000
0000
0010
0000
0000
0100
0000
0000
0000
0000
0000
0001
0000
0000
0010
0000
0000
0100
0000
0000
1000
0000
0001
0000
1000
0000
0001
0000
0000
0100
0000
0000
,
0010
1000
0010
1000
0001
0010
0001
0010
,
0001
1000
0001
1000
0100
1000
0100
1000
,
0010
1000
0010
1000
0001
0100
0001
0100
,
0001
1000
0001
1000
0100
0010
0100
0010
,
0001
1000
0001
1000
0010
0100
0010
0100
,
0010
1000
0010
1000
0001
0010
0001
0010
,
0100
1000
0100
1000
0001
0100
0001
0100
,
0001
0000
2000
3010
0000
0200
0000
0301
,
1000
0010
1000
0010
0100
0000
0001
0000
1000
0100
0010
0001
1000
0000
0001
0000
,
0100
0010
0100
0001
1000
0000
0001
0000
0010
0100
1000
0100
0010
0000
0100
0000
,
1000
0001
0100
0010
0100
0000
0001
0000
0010
0001
1000
0100
1000
0000
0010
0000
,
0100
0010
1000
0001
1000
0000
0100
0000
0010
0001
0010
0100
1000
0000
0001
0000
,
0100
0010
1000
0001
0010
0000
0100
0000
1000
0001
0100
0001
0100
0000
0010
0000
,
1000
0100
0010
0001
0010
0000
0001
0000
1000
0010
0100
0010
1000
0000
0001
0000
,
0010
0100
1000
0001
1000
0000
0100
0000
0010
0100
1000
0001
0100
0000
0010
0000
,
0100
0001
1000
0001
0010
0000
0100
0000
1000
0001
1000
0001
0100
0000
0010
0000
,
1000
0001
0010
0100
1000
0000
0001
0000
0100
0010
1000
0001
1000
0000
0100
0000
,
0010
0100
1000
0001
1000
0000
0001
0000
0100
0010
1000
0001
0010
0000
0100
0000
,
1000
0001
1000
0001
0100
0000
0010
0000
0100
0001
1000
0100
0010
0000
0001
0000
,
1000
0100
0010
0001
1000
0000
0010
0000
0100
0010
1000
0001
0010
0000
0100
0000
,
1000
0001
0100
0001
0100
0000
0001
0000
0010
0100
1000
0001
1000
0000
0010
0000
,
0100
0010
1000
0001
1000
0000
0100
0000
0010
0100
1000
0100
1000
0000
0001
0000
,
0100
0010
0100
0001
1000
0000
0001
0000
0010
0100
1000
0001
0100
0000
0010
0000
,
1000
0100
0010
0001
1000
0000
0010
0000
0100
0010
1000
0001
1000
0000
0001
0000
,
1000
0100
1000
0000
0100
1000
0001
0000
0100
0000
0010
1000
0000
0001
1000
0000
,
0100
0000
0010
0001
0010
0100
1000
0000
0001
0000
1000
0100
0000
0010
0001
0000
,
1000
0001
0010
0000
0100
0010
0001
0000
1000
0000
0001
0100
0000
0010
0100
0000
,
0001
0000
1000
0100
0010
0100
1000
0000
0001
0000
1000
0010
0000
0100
0001
0000
,
0010
0100
0010
0000
0001
1000
0001
0000
0100
0000
0010
1000
0000
0100
0010
0000
,
0001
0000
1000
0010
1000
0010
0100
0000
0001
0000
1000
0100
0000
1000
0001
0000
,
0100
0010
1000
0000
0001
0010
0100
0000
1000
0000
0001
0100
0000
0010
1000
0000
,
0002
0000
0000
0203
0000
0000
0320
0000
1030
0000
0100
0000
0100
0000
0000
0000
,
0010
0001
1000
0000
0010
0100
0010
0000
1000
0000
0001
0100
0000
0010
1000
0000
,
0100
0000
0010
0001
1000
0001
1000
0000
0010
0000
0100
0001
0000
1000
0100
0000
,
0010
0100
1000
0000
0001
0100
0010
0000
1000
0000
0001
1000
0000
0010
1000
0000
,
0100
0000
0010
0001
0010
0100
1000
0000
0001
0000
0100
0010
0000
1000
0100
0000
,
0010
0001
1000
0000
0010
1000
0001
0000
1000
0000
0100
0010
0000
0001
1000
0000
,
0010
0000
1000
0001
0010
0100
1000
0000
0001
0000
0100
0010
0000
1000
0100
0000
,
1000
0001
1000
0010
0100
0001
1000
0100
1000
0001
0010
0100
1000
0001
1000
0010
,
2000
3000
0000
0000
0000
0000
0000
0000
0000
0000
0000
0000
0000
0000
0000
0000
2200
0000
3300
0000
0000
0000
0000
0000
0000
0000
0000
0000
0000
0000
0000
0000
0220
0000
0000
0000
0330
0000
0000
0000
0000
0000
0000
0000
0000
0000
0000
0000
0022
0000
0000
0000
0000
0000
0000
0000
0033
0000
0000
0000
0000
0000
0000
0000
,
0001
0010
0100
1000
0001
1000
0100
0010
0001
0100
0010
1000
0010
0100
0001
0100
,
0001
0010
0100
1000
0001
0010
0100
1000
0010
0100
0001
0010
0001
0100
0010
1000
,
0001
0010
0100
1000
0001
1000
0100
0010
0001
0100
0010
1000
0010
0100
0001
0100
,
0001
0010
0100
1000
0001
0010
0100
1000
0001
1000
0001
0100
0010
1000
0100
1000
,
0001
0100
0001
0010
0100
1000
0010
1000
0001
0100
0010
1000
0010
0100
0001
0100
,
0001
1000
0001
1000
0010
0100
0001
0010
0100
1000
0001
0010
0100
0010
0001
1000
,
0001
0010
0100
0010
0001
1000
0001
0100
,
0001
0000
0010
0001
1000
0000
0010
0100
0001
1000
0010
0000
0010
0000
0100
0001
,
1000
0100
0010
0001
1000
0001
0010
0100
1000
0010
0100
0001
0100
0010
1000
0010
,
1000
0100
0010
0001
1000
0100
0010
0001
0100
0010
1000
0100
1000
0010
0100
0001
,
1000
0100
0010
0001
1000
0001
0010
0100
1000
0010
0100
0001
0100
0010
1000
0010
,
1000
0100
0010
0001
1000
0100
0010
0001
1000
0001
1000
0010
0100
0001
0010
0001
,
1000
0010
1000
0100
0010
0001
0100
0001
1000
0010
0100
0001
0100
0010
1000
0010
,
1000
0001
1000
0001
0100
0010
1000
0100
0010
0001
1000
0100
0010
0100
1000
0001
,
1000
0001
0010
0100
1000
0010
0100
0010
,
2000
0000
0000
0000
3100
0000
0010
0000
0001
0000
1000
0000
0004
0000
0103
0010
,
1000
0001
0000
1000
0001
0000
0010
0000
0100
0000
0000
0000
1004
0000
0000
0000
,
1003
0010
0100
0001
1000
0010
0100
0001
0010
0100
1000
0010
1000
0100
0010
0001
,
1000
0010
0100
0001
1000
0001
0100
0010
1000
0100
0010
0001
0010
0100
1000
0100
,
1000
0010
0100
0001
1000
0010
0100
0001
1000
0001
1000
0100
0010
0001
0100
0001
,
1000
0100
1000
0010
0100
0001
0010
0001
1000
0100
0010
0001
0010
0100
1000
0100
,
1000
0001
1000
0001
0010
0100
1000
0010
0100
0001
1000
0010
0100
0010
1000
0001
,
1000
0010
0100
0010
0100
0001
0010
0001
,
1000
0000
0010
0000
0100
0000
0010
0000
1000
0001
1000
0000
0000
0000
0000
0000
,
0001
0100
0010
1000
0001
1000
0010
0100
0001
0010
0100
1000
0100
0010
0001
0010
,
0001
0100
0010
1000
0001
0100
0010
1000
0100
0010
0001
0100
0001
0010
0100
1000
,
0001
0100
0010
1000
0001
1000
0010
0100
0001
0010
0100
1000
0100
0010
0001
0010
,
0001
0100
0010
1000
0001
0100
0010
1000
0001
1000
0001
0010
0100
1000
0010
1000
,
0001
0010
0001
0100
0010
1000
0100
1000
0001
0010
0100
1000
0100
0010
0001
0010
,
0001
1000
0001
1000
0100
0010
0001
0100
0010
1000
0001
0100
0010
0100
0001
1000
,
0001
0100
0001
1000
0100
0010
0100
0010
,
0001
0010
0001
0100
0001
1000
0010
1000
0400
0000
0000
0000
0000
0000
0000
0000
,
1300
1001
1100
0101
,
0110
1001
1100
0011
,
1001
0001
0100
0010
1000
0100
0010
0001
,
1000
0000
0010
0000
0100
0000
0010
0000
1000
0100
0010
0000
0001
0000
1000
0000
,
0001
0100
0010
1000
0001
0010
0100
1000
0100
1000
0001
0100
0010
1000
0010
0100
,
0001
0010
0100
1000
0010
0100
0010
1000
0100
0010
0001
0100
0010
0100
0001
1000
,
0001
0000
0000
0000
;
