#TITLE:Operation Evolution;
#SUBTITLE:;
#ARTIST:Dimrain47;
#TITLETRANSLIT:;
#SUBTITLETRANSLIT:;
#ARTISTTRANSLIT:;
#CREDIT:Mandodo;
#BANNER:../Zeppelin_bn.png;
#BACKGROUND:../bg_Zeppelin.png;
#LYRICSPATH:;
#CDTITLE:../cdtitle_ZAiA.png;
#MUSIC:Dimrain47 - Operation Evolution.ogg;
#OFFSET:-0.015;
#SAMPLESTART:170.209;
#SAMPLELENGTH:23.460;
#SELECTABLE:YES;
#DISPLAYBPM:165.000;
#BPMS:0.000=165.000,816.000=100.000,817.000=95.000,818.000=72.700,818.500=58.220,819.000=46.600,819.500=44.120,820.000=41.250;
#STOPS:;
#BGCHANGES:;
// cache tags:
#FIRSTBEAT:16.000;
#LASTBEAT:821.750;
#SONGFILENAME:Songs/Cirque du Zeppelin/Operation Evolution - [Zaia]/Operation Evolution.sm;
#HASMUSIC:1;
#HASBANNER:1;
#MUSICLENGTH:304.020;
// end cache tags

//---------------dance-single - 16/8/4/4/8/7/8/16----------------
#NOTES:
     dance-single:
     16/8/4/4/8/7/8/16:
     Challenge:
     13:
     1.000,1.000,0.174,1.000,1.000,2045.000,53.000,307.000,0.000,5.000:
0000
0000
0000
0000
,
0000
0000
0000
0000
,
0000
0000
0000
0000
,
0000
0000
0000
0000
,
0001
1000
0000
0001
0100
0000
0010
1000
0001
0000
0010
0000
0100
0000
1000
0000
,
0001
0010
0000
0001
1000
0000
0100
1000
0001
0000
0100
0000
0010
0000
0100
0000
,
0001
1000
0000
0001
0010
0000
0100
0010
0001
0000
1000
0000
0010
0000
0100
0000
,
0001
1000
0000
0100
0010
0000
0100
1000
0001
1000
0010
0100
0001
0010
0001
1000
,
0001
0100
0000
0010
1000
0000
0001
0010
0100
1000
0001
1000
0010
0100
0001
1000
,
0100
0010
0000
0100
1000
0000
0001
0100
0010
1000
0100
1000
0001
0100
0001
0010
,
0100
0000
0000
0000
0000
0000
0000
0000
0000
0000
0000
0000
1000
0001
0010
0100
,
1000
0000
0001
0100
0010
0000
1000
0100
0010
0100
1000
0010
0100
0001
1000
0001
,
0020
0000
0230
0000
2300
0000
3002
0000
0103
0010
0100
0001
1000
0001
0010
0001
,
0100
0000
0010
0000
0100
0001
0010
0001
1000
0000
0100
0000
1000
0001
0100
0001
,
1000
0000
0000
0100
0000
0000
1000
0000
0000
0001
0000
0000
0100
0000
0000
0010
0000
0000
1000
0000
0000
0100
0000
0000
0020
0000
0030
0000
0000
0000
0100
0000
0000
1000
0000
0000
0001
0000
0000
1000
0000
0000
0010
0000
0000
0100
0000
0000
,
0001
0000
0010
0100
1000
0000
0010
0100
0001
0000
1000
0010
0100
0001
1000
0001
,
0010
0100
1000
0010
0100
0010
1000
0100
1000
0001
0100
0010
1000
0001
0010
0100
,
0010
0001
0100
0010
1000
0100
1000
0001
0100
0001
0010
0100
1000
0010
1000
0100
,
0010
0001
0100
0010
1000
0001
1000
0100
0010
0001
1000
0001
0100
0001
1000
0100
,
0020
0230
2300
3002
,
1003
0010
0100
0001
1000
0100
1000
0001
0010
0100
1000
0001
0100
0001
1000
0010
,
1000
0001
0010
0100
1000
0001
0100
0001
0010
0100
0010
0001
1000
0010
1000
0001
,
1000
0100
0010
0001
1000
0010
1000
0001
0100
0010
1000
0001
0010
0001
1000
0100
,
1000
0001
0100
0010
1000
0001
0010
0001
0100
0010
0100
0001
1000
0100
1000
0001
,
0100
0010
1000
0001
0010
0001
1000
0100
0010
0001
1000
0010
1000
0001
0100
0001
,
1000
0100
0010
0001
1000
0010
1000
0100
0010
0100
1000
0001
0100
0001
1000
0001
,
0010
0100
1000
0001
0100
0001
1000
0010
0100
0001
1000
0100
1000
0001
0010
0001
,
1000
0010
0100
0001
1000
0001
1000
0010
0100
0001
0010
0001
1000
0010
1000
0100
,
0010
0100
1000
0001
1000
0010
1000
0001
0100
0010
1000
0001
0010
0001
1000
0100
,
1000
0001
0100
0010
1000
0001
0010
0001
0100
0010
0100
0001
1000
0100
1000
0001
,
1000
0010
0100
0001
1000
0100
1000
0001
0010
0100
1000
0001
0100
0001
1000
0010
,
1000
0001
0010
0100
1000
0001
0100
0001
0010
0100
0010
0001
1000
0010
1000
0001
,
0010
0100
1000
0001
0100
0001
1000
0010
0100
0001
1000
0100
1000
0001
0010
0001
,
1000
0010
0100
0001
1000
0100
1000
0010
0100
0010
1000
0001
0010
0001
1000
0001
,
0100
0010
1000
0001
0010
0001
1000
0100
0010
0001
1000
0010
1000
0001
0100
0001
,
1000
0100
0010
0001
1000
0001
1000
0100
0010
0001
0100
0001
1000
0100
1000
0010
,
0100
0000
1002
0000
2003
3200
0320
0230
,
2300
0000
3002
0000
0203
0302
0023
0032
,
2003
3000
1020
0000
2030
3002
0023
0230
,
2300
0002
3000
0203
0320
2030
3200
2300
,
3020
0000
0230
0000
0302
0000
0023
0230
,
2300
0000
0000
0000
0000
0000
0000
0000
3002
0000
0000
0000
0000
0000
0000
0000
0203
0000
0000
0000
0000
0000
0000
0000
0320
0000
0000
0000
0000
0000
0000
0000
0000
0000
0000
0000
0000
0000
0000
0000
2030
0000
0000
0000
0000
0000
0000
0000
3200
0000
0000
0000
0000
0000
0000
0000
0320
0000
0000
0000
0000
0000
0000
0030
,
0021
0000
0000
0000
0000
0000
0000
0000
0032
0000
0000
0000
0000
0000
0000
0000
2003
0000
0000
0000
0000
0000
0000
3000
2010
0000
0000
0000
0000
0000
0000
0000
3020
0000
0000
0000
0000
0000
0000
0000
0230
0000
0000
0000
0000
0000
0000
0000
1302
0000
0000
0000
0000
0000
0000
0000
2003
0000
0000
0000
0000
0000
0000
0000
,
3200
2300
3020
0000
,
0130
0000
0001
1000
0100
0000
1000
0001
0100
0000
0010
1000
0001
0000
1001
1000
,
0010
0000
0100
0010
1000
0000
0001
0010
0200
0000
2300
0000
3020
0000
0130
0001
,
0010
0000
0100
1000
0001
0000
0100
0010
1000
0000
0001
0010
0100
0000
1001
1000
,
0100
0000
0010
0001
1000
0000
0010
0100
0002
0000
2003
0000
3200
0000
0300
0000
,
0010
0001
0010
0001
0010
0001
0010
0001
,
1000
0010
1000
0010
0100
0001
0010
0100
,
1000
0000
0000
0000
0000
0000
0001
0000
0000
0000
0000
0000
0010
0000
0000
0000
0000
0000
0001
0000
0000
0000
0000
0000
0200
0000
0300
0000
0000
0000
0020
0000
0030
0000
0000
0000
2000
0000
0000
3000
0000
0000
0002
0000
0000
0000
0000
0003
,
0020
0000
0230
0000
2300
3002
0203
0000
,
0310
1000
0100
1000
0010
0100
0001
0000
,
1000
0100
1000
0010
0100
0101
0000
1001
,
1000
0100
1000
0010
1000
0001
0010
0000
,
0100
1000
0010
0100
0001
0011
0000
0110
,
0100
1000
0010
1000
0001
0010
0001
0100
,
0010
1000
0001
1000
0200
0000
2300
0000
,
3002
0000
2003
3020
0230
0000
0320
0000
,
2030
3200
0320
0032
,
1013
1000
0100
1000
0010
1000
0001
0000
,
0010
0001
0100
0001
0010
0001
1000
0000
,
0010
0100
0001
0010
0100
1000
0010
0000
,
0100
0001
1000
0001
0010
0001
0200
0000
,
0320
1030
0200
2300
3020
0130
0002
0013
,
0200
1300
0002
0103
0020
0000
2030
0000
,
3002
0003
0020
0230
2300
0000
3002
0000
,
0103
0110
0000
0010
1010
0000
1001
0000
,
0011
0000
0010
0000
0000
0010
0000
0010
,
0000
0000
0000
0000
0010
0000
0000
0000
0000
0000
0010
0100
1000
0000
0001
0000
,
0100
0000
0100
0000
0000
0100
0000
0100
,
0000
0000
0000
0000
0100
0000
0000
0000
0000
0000
0100
0010
1000
0000
0000
0000
,
0001
0000
0001
0000
0000
0001
0000
0001
,
0000
0000
0000
0000
0001
0000
0000
0000
0000
0000
1000
0010
0100
0000
0001
0000
,
1000
0000
1000
0000
0000
1000
0000
1000
,
0000
0000
0000
0000
1000
0000
0001
0010
0100
0000
1000
0010
0100
0000
0001
0000
,
1000
0100
1100
1000
0001
0101
0100
0110
,
0010
0000
1000
0000
1001
0000
0001
0000
0010
0000
0100
1000
0001
0000
0100
0000
,
0101
0001
1001
1000
0100
0110
0010
0011
,
0001
0000
1000
0000
1010
0000
0010
0000
0100
0000
0001
1000
0100
0000
0000
0000
,
0010
0100
1100
1000
0001
0110
1000
0110
,
0001
0000
0010
0000
0011
0000
0001
0000
1000
0000
0010
0100
0001
0000
1000
0000
,
0100
1000
1001
0100
0010
0110
1000
1001
,
0001
0000
0010
0000
0100
0000
1000
0010
0100
0000
0001
0010
0100
0000
1000
0000
,
0020
0000
0000
0230
,
0302
0023
0230
2300
,
3002
0000
0000
2003
,
3020
0000
0000
0230
,
1301
0001
0101
0100
0010
1000
1100
0100
,
1000
0010
0110
0100
0001
1000
1001
0001
,
0010
0100
0110
0010
0001
0100
0101
0001
,
1000
0001
1001
1000
0010
1000
0101
0001
,
0010
0000
0000
0200
0000
0000
0000
0000
0000
0000
0000
0000
0000
0000
0000
0000
,
1300
0001
0010
0001
0100
0010
1000
0001
0010
0001
0100
0001
1000
0010
0100
0001
,
1000
0010
1000
0100
1000
0001
0100
0001
1000
0100
1000
0010
1000
0001
0100
0010
,
1000
0001
0100
0001
0010
0100
1000
0001
0100
0001
0010
0001
1000
0100
0010
0001
,
1000
0100
1000
0010
1000
0001
0010
0001
1000
0010
1000
0100
1000
0001
0010
0100
,
1000
0010
0100
0001
1000
0010
1000
0100
1000
0001
0010
0001
0100
0010
1000
0010
,
0100
0001
0010
0100
0010
0001
1000
0010
0100
0001
0010
0001
0100
0010
1000
0100
,
0010
0100
1000
0001
1000
0010
0100
0001
0010
0001
1000
0001
0100
0010
1000
0100
,
1000
0001
1000
0010
0100
0001
1000
0001
0010
0100
0010
0001
1000
0010
0100
0001
,
2000
0000
3010
0000
0100
0001
0101
0000
,
0100
0010
1000
0001
0020
0000
1031
0000
,
2000
0000
3200
0010
0000
0010
0000
0010
,
0302
0000
0000
0000
0000
0000
0000
0000
2003
0000
0000
0000
3020
0000
0000
0000
0230
0000
0000
0300
0001
0000
0100
0000
0001
0000
0000
0000
0000
0000
0000
0000
,
1000
0100
0010
0001
0010
0100
1000
0010
1000
0100
0010
0001
0010
0100
1000
0010
,
1000
0001
0100
0010
1000
0010
0100
0001
0010
0001
0100
0010
1000
0010
0100
0001
,
0010
0100
1000
0100
0010
0001
0100
0001
1000
0010
0100
0001
0100
0010
1000
0100
,
1000
0001
0010
0100
1000
0100
0010
0001
1000
0001
0100
0010
1000
0010
0100
0001
,
0010
0000
0000
0220
0000
0330
1111
0000
,
1000
1000
0001
0000
0100
0100
0010
0000
,
2000
0000
3002
0000
0023
0000
0130
0200
,
1300
0001
0010
0001
1000
0000
0100
0000
0010
0000
0010
0000
0001
0000
0000
0000
,
0200
0302
2003
3200
,
0310
0010
0200
0000
1300
1000
0002
0000
,
0203
0000
0320
0000
2030
0000
3002
0023
,
0130
1000
0001
1000
0002
0000
0203
0000
0320
0000
0030
0000
1001
0000
0000
0000
,
1000
0010
0100
0001
1000
0100
0010
0001
0010
0100
1000
0001
0010
0001
0100
0001
,
1000
0010
1000
0100
0010
0100
1000
0010
0100
0001
0010
0001
1000
0001
0100
0010
,
1000
0001
0010
0001
1000
0010
0100
0010
1000
0001
0100
0001
0010
0100
1000
0001
,
1000
0010
1000
0001
0100
0010
0100
0001
0010
0100
1000
0010
0100
0010
0100
0001
,
2000
0000
0000
3000
0100
1000
0010
1000
0002
0000
0023
0000
0230
0000
0000
0000
,
1300
0001
0010
0001
0100
0010
1000
0001
0200
0000
0302
0000
0023
0000
0000
0000
,
0130
2000
3002
0203
0310
0020
2030
0000
,
3001
0000
0100
0001
0100
0000
0010
0000
1000
0000
2000
0000
3200
0000
0000
0300
,
0010
0100
0010
0100
1000
0001
1000
0001
0200
0000
0320
0000
2030
0000
0000
0000
,
3001
0100
0001
0100
0010
0100
0010
1000
0002
0000
0023
0000
0230
0000
0000
0000
,
1300
0002
0203
0302
0013
0020
0230
0000
,
1300
0000
0000
0000
0000
0000
0010
0000
0000
0100
0000
0000
0001
0000
0000
0000
0000
0000
1000
0000
0000
0000
0000
0000
0100
0000
0000
0000
0000
0000
0010
0000
0000
0000
0000
0000
0001
0000
0010
0000
0100
0000
1000
0000
0001
0000
1000
0000
,
0010
0000
0100
0000
0001
1000
0001
1000
0020
0000
0230
0000
0302
0000
0000
0000
,
1003
0100
1000
0010
1000
0001
0100
0001
0020
0000
0230
0000
2300
0000
0000
0000
,
3010
0200
0302
2003
3100
0200
0320
0000
,
0130
1000
0001
0100
0001
0000
0010
0000
0001
0000
1000
0000
0001
0000
0100
0000
,
0020
0030
2000
3000
0020
0030
0200
0300
0002
0003
0020
0030
0200
0300
2000
3000
,
0002
0003
0200
0300
0020
0030
0200
0300
0002
0003
0020
0030
0200
0300
2000
3000
,
0002
0003
0200
0300
0002
0003
2000
3000
0200
0300
2000
3000
0020
0030
0200
0300
,
0002
0003
0020
0030
0200
0300
2000
3000
0020
0030
0200
0300
0002
0003
2000
3000
,
2002
3003
0000
0000
0002
0000
0003
0000
0020
0000
0030
0000
0200
0000
0300
0000
2000
0000
3000
0000
2000
0000
3000
0000
0002
0000
0003
0000
0000
0000
0000
0000
,
0000
0000
0000
0000
0202
0303
0000
0000
0200
0000
0300
0000
0002
0000
0003
0000
2002
3003
0000
0000
2002
3003
0000
0000
2000
0000
3000
0000
0200
0000
0300
0000
,
0020
0030
0200
0300
2000
3000
0002
0003
0020
0030
0002
0003
0200
0300
0020
0030
,
2000
3000
0200
0300
2000
3000
0020
0030
0200
0300
0002
0003
0020
0030
0200
0300
,
2000
0000
0000
0000
,
0000
0000
3000
0000
,
0001
0000
0000
0000
0000
0000
1000
0000
0000
0000
0000
0000
0010
0000
0100
0000
0001
0000
1000
0100
1000
0001
0100
0001
,
2000
3000
2000
3000
2000
3000
2000
3000
,
2000
3020
0230
0300
0020
2030
3200
2300
,
3020
0130
0002
0003
0002
0003
0002
1003
,
0001
1000
0010
1000
0001
0010
0100
0000
2000
0000
3002
0000
0023
0000
0000
0000
,
0032
0003
0002
0003
0002
0003
0002
0003
,
0002
0023
0230
0300
0020
0032
0203
0302
,
0023
0130
2000
3000
2000
3000
2000
3100
,
0010
0001
1000
0001
0100
0000
0001
0000
2000
0000
3020
0000
0230
0000
0000
0000
,
0301
1000
0010
0100
0001
1000
0100
0010
0001
1000
0010
1000
0001
0100
0010
1000
,
0001
0010
0001
1000
0001
0010
0100
1000
0001
0100
0001
1000
0010
1000
0001
1000
,
0100
0010
0100
1000
0001
0100
0010
1000
0001
0010
0001
1000
0100
1000
0001
0100
,
0001
0010
0001
1000
0100
1000
0001
0100
0010
0100
0001
1000
0100
0010
0100
1000
,
0010
1000
0001
0010
0001
1000
0010
0100
0001
1000
0100
1000
0001
0010
0100
1000
,
0010
1000
0001
0100
0001
0010
0001
1000
0010
0100
0010
1000
0001
0010
0001
1000
,
0010
0100
0001
1000
0001
0010
0100
1000
0001
1000
0010
0100
0001
1000
0100
0010
,
0001
0100
0001
1000
0010
1000
0001
0100
0001
0010
0100
1000
0001
1000
0010
1000
,
0002
0000
0000
0000
2003
0000
0000
3020
,
0000
0000
0130
0001
1000
0100
1000
0001
0100
0010
1000
0001
1000
0100
0010
0001
,
0000
1000
0001
0100
0010
1000
0100
1000
0010
1000
0001
0100
0001
0010
0100
1000
,
0001
0000
0000
1000
0000
0000
0010
0000
0000
0100
0000
0000
0010
0000
0000
1000
0000
0000
0001
0000
0000
0010
0000
0000
0100
0000
0000
1000
0000
0000
0001
0000
0100
0000
0001
0000
1000
0000
0000
0000
0000
0000
0000
0000
0000
0000
0000
0000
,
0010
1000
0010
0100
0001
0100
0001
1000
0100
0010
0001
1000
0010
0100
0010
1000
,
0002
0000
0023
0000
0230
0000
2300
0000
3001
0100
0010
1000
0001
0010
0001
1000
,
0010
0100
0001
0010
0100
0010
0100
1000
0001
1000
0010
0100
0001
1000
0100
1000
,
0001
0010
0100
1000
0001
0100
0001
0010
0001
1000
0010
1000
0100
1000
0001
0100
0001
1000
0020
0000
0000
0000
0000
0000
,
0130
0001
1000
0001
0010
0100
0010
0001
1000
0010
0100
0001
1000
0010
1000
0100
,
0010
0100
1000
0010
0100
0010
1000
0001
0010
0100
1000
0001
0100
0010
0100
0001
,
0010
0100
1000
0001
0100
0010
0100
0001
1000
0001
1000
0100
0010
0100
1000
0010
,
1000
0001
0010
0001
1000
0100
0010
0100
1000
0001
1000
0100
0010
0001
1000
0010
,
0100
0001
0010
0001
1000
0100
1000
0010
0100
0010
1000
0100
1000
0001
0100
0001
,
1000
0100
0010
0001
1000
0001
1000
0010
0100
0001
0010
0001
1000
0100
1000
0001
,
0100
0010
1000
0001
0010
0100
1000
0100
0010
0001
0100
0010
1000
0000
0000
0000
,
0001
0100
0010
1000
0010
0100
0001
0010
0100
1000
0001
1000
0010
0000
0000
0000
,
0100
0000
0010
1000
0001
0000
0100
0001
1000
0000
0001
0010
0100
0000
0000
0000
,
0010
0000
0000
0001
0000
0000
0100
0000
0000
0001
0000
0000
1000
0000
0000
0000
0000
0000
0010
0000
0000
0100
0000
0000
0001
0000
0000
1000
0000
0000
0100
0000
0000
1000
0000
0000
0020
0000
0030
0000
0000
0000
0000
0000
0000
0000
0000
0000
,
0100
0000
0001
0100
0010
0000
1000
0100
0010
0100
1000
0001
0100
0000
0010
0000
,
0100
0001
0100
0001
1000
0000
0100
0000
0010
0100
1000
0001
0100
0000
0010
0000
,
1000
0000
0001
0010
0100
0000
1000
0010
0100
0001
1000
0001
0010
0100
2000
0000
,
3010
0000
0100
0000
0002
0000
0000
0003
0010
0000
0001
0000
0200
0000
0000
0000
0310
0000
1000
0000
0200
0000
0000
0300
0010
0000
0100
0000
2000
0000
0000
0000
,
3002
0003
0000
0000
0000
0000
0000
0000
0200
0300
0000
0000
0002
0003
0000
0000
0000
0000
0000
0000
2000
3000
0000
0000
0000
0000
0000
0000
0002
0003
0000
0000
2000
3000
0000
0000
0000
0000
0000
0000
0200
0300
0000
0000
2000
3000
0000
0000
0000
0000
0000
0000
0001
0000
0000
0000
0100
0000
0000
0000
0010
0000
0000
0000
,
1000
0000
0000
0000
0000
0000
1000
0000
0000
0000
0000
0000
0001
0000
0000
0010
0000
0000
0100
0000
0000
1000
0000
0000
0002
0000
0003
0000
0000
0000
0100
0000
0000
0000
0000
0000
0001
0000
0000
0010
0000
0000
0001
0000
0000
0100
0000
0000
,
0020
0000
1030
0000
0001
0000
0010
0100
,
1000
0100
0010
0001
1000
0100
1000
0010
,
0100
0001
1000
0001
0010
0001
0100
0010
,
1000
0010
1000
0010
0100
0000
0001
0000
0010
0000
0001
0000
1000
0000
0010
0000
,
0110
0000
0101
0000
0110
0000
0010
1000
,
0001
0010
0100
1000
0010
1000
0001
0100
,
0002
0010
1003
0002
0010
1003
0001
0010
,
0100
0000
0000
1000
0000
0000
0001
0000
0000
1000
0000
0000
0010
0000
0000
0100
0000
0000
0010
0000
0000
1000
0000
0000
0001
0000
0000
1000
0000
0000
0100
0000
0000
1000
0000
0000
0001
0000
0010
0000
0001
0000
1000
0000
0001
0000
0010
0000
,
0100
0000
1000
0000
0001
0000
0100
0010
,
1000
0001
0100
0001
0010
0000
0100
1000
,
0001
0100
0001
0010
0001
1000
0100
1000
,
0010
0100
0001
1000
0001
0000
0010
0000
0200
0300
2000
3000
0020
0030
0200
0300
,
0002
0003
0000
0000
1000
0000
0000
0000
0100
0000
0000
0000
1000
0000
0001
0000
,
0010
0001
0100
0010
1000
0001
1000
0100
,
0010
0100
1000
0010
0100
0001
1000
0100
,
0010
0001
0100
0010
1000
0100
0010
0001
,
1000
0001
0100
0010
1000
0001
0010
0100
1000
0010
1000
0001
0100
0001
0010
0100
,
1000
0001
1000
0010
0100
0010
1000
0001
0010
0100
1000
0001
1000
0010
0100
0010
,
1000
0100
1000
0001
0010
0001
0100
0010
1000
0010
0100
0001
0010
0100
1000
0010
,
1000
0001
1000
0100
1000
0001
0010
0001
0100
0001
1000
0100
1000
0001
0100
0001
0010
0100
1000
0001
1000
0001
0100
0010
,
2000
0000
0000
0000
,
0000
0000
0000
0000
0000
0000
0000
3000
0000
0000
0000
0000
0000
0000
0000
0000
;

//---------------dance-single - 8-8/8/4/7/4----------------
#NOTES:
     dance-single:
     8-8/8/4/7/4:
     Hard:
     12:
     1.000,1.000,0.174,1.000,0.914,1901.000,53.000,322.000,0.000,6.000:
0000
0000
0000
0000
,
0000
0000
0000
0000
,
0000
0000
0000
0000
,
0000
0000
0000
0000
,
0001
1000
0000
0001
0100
0000
0010
1000
0001
0000
0010
0000
0100
0000
1000
0000
,
0001
0010
0000
0001
1000
0000
0100
1000
0001
0000
0100
0000
0010
0000
0100
0000
,
0001
1000
0000
0001
0010
0000
0100
0010
0001
0000
1000
0000
0010
0000
0100
0000
,
0001
1000
0000
0100
0010
0000
0100
1000
0001
1000
0010
0100
0001
0010
0001
1000
,
0001
0100
0000
0010
1000
0000
0001
0010
0100
1000
0001
1000
0010
0100
0001
1000
,
0100
0010
0000
0100
1000
0000
0001
0100
0010
1000
0100
1000
0001
0100
0001
0010
,
0100
0000
0000
0000
0000
0000
0000
0000
0000
0000
0000
0000
1000
0001
0010
0100
,
1000
0000
0001
0100
0010
0000
1000
0100
0010
0100
1000
0010
0100
0001
1000
0001
,
0020
0000
0230
0000
2300
0000
3002
0000
0103
0010
0100
0001
1000
0001
0010
0001
,
0100
0000
0010
0000
0100
0001
0010
0001
1000
0000
0100
0000
1000
0001
0100
0001
,
1000
0000
0000
0100
0000
0000
1000
0000
0000
0001
0000
0000
0100
0000
0000
0010
0000
0000
1000
0000
0000
0100
0000
0000
0020
0000
0030
0000
0000
0000
0100
0000
0000
1000
0000
0000
0001
0000
0000
1000
0000
0000
0010
0000
0000
0100
0000
0000
,
0001
0000
0010
0100
1000
0000
0010
0100
0001
0000
1000
0010
0100
0001
1000
0001
,
0010
0100
1000
0010
0100
0010
1000
0100
1000
0001
0100
0010
1000
0001
0010
0100
,
0010
0001
0100
0010
1000
0100
1000
0001
0100
0001
0010
0100
1000
0010
1000
0100
,
0010
0001
0100
0010
1000
0001
1000
0100
0010
0001
1000
0001
0100
0001
1000
0100
,
0020
0230
2300
3002
,
1003
0010
0100
0001
1000
0100
1000
0001
0010
0100
1000
0001
0100
0001
1000
0010
,
1000
0001
0010
0100
1000
0001
0100
0001
0010
0100
0010
0001
1000
0010
1000
0001
,
1000
0100
0010
0001
1000
0010
1000
0001
0100
0010
1000
0001
0010
0001
1000
0100
,
1000
0001
0100
0010
1000
0001
0010
0001
0100
0010
0100
0001
1000
0100
1000
0001
,
0100
0010
1000
0001
0010
0001
1000
0100
0010
0001
1000
0010
1000
0001
0100
0001
,
1000
0100
0010
0001
1000
0010
1000
0100
0010
0100
1000
0001
0100
0001
1000
0001
,
0010
0100
1000
0001
0100
0001
1000
0010
0100
0001
1000
0100
1000
0001
0010
0001
,
1000
0010
0100
0001
1000
0001
1000
0010
0100
0000
0002
0003
1000
0000
0002
0003
,
1000
0100
1000
0001
1000
0010
1000
0001
0100
0010
1000
0001
0010
0001
1000
0100
,
1000
0001
0100
0010
1000
0001
0010
0001
0100
0010
0100
0001
1000
0100
1000
0001
,
1000
0010
0100
0001
1000
0100
1000
0001
0010
0100
1000
0001
0100
0001
1000
0010
,
1000
0001
0010
0100
1000
0001
0100
0001
0010
0100
0010
0001
1000
0010
1000
0001
,
0010
0100
1000
0001
0100
0001
1000
0010
0100
0001
1000
0100
1000
0001
0010
0001
,
1000
0010
0100
0001
1000
0100
1000
0010
0100
0010
1000
0001
0010
0001
1000
0001
,
0100
0010
1000
0001
0010
0001
1000
0100
0010
0001
1000
0010
1000
0001
0100
0001
,
1000
0100
0010
0001
1000
0001
1000
0100
0010
0001
0100
0001
1000
0100
1000
0010
,
0100
0000
1002
0000
2003
3200
0320
0230
,
2300
0000
3002
0000
0203
0302
0023
0032
,
2003
3000
1020
0000
2030
3002
0023
0230
,
2300
0002
3000
0203
0320
2030
3200
2300
,
3020
0000
0230
0000
0302
0000
0023
0230
,
2300
0000
0000
0000
0000
0000
0000
0000
3002
0000
0000
0000
0000
0000
0000
0000
0203
0000
0000
0000
0000
0000
0000
0000
0320
0000
0000
0000
0000
0000
0000
0000
0000
0000
0000
0000
0000
0000
0000
0000
2030
0000
0000
0000
0000
0000
0000
0000
3200
0000
0000
0000
0000
0000
0000
0000
0320
0000
0000
0000
0000
0000
0000
0030
,
0021
0000
0000
0000
0000
0000
0000
0000
0032
0000
0000
0000
0000
0000
0000
0000
2003
0000
0000
0000
0000
0000
0000
3000
2010
0000
0000
0000
0000
0000
0000
0000
3020
0000
0000
0000
0000
0000
0000
0000
0230
0000
0000
0000
0000
0000
0000
0000
1302
0000
0000
0000
0000
0000
0000
0000
2003
0000
0000
0000
0000
0000
0000
0000
,
3200
2300
3020
0000
,
0130
0000
0001
1000
0100
0000
1000
0001
0100
0000
0010
1000
0001
0000
1000
0001
,
0010
0000
0100
0010
0001
0000
1000
0010
0200
0000
0302
0000
0023
0000
0130
1000
,
0010
0000
0100
0001
1000
0000
0100
0010
0001
0000
1000
0010
0100
0000
0001
1000
,
0100
0000
0010
0001
1000
0000
0010
0100
0002
0000
2003
0000
3200
0000
0300
0000
,
0010
0001
0010
0001
0010
0001
0010
0001
,
1000
0010
1000
0010
0100
0001
0010
0100
,
1000
0000
0000
0000
0000
0000
0001
0000
0000
0000
0000
0000
0010
0000
0000
0000
0000
0000
0001
0000
0000
0000
0000
0000
0200
0000
0300
0000
0000
0000
0020
0000
0030
0000
0000
0000
2000
0000
0000
3000
0000
0000
0002
0000
0000
0000
0000
0003
,
0020
0000
0230
0000
2300
3002
0203
0000
,
0310
1000
0100
1000
0010
0100
0001
0000
,
1000
0100
1000
0010
0100
0101
0000
1001
,
1000
0100
1000
0010
1000
0001
0010
0000
,
0100
1000
0010
0100
0001
0011
0000
0110
,
0100
1000
0010
1000
0001
0010
0001
0100
,
0010
1000
0001
1000
0200
0000
2300
0000
,
3002
0000
2003
3020
0230
0000
0320
0000
,
2030
3200
0320
0032
,
1013
1000
0100
1000
0010
1000
0001
0000
,
0010
0001
0100
0001
0010
0001
1000
0000
,
0010
0100
0001
0010
0100
1000
0010
0000
,
0100
0001
1000
0001
0010
0001
0200
0000
,
0320
1030
0200
2300
3020
0130
0002
0013
,
0200
1300
0002
0103
0020
0000
2030
0000
,
3001
0000
0010
0100
2000
0000
3002
0000
,
0103
0110
0000
0010
1010
0000
1001
0000
,
0011
0000
0010
0000
0000
0010
0000
0010
,
0000
0000
0000
0000
0010
0000
0000
0000
0000
0000
0010
0100
1000
0000
0001
0000
,
0100
0000
0100
0000
0000
0100
0000
0100
,
0000
0000
0000
0000
0100
0000
0000
0000
0000
0000
0100
0010
1000
0000
0000
0000
,
0001
0000
0001
0000
0000
0001
0000
0001
,
0000
0000
0000
0000
0001
0000
0000
0000
0000
0000
0001
0010
0100
0000
1000
0000
,
0001
0000
1000
0000
0000
1000
0000
1000
,
0000
0000
0000
0000
1000
0000
0001
0010
0100
0000
1000
0010
0100
0000
0001
0000
,
1000
0100
1100
1000
0001
0101
0100
0110
,
0010
0000
1000
0000
1001
0000
0001
0000
0010
0000
0100
1000
0001
0000
0100
0000
,
0101
0001
1001
1000
0100
0110
0010
0011
,
0001
0000
1000
0000
1010
0000
0010
0000
0100
0000
0001
1000
0100
0000
0000
0000
,
0010
0100
1100
1000
0001
0110
1000
0110
,
0001
0000
0010
0000
0011
0000
0001
0000
1000
0000
0010
0100
0001
0000
1000
0000
,
0100
1000
1001
0100
0010
0110
1000
1001
,
0001
0000
0010
0000
0100
0000
1000
0010
0100
0000
0001
0010
0100
0000
1000
0000
,
0020
0000
0000
0230
,
0302
0023
0230
2300
,
3002
0000
0000
2003
,
3020
0000
0000
0230
,
1301
0001
0101
0100
0010
1000
1100
0100
,
1000
0010
0110
0100
0001
1000
1001
0001
,
0010
0100
0110
0010
0001
0100
0101
0001
,
1000
0001
1001
1000
0010
1000
0101
0001
,
0010
0000
0000
0200
0000
0000
0000
0000
0000
0000
0000
0000
0000
0000
0000
0000
,
1300
0001
0010
0001
0100
0010
1000
0001
0010
0001
0100
0001
1000
0010
0100
0001
,
1000
0010
1000
0100
1000
0001
0100
0001
1000
0100
1000
0010
1000
0001
0100
0010
,
1000
0001
0100
0001
0010
0100
1000
0001
0100
0001
0010
0001
1000
0100
0010
0001
,
1000
0100
1000
0010
1000
0001
0010
0001
1000
0010
1000
0100
1000
0001
0010
0100
,
1000
0010
0100
0001
1000
0010
1000
0100
1000
0001
0010
0001
0100
0010
1000
0010
,
0100
0001
0010
0100
0010
0001
1000
0010
0100
0001
0010
0001
0100
0010
1000
0100
,
0010
0100
1000
0001
1000
0010
0100
0001
0010
0001
1000
0001
0100
0010
1000
0100
,
1000
0001
1000
0010
0100
0001
1000
0001
0010
0100
0010
0001
1000
0010
0100
0001
,
2000
0000
3010
0000
0100
0001
0101
0000
,
0100
0010
1000
0001
0020
0000
1031
0000
,
2000
0000
3200
0010
0000
0010
0000
0010
,
0302
0000
0000
0000
0000
0000
0000
0000
2003
0000
0000
0000
3020
0000
0000
0000
0230
0000
0000
0300
0001
0000
0100
0000
0001
0000
0000
0000
0000
0000
0000
0000
,
1000
0001
1000
0001
,
0100
0100
0100
0100
0100
0000
0010
0000
,
1000
0001
0010
0000
0100
0000
1000
0000
,
0010
0010
0010
0010
0010
0000
1001
0000
,
1111
0000
0000
0220
0000
0330
1111
0000
,
1000
1000
0001
0000
0100
0100
0010
0000
,
2000
0000
3002
0000
0023
0000
0130
0200
,
1300
0001
0010
0001
1000
0000
0100
0000
0010
0000
0010
0000
0001
0000
0000
0000
,
0200
0302
2003
3200
,
0310
0010
0200
0000
1300
1000
0002
0000
,
0203
0000
0320
0000
2030
0000
3002
0013
,
0100
1000
0001
1000
0001
0000
0100
0000
0010
0000
0000
0000
1001
0000
0000
0000
,
1000
0010
0100
0001
1000
0100
0010
0001
0010
0100
1000
0001
0010
0001
0100
0001
,
1000
0010
1000
0100
0010
0100
1000
0010
0100
0001
0010
0001
1000
0001
0100
0010
,
1000
0001
0010
0001
1000
0010
0100
0010
1000
0001
0100
0001
0010
0100
1000
0001
,
1000
0010
1000
0001
0100
0010
0100
0001
0010
0100
1000
0010
0100
0010
0100
0001
,
2000
0000
0000
3000
0100
1000
0010
1000
0001
0000
0010
0000
0200
0000
0000
0000
,
1300
0001
0010
0001
0100
0010
1000
0001
0100
0000
0001
0000
0020
0000
0000
0000
,
0130
1000
0001
0100
0010
0010
1000
0000
,
0001
0000
0100
0001
0100
0000
0010
0000
1000
0000
1000
0000
0200
0000
0000
0300
,
0010
0100
0010
0100
1000
0001
1000
0001
0200
0000
0320
0000
2030
0000
0000
0000
,
3001
0100
0001
0100
0010
0100
0010
1000
0002
0000
0023
0000
0230
0000
0000
0000
,
1300
0002
0203
0302
0013
0020
0230
0000
,
1300
0000
0010
0100
0001
0000
1000
0000
0100
0000
0010
0000
0001
1000
0100
1000
,
0010
0000
0100
0000
0001
1000
0001
1000
0010
0000
0100
0000
0001
0000
0000
0000
,
1000
0100
1000
0010
1000
0001
0100
0001
0010
0000
0100
0000
1000
0000
0000
0000
,
0010
0200
0302
2003
3100
0200
0320
0000
,
0130
1000
0001
0100
0001
0000
0010
0000
0001
0000
1000
0000
0001
0000
0100
0000
,
0020
0030
2000
3000
0020
0030
0200
0300
0002
0003
0020
0030
0200
0300
2000
3000
,
0002
0003
0200
0300
0020
0030
0200
0300
0002
0003
0020
0030
0200
0300
2000
3000
,
0002
0003
0200
0300
0002
0003
2000
3000
0200
0300
2000
3000
0020
0030
0200
0300
,
0002
0003
0020
0030
0200
0300
2000
3000
0020
0030
0200
0300
0002
0003
2000
3000
,
2002
3003
0000
0000
0002
0000
0003
0000
0020
0000
0030
0000
0200
0000
0300
0000
2000
0000
3000
0000
2000
0000
3000
0000
0002
0000
0003
0000
0000
0000
0000
0000
,
0000
0000
0000
0000
0202
0303
0000
0000
0200
0000
0300
0000
0002
0000
0003
0000
2002
3003
0000
0000
2002
3003
0000
0000
2000
0000
3000
0000
0200
0000
0300
0000
,
0020
0030
0200
0300
2000
3000
0002
0003
0020
0030
0002
0003
0200
0300
0020
0030
,
2000
3000
0200
0300
2000
3000
0020
0030
0200
0300
0002
0003
0020
0030
0200
0300
,
2000
0000
0000
0000
,
0000
0000
3000
0000
,
0001
0000
0000
0000
0000
0000
0000
0000
0000
0000
0000
0000
1000
0000
0000
0000
0000
0000
0000
0000
0000
0000
0000
0000
0010
0000
0000
0000
0100
0000
0000
0000
0001
0000
0000
0000
1000
0000
0000
0001
0000
0000
0100
0000
0000
0001
0000
0000
,
2000
3000
2000
3000
2000
3000
2000
3000
,
2000
3020
0230
0300
0020
2030
3200
2300
,
3020
0130
0002
0003
0002
0003
0002
1003
,
0001
1000
0010
1000
0001
0010
0100
0000
2000
0000
3002
0000
0023
0000
0000
0000
,
0032
0003
0002
0003
0002
0003
0002
0003
,
0002
0023
0230
0300
0020
0032
0203
0302
,
0023
0130
2000
3000
2000
3000
2000
3100
,
0010
0001
1000
0001
0100
0000
0001
0000
2000
0000
3020
0000
0230
0000
0000
0000
,
0302
0003
0002
0003
0002
0003
0002
0003
,
0002
0203
0320
0030
0200
0302
0023
0032
,
0203
0310
2000
3000
2000
3000
2000
3001
,
1000
0001
0100
0001
1000
0000
0010
0000
2000
0000
3002
0000
0203
0000
0000
0000
,
0302
0003
0002
0003
0002
0003
0002
0003
,
0002
0203
0320
0030
0200
0302
0023
0032
,
0203
0310
2000
3000
2000
3000
2000
3010
,
0100
0001
1000
0001
0010
0000
0001
0000
2000
0000
3200
0000
0320
0000
0000
0000
,
0032
0000
0000
0000
2003
0000
0000
3020
,
0000
0000
0130
0001
1000
0100
1000
0001
0100
0010
1000
0001
1000
0100
0010
0001
,
0000
1000
0001
0100
0010
1000
0100
1000
0010
1000
0001
0100
0001
0010
0100
1000
,
0001
1000
0010
0100
0010
1000
0001
0010
0100
1000
0001
1000
0010
0000
0000
0000
,
0100
0001
0100
0010
1000
0010
1000
0001
0010
0100
1000
0001
0100
0010
0100
0001
,
2000
0000
3200
0000
0320
0000
0032
0000
1003
0010
0100
0001
1000
0100
1000
0001
,
0100
0010
1000
0100
0010
0100
0010
0001
1000
0001
0100
0010
1000
0001
0010
0001
,
1000
0100
1000
0010
1000
0001
0100
0001
0010
0001
1000
0010
0200
0000
0000
0000
,
0310
1000
0001
1000
0100
0010
0100
1000
0001
0100
0010
1000
0001
0100
0001
0010
,
0100
0010
0001
0100
0010
0100
0001
1000
0100
0010
0001
1000
0010
0100
0010
1000
,
0100
0010
0001
1000
0010
0100
0010
1000
0001
1000
0001
0010
0100
0010
0001
0100
,
0001
1000
0100
1000
0001
0010
0100
0010
0001
1000
0001
0010
0100
1000
0001
0100
,
0010
1000
0100
1000
0001
0010
0001
0100
0010
0100
0001
0010
0001
1000
0010
1000
,
0001
0010
0100
1000
0001
1000
0001
0100
0010
1000
0100
1000
0001
0010
0001
1000
,
0010
0100
0001
1000
0100
0010
0001
0010
0100
1000
0010
0100
0001
0000
0000
0000
,
1000
0010
0100
0001
0100
0010
1000
0100
0010
0001
1000
0001
0100
0000
0000
0000
,
0010
0000
0100
0001
1000
0000
0010
1000
0001
0000
1000
0100
0010
0000
0000
0000
,
0100
0000
0000
1000
0000
0000
0010
0000
0000
1000
0000
0000
0001
0000
0000
0000
0000
0000
0100
0000
0000
0010
0000
0000
1000
0000
0000
0001
0000
0000
0010
0000
0000
0001
0000
0000
0200
0000
0300
0000
0000
0000
0000
0000
0000
0000
0000
0000
,
0010
0000
1000
0010
0100
0000
0001
0010
0100
0010
0001
1000
0010
0000
0100
0000
,
0010
1000
0010
1000
0001
0000
0010
0000
0100
0010
0001
1000
0010
0000
0100
0000
,
0001
0000
1000
0100
0010
0000
0001
0100
0010
1000
0001
1000
0100
0010
0002
0000
,
0103
0000
0010
0000
2000
0000
0000
3000
0100
0000
1000
0000
0020
0000
0000
0000
0130
0000
0001
0000
0020
0000
0000
0030
0100
0000
0010
0000
0002
0000
0000
0000
,
2003
3000
0000
0000
0000
0000
0000
0000
0020
0030
0000
0000
2000
3000
0000
0000
0000
0000
0000
0000
0002
0003
0000
0000
0000
0000
0000
0000
2000
3000
0000
0000
0002
0003
0000
0000
0000
0000
0000
0000
0020
0030
0000
0000
0002
0003
0000
0000
0000
0000
0000
0000
1000
0000
0000
0000
0010
0000
0000
0000
0100
0000
0000
0000
,
0001
0000
0000
0000
0000
0000
0001
0000
0000
0000
0000
0000
1000
0000
0000
0100
0000
0000
0010
0000
0000
0001
0000
0000
2000
0000
3000
0000
0000
0000
0010
0000
0000
0000
0000
0000
1000
0000
0000
0100
0000
0000
1000
0000
0000
0010
0000
0000
,
0200
0000
0301
0000
1000
0000
0100
0010
,
0001
0010
0100
1000
0001
0010
0001
0100
,
0010
1000
0001
1000
0100
1000
0010
0100
,
0001
0100
0001
0100
0010
0000
1000
0000
0100
0000
1000
0000
0001
0000
0100
0000
,
0110
0000
1010
0000
0110
0000
0100
0001
,
1000
0100
0010
0001
0100
0001
1000
0010
,
2000
0100
3001
2000
0100
3001
1000
0100
,
0010
0001
1000
0001
0100
0010
0100
0001
1000
0001
0010
0001
1000
0100
1000
0010
,
0100
0000
0001
0000
1000
0000
0010
0100
,
0001
1000
0010
1000
0100
0000
0010
0001
,
1000
0010
1000
0100
1000
0001
0010
0001
,
0100
0010
1000
0001
1000
0000
0100
0000
0020
0030
0002
0003
0200
0300
0020
0030
,
2000
3000
0000
0000
0001
0000
0000
0000
0010
0000
0000
0000
0001
0000
1000
0000
,
0100
1000
0010
0100
0001
1000
0001
0010
,
0100
0010
0001
0100
0010
1000
0001
0010
,
0100
1000
0010
0100
0001
0010
0100
1000
,
0001
1000
0010
0100
0001
1000
0100
0010
0001
0100
0001
1000
0010
1000
0100
0010
,
0001
1000
0001
0100
0010
0100
0001
1000
0100
0010
0001
1000
0001
0100
0010
0100
,
0001
0010
0001
1000
0100
1000
0010
0100
0001
0100
0010
1000
0100
0010
0001
0100
,
0001
1000
0010
1000
0100
1000
0001
0010
0001
0100
0001
1000
0100
0010
0100
1000
,
0020
0000
0000
0000
,
0000
0000
0000
0000
0000
0000
0000
0030
0000
0000
0000
0000
0000
0000
0000
0000
;

//---------------dance-single - ----------------
#NOTES:
     dance-single:
     :
     Medium:
     11:
     0.882,1.000,0.118,1.000,0.337,1492.000,36.000,348.000,0.000,3.000:
0000
0000
0000
0000
,
0000
0000
0000
0000
,
0000
0000
0000
0000
,
0000
0000
0000
0000
,
0001
1000
0000
0001
0100
0000
0010
1000
0001
0000
0010
0000
0100
0000
1000
0000
,
0001
0010
0000
0001
1000
0000
0100
1000
0001
0000
0100
0000
0010
0000
0100
0000
,
0001
1000
0000
0001
0010
0000
0100
0010
0001
0000
1000
0000
0010
0000
0100
0000
,
0001
1000
0000
0100
0010
0000
0100
1000
0001
0000
0100
0000
0010
0000
1000
0000
,
0001
0100
0000
0010
1000
0000
0001
0010
0100
0000
1000
0000
0001
0000
1000
0000
,
0100
0010
0000
0100
1000
0000
0001
0100
0010
0000
1000
0000
0010
0000
0100
0000
,
0001
0000
0000
0000
0000
0000
0000
0000
0000
0000
0000
0000
1000
0001
0010
0100
,
1000
0001
0100
0010
1000
0100
1000
0001
,
0020
0230
2300
3002
0103
0010
1000
0001
,
0100
0000
0010
0000
0100
0001
1000
0001
1000
0000
0100
0000
1000
0001
0100
0001
,
1000
0000
0000
0000
0000
0000
0100
0000
0000
0000
0000
0000
0010
0000
0000
0000
0000
0000
0001
0000
0000
0000
0000
0000
2000
0000
3000
0000
0000
0000
0100
0000
0000
1000
0000
0000
0001
0000
0000
1000
0000
0000
0010
0000
0000
0100
0000
0000
,
0001
0000
1000
0100
1000
0000
0001
0100
0001
0000
1000
0010
0100
0001
1000
0001
,
0010
0000
0100
1000
0100
0000
0010
0100
1000
0001
0010
0100
1000
0001
0100
0010
,
0100
0001
0100
0000
0001
1000
0001
0000
1000
0100
1000
0000
0100
0010
0100
0000
,
0010
0001
0100
0010
1000
0001
1000
0100
0010
0001
1000
0001
0100
0001
1000
0100
,
0020
0230
2300
3002
,
1003
0010
0100
0010
0100
0001
1000
0001
,
0010
0100
1000
0100
1000
0001
0100
0001
,
1000
0010
1000
0001
0010
0001
0010
0100
,
1000
0100
1000
0001
0100
0001
0100
0010
,
1000
0010
0100
0010
0100
0001
1000
0001
,
0010
0100
1000
0100
1000
0001
0100
0001
,
1000
0100
1000
0001
0100
0001
0100
0010
,
1000
0000
0010
0000
1000
0000
0100
0000
0010
0000
0002
0003
0010
0000
0002
0003
,
1000
0010
1000
0100
0010
0001
0100
0001
,
1000
0010
1000
0100
0010
0001
0100
0001
,
1000
0100
1000
0010
0100
0001
0010
0001
,
1000
0010
1000
0100
0010
0001
0100
0001
,
1000
0100
1000
0010
0100
0001
0010
0001
,
0100
0001
0010
0100
1000
0010
1000
0001
,
0010
0001
0100
0010
1000
0100
1000
0001
,
0010
1001
0001
0100
1001
0000
1010
1000
,
0001
0000
1002
0000
2003
3200
0320
0230
,
2300
0000
3002
0000
0203
0302
0023
0032
,
2003
3000
1020
0000
2030
3002
0023
0230
,
2300
0002
3000
0203
0320
2030
3200
2300
,
3020
0000
0230
0000
0302
0000
0023
0230
,
2300
0000
0000
0000
0000
0000
0000
0000
3002
0000
0000
0000
0000
0000
0000
0000
0203
0000
0000
0000
0000
0000
0000
0000
0320
0000
0000
0000
0000
0000
0000
0000
0000
0000
0000
0000
0000
0000
0000
0000
2030
0000
0000
0000
0000
0000
0000
0000
3200
0000
0000
0000
0000
0000
0000
0000
0320
0000
0000
0000
0000
0000
0000
0030
,
0021
0000
0000
0000
0000
0000
0000
0000
0032
0000
0000
0000
0000
0000
0000
0000
2003
0000
0000
0000
0000
0000
0000
3000
2010
0000
0000
0000
0000
0000
0000
0000
3020
0000
0000
0000
0000
0000
0000
0000
0230
0000
0000
0000
0000
0000
0000
0000
1302
0000
0000
0000
0000
0000
0000
0000
2003
0000
0000
0000
0000
0000
0000
0000
,
3200
2300
3020
0000
,
0130
0000
0001
1000
0100
0000
1000
0001
0100
0000
0010
1000
0001
0000
1000
0001
,
0010
0000
0100
0010
0001
0000
1000
0010
0200
0000
0302
0000
0023
0000
0130
1000
,
0010
0000
0100
0001
1000
0000
0100
0010
0001
0000
1000
0010
0100
0000
0001
1000
,
0100
0000
0010
0001
1000
0000
0010
0100
0002
0000
2003
0000
3200
0000
0300
0000
,
0010
0001
0010
0001
0010
0001
0010
0001
,
1000
0010
1000
0010
0100
0001
0010
0100
,
1000
0000
0000
0000
0000
0000
0001
0000
0000
0000
0000
0000
0010
0000
0000
0000
0000
0000
0001
0000
0000
0000
0000
0000
0200
0000
0300
0000
0000
0000
0020
0000
0030
0000
0000
0000
2000
0000
0000
3000
0000
0000
0002
0000
0000
0000
0000
0003
,
0020
0000
0230
0000
2300
3002
0203
0000
,
0310
1000
0100
1000
0010
0100
0001
0000
,
1000
0100
1000
0010
0100
0101
0000
1001
,
1000
0100
1000
0010
1000
0001
0010
0000
,
0100
1000
0010
0100
0001
0011
0000
0110
,
0100
1000
0010
1000
0001
0010
0001
0100
,
0010
1000
0001
1000
0200
0000
2300
0000
,
3002
0000
2003
3020
0230
0000
0320
0000
,
2030
3200
0320
0032
,
1013
1000
0100
1000
0010
1000
0001
0000
,
0010
0001
0100
0001
0010
0001
1000
0000
,
0010
0100
0001
0010
0100
1000
0010
0000
,
0100
0001
1000
0001
0010
0001
0200
0000
,
0320
1030
0200
2300
3020
0130
0002
0013
,
0200
1300
0002
0103
0020
0000
2030
0000
,
3001
0000
0010
0100
2000
0000
3002
0000
,
0103
0110
0000
0010
1010
0000
1001
0000
,
0011
0000
0010
0000
0000
0010
0000
0010
,
0000
0000
0000
0000
0010
0000
0000
0000
0000
0000
0010
0100
1000
0000
0001
0000
,
0100
0000
0100
0000
0000
0100
0000
0100
,
0000
0000
0000
0000
0100
0000
0000
0000
0000
0000
0100
0010
1000
0000
0000
0000
,
0001
0000
0001
0000
0000
0001
0000
0001
,
0000
0000
0000
0000
0001
0000
0000
0000
0000
0000
0001
0010
0100
0000
1000
0000
,
0001
0000
1000
0000
0000
1000
0000
1000
,
0000
0000
0000
0000
1000
0000
0001
0010
0100
0000
1000
0010
0100
0000
0001
0000
,
1000
0100
1100
0000
0001
0100
0001
0010
,
0100
0000
0000
0000
1001
0000
0000
0000
1000
0000
0100
1000
0001
0000
0100
0000
,
0001
0000
1001
0000
0001
0010
0001
0100
,
0000
0000
0000
0000
1010
0000
0000
0000
1000
0000
0001
1000
0100
0000
0000
0000
,
0010
0100
1100
0000
0001
1000
0001
0010
,
0000
0000
0000
0000
0011
0000
0000
0000
1000
0000
0010
0100
0001
0000
1000
0000
,
0100
1000
1001
0000
1000
0001
0100
0001
,
2000
3200
0320
0032
,
0203
0000
0000
0320
,
2030
3200
0320
0032
,
2003
0000
0000
3002
,
0203
0000
0000
0320
,
1030
0001
0100
0001
0010
0001
1000
0100
,
0010
0100
1000
0001
1000
0010
0100
0001
,
0010
0001
1000
0010
1000
0001
0010
0100
,
1000
0001
0100
0001
1000
0100
0010
0001
,
1000
0000
0000
0200
0000
0000
0000
0000
0000
0000
0000
0000
0000
0000
0000
0000
,
1300
0000
0001
0000
0100
0001
0100
0001
0100
0000
0010
0000
1000
0001
1000
0001
,
1000
0000
0100
0000
0010
0001
0010
0001
0010
0000
0100
0000
1000
0010
1000
0010
,
1000
0000
0001
0000
0100
0010
0100
0010
0100
0000
0001
0000
1000
0100
1000
0100
,
1000
0000
0010
0000
1000
0001
1000
0001
1000
0000
0010
0000
0100
0001
0100
0001
,
0200
0000
0000
0320
0000
0000
2030
0000
,
0000
3002
0000
0000
0023
0000
0230
0000
,
2300
0000
0000
3020
0000
0000
0230
0000
,
0000
0302
0000
0000
2003
0000
3200
0000
,
2300
0000
3010
0000
0100
0001
0101
0000
,
0100
0010
1000
0001
0020
0000
1031
0000
,
2000
0000
3200
0010
0000
0010
0000
0010
,
0302
0000
0000
0000
0000
0000
0000
0000
2003
0000
0000
0000
3020
0000
0000
0000
0230
0000
0000
0300
0001
0000
0100
0000
0001
0000
0000
0000
0000
0000
0000
0000
,
1000
0001
1000
0001
,
0100
0010
0100
0010
0100
0000
0010
0000
,
1000
0001
0010
0000
0100
0000
1000
0000
,
0100
0010
0100
0010
0100
0000
1001
0000
,
0110
0000
0000
0220
0000
0330
1001
0000
,
1000
1000
0001
0000
0100
0100
0010
0000
,
2000
0000
3002
0000
0023
0000
0130
0200
,
1300
0001
1000
0001
1000
0000
0100
0000
0010
0000
0010
0000
0001
0000
0000
0000
,
0200
0302
2003
3200
,
0310
0010
0200
0000
1300
1000
0002
0000
,
0203
0000
0320
0000
2030
0000
3002
0013
,
0100
1000
0001
1000
0001
0000
0100
0000
0010
0000
0000
0000
1001
0000
0000
0000
,
1000
0010
0100
0001
1000
0100
0010
0100
,
1000
0010
0100
0001
0010
0100
0010
0001
,
1000
0010
1000
0001
0100
0001
0010
0100
,
1000
0001
1000
0010
1000
0000
0001
0000
0100
0000
0001
0000
1000
0000
0001
0000
,
0020
0000
0000
0000
0130
1000
0001
1000
0100
0000
0010
0000
0200
0000
0000
0000
,
1300
0001
1000
0001
0100
0010
1000
0001
0100
0000
0001
0000
0020
0000
0000
0000
,
0130
1000
0001
0100
0010
0010
1000
0000
,
0001
0000
0100
0001
0100
0000
0010
0000
1000
0000
1000
0000
0200
0000
0000
0300
,
0020
0000
0000
0000
0031
1000
0001
1000
0020
0000
0230
0000
0302
0000
0000
0000
,
1003
0010
0100
0001
1000
0010
0100
0001
2000
0000
3200
0000
0320
0000
0000
0000
,
0031
2000
3020
2030
3100
0200
0320
0000
,
0031
0000
0100
0010
1000
0000
0001
0000
0010
0000
0100
0000
1000
0001
0010
0001
,
0100
0000
0010
0000
1000
0001
1000
0001
0100
0000
0010
0000
1000
0000
0000
0000
,
0001
1000
0001
0100
0001
1000
0001
1000
0100
0000
0010
0000
0001
0000
0000
0000
,
0100
0020
2030
3002
0013
0020
0230
0000
,
0310
0001
1000
0001
1000
0000
0100
0000
1000
0000
0001
0000
1000
0000
0010
0000
,
0200
0300
0002
0003
0200
0300
0020
0030
2000
3000
0200
0300
0020
0030
0002
0003
,
2000
3000
0020
0030
0200
0300
0020
0030
2000
3000
0200
0300
0020
0030
0002
0003
,
2000
3000
0020
0030
2000
3000
0002
0003
0020
0030
0002
0003
0200
0300
0020
0030
,
2000
3000
0200
0300
0020
0030
0002
0003
0200
0300
0020
0030
2000
3000
0002
0003
,
2002
3003
0000
0000
2000
0000
3000
0000
0200
0000
0300
0000
0020
0000
0030
0000
0002
0000
0003
0000
0002
0000
0003
0000
2000
0000
3000
0000
0000
0000
0000
0000
,
0000
0000
0000
0000
2020
3030
0000
0000
0020
0000
0030
0000
2000
0000
3000
0000
0002
0003
0000
0000
2000
3000
0000
0000
0002
0000
0003
0000
0020
0000
0030
0000
,
0200
0300
0020
0030
0002
0003
2000
3000
0200
0300
2000
3000
0020
0030
0200
0300
,
0002
0003
0020
0030
0002
0003
0200
0300
0020
0030
2000
3000
0200
0300
0020
0030
,
0002
0000
0000
0000
,
0000
0000
0003
0000
,
1000
0000
0000
0000
0000
0000
0000
0000
0000
0000
0000
0000
0001
0000
0000
0000
0000
0000
0000
0000
0000
0000
0000
0000
0100
0000
0000
0000
0010
0000
0000
0000
1000
0000
0000
0000
0001
0000
0000
1000
0000
0000
0010
0000
0000
1000
0000
0000
,
0002
0003
0002
0003
0002
0003
0002
0003
,
0002
0203
0320
0030
0200
0302
0023
0032
,
0203
0310
2000
3000
2000
3000
2000
3001
,
1000
0001
0100
0001
1000
0100
0010
0000
0002
0000
2003
0000
3200
0000
0000
0000
,
2300
3000
2000
3000
2000
3000
2000
3000
,
2000
3200
0320
0030
0200
2300
3020
2030
,
3200
0310
0002
0003
0002
0003
0002
0013
,
0100
1000
0001
1000
0010
0000
1000
0000
0002
0000
0203
0000
0320
0000
0000
0000
,
2030
3000
2000
3000
2000
3000
2000
3000
,
2000
3020
0230
0300
0020
2030
3200
2300
,
3020
0130
0002
0003
0002
0003
0002
1003
,
0001
1000
0010
1000
0001
0000
0100
0000
0002
0000
2003
0000
3020
0000
0000
0000
,
2030
3000
2000
3000
2000
3000
2000
3000
,
2000
3020
0230
0300
0020
2030
3200
2300
,
3020
0130
0002
0003
0002
0003
0002
0103
,
0010
1000
0001
1000
0100
0000
1000
0000
0002
0000
0023
0000
0230
0000
0000
0000
,
2300
0000
0000
0000
3002
0000
0000
0203
,
0000
0000
0310
1000
0001
0010
0001
1000
0010
0100
0001
1000
0001
0010
0100
1000
,
0000
0001
1000
0010
0100
0001
0010
0001
0100
0001
1000
0010
1000
0100
0010
0001
,
1000
0001
0100
0010
0100
0001
1000
0100
0010
0001
1000
0001
0100
0000
0000
0000
,
0020
0000
2030
0000
3002
0000
0023
0000
0130
1000
0001
1000
0100
1000
0001
0100
,
0002
0023
0230
2300
3001
0100
0010
1000
,
0001
0010
0100
0010
0001
1000
0010
0100
,
0001
0010
0001
0100
0001
1000
0010
1000
0100
1000
0001
0100
0020
0000
0000
0000
,
0230
0302
2003
3020
,
0130
0100
0002
0000
1003
1000
0100
0000
,
0020
0032
2003
3020
,
0130
0001
0100
0001
1000
0000
0100
0000
0010
0000
0100
0000
1000
0000
0000
0000
,
0002
2003
3002
2003
,
3010
0010
0200
0000
0301
0001
2000
0000
,
3001
1000
0002
0000
0023
0000
0130
1000
,
0001
0100
0010
1000
0010
0100
0001
0010
0100
1000
0001
1000
0010
0000
0000
0000
,
0100
0000
0010
1000
0001
0000
0100
0001
1000
0000
0001
0010
0100
0000
0000
0000
,
0010
0000
0000
0001
0000
0000
1000
0000
0000
0010
0000
0000
0100
0000
0000
0001
0000
0000
0020
0030
0000
0000
0000
0000
,
0100
0000
1000
0100
0010
0000
0001
0100
0010
1000
0001
1000
0100
0000
0010
0000
,
0100
0010
0100
0010
0001
0100
0010
0100
,
0001
0000
1000
0010
0100
0000
0001
0010
0100
1000
0001
0000
1000
0100
2000
0000
,
3001
0010
0002
0000
1003
0010
2000
0000
3001
0100
0002
0000
0103
0010
2000
0000
,
3001
0000
0000
1000
0000
0000
0001
0000
0010
0000
0000
0100
0000
0000
0010
0100
,
1000
0000
0000
0000
0000
0000
1000
0000
0000
0000
0000
0000
0001
0000
0000
0010
0000
0000
0100
0000
0000
1000
0000
0000
0002
0000
0003
0000
0000
0000
0100
0000
0000
0000
0000
0000
0001
0000
0000
1000
0000
0000
0001
0000
0000
0100
0000
0000
,
0020
0000
1030
0000
0001
0000
0010
0100
,
1000
0100
0010
0001
1000
0100
1000
0010
,
0100
0001
1000
0001
0010
0001
0100
0010
,
1000
0010
1000
0010
0100
0000
0001
0000
0010
0000
0001
0000
1000
0000
0010
0000
,
0110
0000
0101
0000
0110
0000
0010
1000
,
0001
0010
0100
1000
0010
1000
0001
0100
,
0001
0010
0100
1000
0010
0100
0001
0010
,
0100
0010
0001
0100
0010
1000
0100
0010
,
0001
0000
1000
0000
0001
0000
0100
0010
,
1000
0001
0100
0001
0010
0000
0100
1000
,
0001
0100
0001
0010
0001
1000
0100
1000
,
0010
0100
0001
1000
0001
0000
0010
0000
0200
0300
2000
3000
0020
0030
0200
0300
,
0002
0003
0000
0000
1000
0000
0000
0000
0100
0000
0000
0000
1000
0000
0001
0000
,
0010
0001
0100
0010
1000
0001
1000
0100
,
0010
0100
1000
0010
0100
0001
1000
0100
,
0010
0001
0100
0010
1000
0100
0010
0001
,
1000
0010
0100
0001
1000
0100
0010
0001
,
1000
0010
1000
0001
0100
0001
0010
0100
,
0010
0001
1000
0010
0100
0010
1000
0001
,
1000
0100
1000
0001
0100
0001
0010
0100
1000
0001
0100
0010
1000
0001
1000
0001
,
0020
0000
0000
0000
,
0000
0000
0000
0000
0000
0000
0000
0030
0000
0000
0000
0000
0000
0000
0000
0000
;
