#TITLE:I can break your ear;
#SUBTITLE:;
#ARTIST:Diabarha;
#TITLETRANSLIT:;
#SUBTITLETRANSLIT:;
#ARTISTTRANSLIT:;
#CREDIT:Braeden47;
#BANNER:../Banner.png;
#BACKGROUND:../BG.PNG;
#LYRICSPATH:;
#CDTITLE:../CDTitleBRAEDEN.png;
#MUSIC:Diabarha - I can break you ear Extratone 1840BPM.ogg;
#OFFSET:-0.141;
#SAMPLESTART:26.226;
#SAMPLELENGTH:12.000;
#SELECTABLE:YES;
#BPMS:0.000=230.027,1.000=230.007,3.000=230.027,4.000=230.007,6.000=230.027,7.000=230.007,9.000=230.027,10.000=230.007,12.000=230.027,13.000=230.007,15.000=230.027,16.000=230.007,18.000=230.027,19.000=230.007,21.000=230.027,22.000=230.007,24.000=230.027,25.000=230.007,26.000=230.027,27.000=230.007,29.000=230.027,30.000=230.007,32.000=230.027,33.000=230.007,35.000=230.027,36.000=230.007,38.000=230.027,39.000=230.007,41.000=230.027,42.000=230.007,44.000=230.027,45.000=230.007,46.000=230.027,47.000=230.007,49.000=230.027,50.000=230.007,52.000=230.027,53.000=230.007,55.000=230.027,56.000=230.007,58.000=230.027,59.000=230.007,61.000=230.027,62.000=230.007,64.000=230.027,65.000=230.007,67.000=230.027,68.000=230.007,70.000=230.027,71.000=230.007,72.000=230.027,73.000=230.007,75.000=230.027,76.000=230.007,78.000=230.027,79.000=230.007,81.000=230.027,82.000=230.007,84.000=230.027,85.000=230.007,87.000=230.027,88.000=230.007,90.000=230.027,91.000=230.007,93.000=230.027,94.000=230.007,95.000=230.027,96.000=230.007,98.000=230.027,99.000=230.007,101.000=230.027,102.000=230.007,104.000=230.027,105.000=230.007,107.000=230.027,108.000=230.007,110.000=230.027,111.000=230.007,113.000=230.027,114.000=230.007,116.000=230.027,117.000=230.007,118.000=230.027,119.000=230.007,121.000=230.027,122.000=230.007,124.000=230.027,125.000=230.007,127.000=230.027,128.000=230.007,130.000=230.027,131.000=230.007,133.000=230.027,134.000=230.007,136.000=230.027,137.000=230.007,139.000=230.027,140.000=230.007,141.000=230.027,142.000=230.007,144.000=230.027,145.000=230.007,147.000=230.027,148.000=230.007,150.000=230.027,151.000=230.007,153.000=230.027,154.000=230.007,156.000=230.027,157.000=230.007,159.000=230.027,160.000=230.007,162.000=230.027,163.000=230.007,164.000=230.027,165.000=230.007,167.000=230.027,168.000=230.007,170.000=230.027,171.000=230.007,173.000=230.027,174.000=230.007,176.000=230.027,177.000=230.007,179.000=230.027,180.000=230.007,182.000=230.027,183.000=230.007,185.000=230.027,186.000=230.007,187.000=230.027,188.000=230.007,190.000=230.027,191.000=230.007,193.000=230.027,194.000=230.007,196.000=230.027,197.000=230.007,199.000=230.027,200.000=230.007,202.000=230.027,203.000=230.007,205.000=230.027,206.000=230.007,208.000=230.027,209.000=230.007,210.000=230.027,211.000=230.007,213.000=230.027,214.000=230.007,216.000=230.027,217.000=230.007,219.000=230.027,220.000=230.007,222.000=230.027,223.000=230.007,225.000=230.027,226.000=230.007,228.000=230.027,229.000=230.007,231.000=230.027,232.000=230.007,233.000=230.027,234.000=230.007,236.000=230.027,237.000=230.007,239.000=230.027,240.000=230.007,242.000=230.027,243.000=230.007,245.000=230.027,246.000=230.007,248.000=230.027,249.000=230.007,251.000=230.027,252.000=230.007,254.000=230.027,255.000=230.007,256.000=230.027,257.000=230.007,259.000=230.027,260.000=230.007,262.000=230.027,263.000=230.007,265.000=230.027,266.000=230.007,268.000=230.027,269.000=230.007,271.000=230.027,272.000=230.007,274.000=230.027,275.000=230.007,277.000=230.027,278.000=230.007,279.000=230.027,280.000=230.007,282.000=230.027,283.000=230.007,285.000=230.027,286.000=230.007,288.000=230.027,289.000=230.007,291.000=230.027,292.000=230.007,294.000=230.027,295.000=230.007,297.000=230.027,298.000=230.007,300.000=230.027,301.000=230.007,302.000=230.027,303.000=230.007,305.000=230.027,306.000=230.007,308.000=230.027,309.000=230.007,311.000=230.027,312.000=230.007,314.000=230.027,315.000=230.007,317.000=230.027,318.000=230.007,320.000=230.027,321.000=230.007,323.000=230.027,324.000=230.007,325.000=230.027,326.000=230.007,328.000=230.027,329.000=230.007,331.000=230.027,332.000=230.007,334.000=230.027,335.000=230.007,337.000=230.027,338.000=230.007,340.000=230.027,341.000=230.007,343.000=230.027,344.000=230.007,346.000=230.027,347.000=230.007,348.000=230.027,349.000=230.007,351.000=230.027,352.000=230.007,354.000=230.027,355.000=230.007,357.000=230.027,358.000=230.007,360.000=230.027,361.000=230.007,363.000=230.027,364.000=230.007,366.000=230.027,367.000=230.007,369.000=230.027,370.000=230.007,371.000=230.027,372.000=230.007,374.000=230.027,375.000=230.007,377.000=230.027,378.000=230.007,380.000=230.027,381.000=230.007,383.000=230.027,384.000=230.007,386.000=230.027,387.000=230.007,389.000=230.027,390.000=230.007,392.000=230.027,393.000=230.007,394.000=230.027,395.000=230.007,397.000=230.027,398.000=230.007,400.000=230.027,401.000=230.007,403.000=230.027,404.000=230.007,406.000=230.027,407.000=230.007,409.000=230.027,410.000=230.007,412.000=230.027,413.000=230.007,415.000=230.027,416.000=230.007,417.000=230.027,418.000=230.007,420.000=230.027,421.000=230.007,423.000=230.027,424.000=230.007,426.000=230.027,427.000=230.007,429.000=230.027,430.000=230.007,432.000=230.027,433.000=230.007,435.000=230.027,436.000=230.007,438.000=230.027,439.000=230.007,440.000=230.027,441.000=230.007,443.000=230.027,444.000=230.007,446.000=230.027,447.000=230.007,449.000=230.027,450.000=230.007,452.000=230.027,453.000=230.007,455.000=230.027,456.000=230.007,458.000=230.027,459.000=230.007,461.000=230.027,462.000=230.007,463.000=230.027,464.000=230.007,466.000=230.027,467.000=230.007,469.000=230.027,470.000=230.007,472.000=230.027,473.000=230.007,475.000=230.027,476.000=230.007,478.000=230.027,479.000=230.007,481.000=230.027,482.000=230.007,484.000=230.027,485.000=230.007,486.000=230.027,487.000=230.007,489.000=230.027,490.000=230.007,492.000=230.027,493.000=230.007,495.000=230.027,496.000=230.007,498.000=230.027,499.000=230.007,501.000=230.027,502.000=230.007,504.000=230.027,505.000=230.007,507.000=230.027,508.000=230.007,509.000=230.027,510.000=230.007,512.000=230.027,513.000=230.007,515.000=230.027,516.000=230.007,518.000=230.027,519.000=230.007,521.000=230.027,522.000=230.007,524.000=230.027,525.000=230.007,527.000=230.027,528.000=230.007,530.000=230.027,531.000=230.007,532.000=230.027,533.000=230.007,535.000=230.027,536.000=230.007,538.000=230.027,539.000=230.007,541.000=230.027,542.000=230.007,544.000=230.027,545.000=230.007,547.000=230.027,548.000=230.007,550.000=230.027,551.000=230.007,553.000=230.027,554.000=230.007,555.000=230.027,556.000=230.007,558.000=230.027,559.000=230.007,561.000=230.027,562.000=230.007,564.000=230.027,565.000=230.007,567.000=230.027,568.000=230.007,570.000=230.027,571.000=230.007,573.000=230.027,574.000=230.007,576.000=230.027,577.000=230.007,578.000=230.027,579.000=230.007,581.000=230.027,582.000=230.007,584.000=230.027,585.000=230.007,587.000=230.027,588.000=230.007,590.000=230.027,591.000=230.007,593.000=230.027,594.000=230.007,596.000=230.027,597.000=230.007,599.000=230.027,600.000=230.007,601.000=230.027,602.000=230.007,604.000=230.027,605.000=230.007,607.000=230.027,608.000=230.007,610.000=230.027,611.000=230.007,613.000=230.027,614.000=230.007,616.000=230.027,617.000=230.007,619.000=230.027,620.000=230.007,622.000=230.027,623.000=230.007,624.000=230.027,625.000=230.007,627.000=230.027,628.000=230.007,630.000=230.027,631.000=230.007,633.000=230.027,634.000=230.007,636.000=230.027,637.000=230.007,639.000=230.027,640.000=230.007,642.000=230.027,643.000=230.007,645.000=230.027,646.000=230.007,647.000=230.027,648.000=230.007,650.000=230.027,651.000=230.007,653.000=230.027,654.000=230.007,656.000=230.027,657.000=230.007,659.000=230.027,660.000=230.007,662.000=230.027,663.000=230.007,665.000=230.027,666.000=230.007,668.000=230.027,669.000=230.007,670.000=230.027,671.000=230.007,673.000=230.027,674.000=230.007,676.000=230.027,677.000=230.007,679.000=230.027,680.000=230.007,682.000=230.027,683.000=230.007,685.000=230.027,686.000=230.007,688.000=230.027,689.000=230.007,691.000=230.027,692.000=230.007,693.000=230.027,694.000=230.007,696.000=230.027,697.000=230.007,699.000=230.027,700.000=230.007,702.000=230.027,703.000=230.007,705.000=230.027,706.000=230.007,708.000=230.027,709.000=230.007,711.000=230.027,712.000=230.007,714.000=230.027,715.000=230.007,716.000=230.027,717.000=230.007,719.000=230.027,720.000=230.007,722.000=230.027,723.000=230.007,725.000=230.027,726.000=230.007,728.000=230.027,729.000=230.007,731.000=230.027,732.000=230.007,734.000=230.027,735.000=230.007,737.000=230.027,738.000=230.007,739.000=230.027,740.000=230.007,742.000=230.027,743.000=230.007,745.000=230.027,746.000=230.007,748.000=230.027,749.000=230.007,751.000=230.027,752.000=230.007,754.000=230.027,755.000=230.007,757.000=230.027,758.000=230.007,759.000=230.027,760.000=230.007,762.000=230.027,763.000=230.007,765.000=230.027,766.000=230.007,768.000=230.027,769.000=230.007,771.000=230.027,772.000=230.007,774.000=230.027,775.000=230.007,777.000=230.027,778.000=230.007,780.000=230.027,781.000=230.007,782.000=230.027,783.000=230.007,785.000=230.027,786.000=230.007,788.000=230.027,789.000=230.007,791.000=230.027,792.000=230.007,794.000=230.027,795.000=230.007,797.000=230.027,798.000=230.007,800.000=230.027,801.000=230.007,803.000=230.027,804.000=230.007,805.000=230.027,806.000=230.007,808.000=230.027,809.000=230.007,811.000=230.027,812.000=230.007,814.000=230.027,815.000=230.007,817.000=230.027,818.000=230.007,820.000=230.027,821.000=230.007,823.000=230.027,824.000=230.007,826.000=230.027,827.000=230.007,828.000=230.027,829.000=230.007,831.000=230.027,832.000=230.007,834.000=230.027,835.000=230.007,837.000=230.027,838.000=230.007,840.000=230.027,841.000=230.007,843.000=230.027,844.000=230.007,846.000=230.027,847.000=230.007,849.000=230.027,850.000=230.007,851.000=230.027,852.000=230.007,854.000=230.027,855.000=230.007,857.000=230.027,858.000=230.007;
#STOPS:;
#BGCHANGES:;
// cache tags:
#FIRSTBEAT:0.000;
#LASTBEAT:844.000;
#SONGFILENAME:Songs/Index Fusion/I can break your ear - [Braeden]/Diabarha - I can break you ear Extratone 1840BPM.sm;
#HASMUSIC:1;
#HASBANNER:1;
#MUSICLENGTH:224.583;
// end cache tags

//---------------dance-single - ----------------
#NOTES:
     dance-single:
     :
     Challenge:
     44:
     1.000,1.000,0.102,1.000,1.000,3726.000,23.000,997.000,0.000,6.000:
1001
1000
0010
0100
,
0001
0000
1000
0000
0010
0010
0000
0010
,
0010
1100
0010
1100
,
0010
1100
1011
1011
,
1011
0001
0011
0001
,
1001
0000
1000
0000
0010
0010
0000
0100
,
0100
0101
0010
1010
,
0001
0101
1101
1101
,
1101
1000
0100
0010
0001
0010
0100
1000
,
0001
0000
0100
0000
0010
0000
1000
0000
0100
0010
0001
0100
0010
1000
0010
0100
,
0001
0100
0010
1000
0001
0010
0100
1000
,
0100
0000
0010
0000
0001
0000
0100
0000
0010
1000
0010
0100
0001
0100
0010
1000
,
0010
0100
0001
0010
0100
1000
0001
0100
0010
1000
0100
0010
0001
0010
0100
1000
,
0001
0100
0010
1000
0100
0010
0001
0010
0100
1000
0001
0100
0010
1000
0001
0010
,
0100
1000
0001
0100
0010
1000
0100
0010
0001
0010
0100
1000
0001
0100
0010
1000
,
0100
0010
0001
0010
0100
1000
0010
0100
0001
1000
0100
0010
0001
0010
0100
1000
,
0001
0100
0010
1000
0100
0010
0001
0010
0100
1000
0001
0100
0010
1000
0100
0010
,
0001
0010
0100
1000
0001
0100
0010
1000
0100
0010
0001
1000
0100
0010
0001
1000
,
0001
0000
0000
0002
,
1003
0100
0010
0001
1000
0100
0010
0001
1000
0100
0010
0001
1000
0100
0010
0001
1000
0100
0010
0001
1000
0100
0010
0001
1000
0100
0010
0001
1000
0100
0010
0001
,
1000
0100
0010
0001
1000
0100
0010
0001
1000
0100
0010
0001
1000
0100
0010
0001
1000
0100
0010
0001
1000
0100
0010
0001
1000
0100
0010
0001
1000
0100
0010
0001
,
1000
0100
0010
0001
1000
0100
0010
0001
1000
0100
0010
0001
1000
0100
0010
0001
1000
0100
0010
0001
1000
0100
0010
0001
1000
0100
0010
0001
1000
0100
0010
0001
,
1000
0100
0010
0001
1000
0100
0010
0001
1000
0100
0010
0001
1000
0100
0010
0001
1000
0100
0010
0001
1000
0100
0010
0001
1000
0000
0000
0000
0000
0000
0000
0000
,
0001
0010
0100
1000
0001
0010
0100
1000
0001
0010
0100
1000
0001
0010
0100
1000
0001
0010
0100
1000
0001
0010
0100
1000
0001
0010
0100
1000
0001
0010
0100
1000
,
0001
0010
0100
1000
0001
0010
0100
1000
0001
0010
0100
1000
0001
0010
0100
1000
0001
0010
0100
1000
0001
0010
0100
1000
0001
0010
0100
1000
0001
0010
0100
1000
,
0001
0010
0100
1000
0001
0010
0100
1000
0001
0010
0100
1000
0001
0010
0100
1000
0001
0010
0100
1000
0001
0010
0100
1000
0001
0010
0100
1000
0001
0010
0100
1000
,
0001
0010
0100
1000
0001
0010
0100
1000
0001
0010
0100
1000
0001
0010
0100
1000
0001
0010
0100
1000
0001
0010
0100
1000
0001
0000
0000
0000
0000
0000
0000
0000
,
2000
3200
0320
0031
2000
3200
0320
0032
0023
0230
2300
3002
0023
0230
2300
3002
0203
0320
2030
3200
0320
0032
2003
3200
0320
0032
0023
0130
2000
3002
0203
0320
,
2030
3200
0320
0032
0023
0230
2300
3002
0023
0230
2300
3002
0203
0320
2030
3200
0320
0032
0203
0320
2030
3001
0200
0310
2000
3200
0320
0032
2003
3200
0320
0032
,
0023
0230
2300
3002
0023
0230
2300
3200
0320
0032
0023
0230
2300
3002
0023
0230
2300
3200
0320
0032
2003
3200
0320
0032
2003
3200
0320
0032
0023
0230
2300
3002
,
0023
0230
2300
3200
0320
0032
2003
3200
0320
0032
2003
3020
0230
0302
2003
3200
0320
0032
0023
0230
2300
3200
0320
0032
1003
0000
0100
0000
0010
0000
0001
0000
,
2000
3200
0320
0031
2000
3200
0320
0032
0023
0230
2300
3002
0023
0230
2300
3002
0203
0320
2030
3200
0320
0032
2003
3200
0320
0032
0023
0130
2000
3002
0203
0320
,
2030
3200
0320
0032
0023
0230
2300
3002
0023
0230
2300
3002
0203
0320
2030
3200
0320
0032
0203
0320
2030
3001
0200
0310
2000
3200
0320
0032
2003
3200
0320
0032
,
0023
0230
2300
3002
0023
0230
2300
3200
0320
0032
0023
0230
2300
3002
0023
0230
2300
3200
0320
0032
2003
3200
0320
0032
2003
3200
0320
0032
0023
0230
2300
3002
,
0023
0230
2300
3200
0320
0032
2003
3200
0320
0032
2003
3020
0230
0302
2003
3200
0320
0032
0023
0230
2300
3200
0320
0032
1003
0000
0100
0000
0010
0000
0001
0000
,
1000
0010
0100
0001
1000
0100
0010
0001
0010
0100
1000
0001
0100
0010
1000
0100
,
0010
0001
0010
0100
1000
0001
0100
0010
1000
0100
0010
0001
0010
0100
1000
0001
,
0100
0010
1000
0001
0010
0100
1000
0001
0100
0010
1000
0100
0010
0001
0010
0100
,
1000
0001
0100
0010
1000
0100
0010
0001
0010
0100
1000
0001
0100
0010
1000
0100
,
0010
0001
0010
0100
1000
0001
0100
0010
1000
0100
0010
0001
0010
0100
1000
0001
,
0100
0010
1000
0100
0010
0001
0010
0100
1000
0001
0100
0010
1000
0100
0010
0001
,
1000
0010
0100
0001
1000
0100
0010
0001
0010
0100
1000
0001
0100
0010
1000
0100
,
0010
0100
1000
0001
0010
0100
1000
0001
0100
0010
1000
0100
0010
0001
0010
0100
,
1000
0010
1000
0010
0100
0001
0100
0001
,
1000
0100
1000
0100
0010
0001
0010
0001
,
0100
0010
0100
0010
1000
0001
1000
0001
,
1000
0100
1000
0100
0010
0001
0010
0001
,
1000
0010
0100
0001
1000
0100
0010
0001
0010
0100
1000
0001
0100
0010
1000
0100
,
0010
0001
0010
0100
1000
0001
0100
0010
1000
0100
0010
0001
0010
0100
1000
0001
,
0100
0010
1000
0100
0010
0001
0010
0100
1000
0001
0100
0010
1000
0100
0010
0001
,
0010
0100
1000
0001
0100
0010
1000
0100
0010
0001
0010
0100
1000
0001
0100
0010
,
1000
0010
0100
0001
1000
0100
0010
0001
1000
0010
0100
0001
1000
0100
0010
0001
,
1000
0100
0010
0001
1000
0010
0100
0001
1000
0100
0010
0001
1000
0010
0100
0001
,
1000
0100
0010
0001
1000
0100
0010
0001
1000
0010
0100
0001
1000
0100
0010
0001
,
1000
0010
0100
0001
1000
0100
0010
0001
1000
0010
0100
0001
1000
0100
0010
0001
,
1000
0010
0100
0001
1000
0100
0010
0001
0010
0100
1000
0001
0100
0010
1000
0100
,
0010
0001
1000
0010
0100
0001
1000
0100
0010
0001
1000
0010
0100
0001
0010
0100
,
1000
0001
0100
0010
1000
0100
0010
0001
0010
0100
1000
0001
0100
0010
1000
0100
,
0010
0001
0010
0100
1000
0001
0100
0010
1000
0100
0010
0001
1000
0100
0010
0001
,
1000
0100
0010
0001
1000
0100
0010
0001
1000
0100
0010
0001
1000
0100
0010
0001
1000
0100
0010
0001
1000
0100
0010
0001
1000
0100
0010
0001
1000
0100
0010
0001
,
1000
0100
0010
0001
1000
0100
0010
0001
1000
0100
0010
0001
1000
0100
0010
0001
1000
0100
0010
0001
1000
0100
0010
0001
1000
0100
0010
0001
1000
0100
0010
0001
,
1000
0100
0010
0001
1000
0100
0010
0001
1000
0100
0010
0001
1000
0100
0010
0001
1000
0100
0010
0001
1000
0100
0010
0001
1000
0100
0010
0001
1000
0100
0010
0001
,
1000
0010
0100
0001
0100
0000
0010
0000
1000
0000
0000
0000
0001
0000
0000
0000
,
0001
0010
0100
1000
0001
0010
0100
1000
0001
0010
0100
1000
0001
0010
0100
1000
0001
0010
0100
1000
0001
0010
0100
1000
0001
0010
0100
1000
0001
0010
0100
1000
,
0001
0010
0100
1000
0001
0010
0100
1000
0001
0010
0100
1000
0001
0010
0100
1000
0001
0010
0100
1000
0001
0010
0100
1000
0001
0010
0100
1000
0001
0010
0100
1000
,
0001
0010
0100
1000
0001
0010
0100
1000
0001
0010
0100
1000
0001
0010
0100
1000
0001
0010
0100
1000
0001
0010
0100
1000
0001
0010
0100
1000
0001
0010
0100
1000
,
0001
0100
0010
1000
0001
0000
0100
0000
0010
0000
0000
0000
1000
0000
0000
0000
,
2000
3200
0320
0032
2003
3020
0230
0302
2003
3200
0320
0230
2300
3002
0023
0230
2300
3002
0203
0320
2030
3200
0320
0032
2003
3200
0320
0032
0023
0230
2300
3002
,
0203
0320
2030
3200
0320
0032
0023
0230
2300
3002
0203
0320
2030
3200
0320
0032
2003
3200
0320
0032
2003
3200
0320
0032
2003
3020
0230
0302
0203
0320
2030
3002
,
0203
0320
2030
3002
0023
0230
2300
3200
0320
0032
2003
3020
0230
0302
0203
0320
2030
3200
0320
0032
0023
0230
2300
3002
0203
0320
2030
3200
0320
0032
0203
0320
,
1030
0100
0010
0001
1000
0100
0010
0001
1000
0100
0010
0001
1000
0010
0100
0001
,
2000
3200
0320
0031
2000
3200
0320
0032
0023
0230
2300
3002
0023
0230
2300
3002
0203
0320
2030
3200
0320
0032
2003
3200
0320
0032
0023
0130
2000
3002
0203
0320
,
2030
3200
0320
0032
0023
0230
2300
3002
0023
0230
2300
3002
0203
0320
2030
3200
0320
0032
0203
0320
2030
3001
0200
0310
2000
3200
0320
0032
2003
3200
0320
0032
,
0023
0230
2300
3002
0023
0230
2300
3200
0320
0032
0023
0230
2300
3002
0023
0230
2300
3200
0320
0032
2003
3200
0320
0032
2003
3200
0320
0032
0023
0230
2300
3002
,
0013
0100
0001
1000
0100
0010
0100
1000
0001
0010
0100
1000
0001
0100
0010
1000
,
0100
0100
0010
1000
,
0010
0000
1000
0000
0001
0000
1000
0001
,
1000
0010
0100
0001
,
0010
0000
0000
0000
0001
0000
0000
0000
0100
0000
0010
0000
0100
0000
0010
1000
,
0020
0230
0302
0203
,
0302
0000
0203
0000
0302
0000
0103
0001
,
0101
0010
1000
0001
,
1000
0010
0100
0001
,
1000
0100
0010
0001
1000
0100
0010
0001
1000
0100
0010
0001
1000
0100
0010
0001
1000
0100
0010
0001
1000
0100
0010
0001
1000
0100
0010
0001
1000
0100
0010
0001
,
1000
0100
0010
0001
1000
0100
0010
0001
1000
0100
0010
0001
1000
0100
0010
0001
1000
0100
0010
0001
1000
0100
0010
0001
1000
0100
0010
0001
1000
0100
0010
0001
,
1000
0100
0010
0001
1000
0100
0010
0001
1000
0100
0010
0001
1000
0100
0010
0001
1000
0100
0010
0001
1000
0100
0010
0001
1000
0100
0010
0001
1000
0100
0010
0001
,
1000
0100
0010
0001
1000
0100
0010
0001
1000
0100
0010
0001
1000
0100
0010
0001
1000
0100
0010
0001
1000
0100
0010
0001
1000
0000
0010
0000
0100
0000
0001
0000
,
1000
0100
0010
0001
1000
0100
0010
0001
1000
0100
0010
0001
1000
0100
0010
0001
1000
0100
0010
0001
1000
0100
0010
0001
1000
0100
0010
0001
1000
0100
0010
0001
,
1000
0100
0010
0001
1000
0100
0010
0001
1000
0100
0010
0001
1000
0100
0010
0001
1000
0100
0010
0001
1000
0100
0010
0001
1000
0100
0010
0001
1000
0100
0010
0001
,
1000
0100
0010
0001
1000
0100
0010
0001
1000
0100
0010
0001
1000
0100
0010
0001
1000
0100
0010
0001
1000
0100
0010
0001
1000
0100
0010
0001
1000
0100
0010
0001
,
1000
0100
0010
0001
1000
0100
0010
0001
1000
0100
0010
0001
1000
0100
0010
0001
1000
0100
0010
0001
1000
0100
0010
0001
1000
0000
0000
0000
0000
0000
0000
0000
,
0001
0010
0100
1000
0001
0010
0100
1000
0001
0010
0100
1000
0001
0010
0100
1000
0001
0010
0100
1000
0001
0010
0100
1000
0001
0010
0100
1000
0001
0010
0100
1000
,
0001
0010
0100
1000
0001
0010
0100
1000
0001
0010
0100
1000
0001
0010
0100
1000
0001
0010
0100
1000
0001
0010
0100
1000
0001
0010
0100
1000
0001
0010
0100
1000
,
0001
0010
0100
1000
0001
0010
0100
1000
0001
0010
0100
1000
0001
0010
0100
1000
0001
0010
0100
1000
0001
0010
0100
1000
0001
0010
0100
1000
0001
0010
0100
1000
,
0001
0010
0100
1000
0001
0010
0100
1000
0001
0010
0100
1000
0001
0010
0100
1000
0001
0010
0100
1000
0001
0010
0100
1000
0001
0000
0000
0000
0000
0000
0000
0000
,
2000
3200
0320
0032
2003
3200
0320
0032
2003
3200
0320
0032
2003
3200
0320
0032
2003
3200
0320
0031
2000
3200
0320
0032
2003
3200
0320
0032
2003
3200
0320
0032
,
2003
3200
0320
0032
2003
3200
0320
0032
2003
3200
0320
0032
2003
3200
0320
0032
2003
3200
0320
0031
2000
3200
0320
0032
2003
3200
0320
0032
2003
3200
0320
0032
,
2003
3200
0320
0032
2003
3200
0320
0032
2003
3200
0320
0032
2003
3200
0320
0032
2003
3200
0320
0031
2000
3200
0320
0032
2003
3200
0320
0032
2003
3200
0320
0032
,
2003
3200
0320
0032
2003
3200
0320
0032
2003
3200
0320
0032
2003
3200
0320
0032
2003
3200
0320
0031
2000
3200
0320
0032
1003
0000
0000
0000
0000
0000
0000
0000
,
0001
0010
0100
1000
0001
0100
0010
1000
0100
0010
0001
0010
0100
1000
0001
0100
,
0010
1000
0100
0010
0100
1000
0001
0100
0010
1000
0100
0010
0001
0000
0000
0000
,
0001
0100
0010
1000
0100
0010
0001
0010
0100
1000
0001
0100
0010
1000
0100
0010
,
0001
1000
0100
0010
0001
0010
0100
1000
0001
0100
0010
1000
0001
0000
0000
0000
,
1000
0100
0010
0001
0010
0100
1000
0001
0100
0010
1000
0100
0010
0001
0010
0100
,
1000
0001
0100
0010
1000
0100
0010
0100
1000
0000
0000
0000
0000
0000
0000
0000
,
0001
1000
0100
1000
0001
0100
0010
1000
0001
0010
0100
1000
0100
0010
0001
1000
,
0010
0100
0001
1000
0100
0010
0001
0010
0100
1000
0001
0000
1000
0100
1000
0000
,
0002
0023
0230
2300
3002
0023
0230
2300
3002
0023
0230
2300
3002
0203
0320
2030
3200
0320
0032
0023
0230
2300
3002
0203
0320
2030
3200
0320
0032
2003
3020
0230
,
0302
0023
0230
2300
3002
0023
0230
2300
3002
0023
0230
2300
3002
0203
0320
2030
3200
0320
0032
0023
0230
2300
3002
0203
0320
2030
3200
0320
0032
2003
3020
0230
,
0302
0023
0230
2300
3002
0023
0230
2300
3002
0023
0230
2300
3002
0203
0320
2030
3200
0320
0032
0023
0230
2300
3002
0203
0320
2030
3200
0320
0032
2003
3020
0230
,
0302
0023
0230
2300
3002
0023
0230
2300
3002
0023
0230
2300
3002
0203
0320
2030
3200
0320
0032
0023
0230
2300
3002
0203
0320
2030
3200
0320
0032
2003
3020
0230
,
0302
0023
0230
2300
3002
0023
0230
2300
3002
0023
0230
2300
3002
0203
0320
2030
3200
0320
0032
0023
0230
2300
3002
0203
0320
2030
3200
0320
0032
2003
3020
0230
,
0302
0023
0230
2300
3002
0023
0230
2300
3002
0023
0230
2300
3002
0203
0320
2030
3200
0320
0032
0023
0230
2300
3002
0203
0320
2030
3200
0320
0032
2003
3020
0230
,
0302
0023
0230
2300
3002
0023
0230
2300
3002
0023
0230
2300
3002
0203
0320
2030
3200
0320
0032
0023
0230
2300
3002
0203
0320
2030
3200
0320
0032
2003
3020
0230
,
0301
0100
0010
1000
0001
0010
0100
1000
0100
0010
0001
0100
0010
1000
0001
1000
,
0001
1000
0100
0010
0001
1000
0100
0010
0001
1000
0100
0010
0001
1000
0100
0010
0001
1000
0100
0010
0001
1000
0100
0010
0001
1000
0100
0010
0001
1000
0010
0100
,
0001
0010
0100
1000
0100
0010
0001
0100
0010
1000
0001
0100
0010
1000
0100
0010
,
0001
0010
0100
1000
0001
0010
0100
1000
0001
0010
0100
1000
0001
0010
0100
1000
0001
0010
0100
1000
0001
0010
0100
1000
0001
0010
0100
1000
0001
0010
0100
1000
,
0010
0100
0001
1000
0100
0010
0001
0010
0100
1000
0001
0100
0010
1000
0001
1000
,
0001
0010
0100
1000
0001
0010
0100
1000
0001
0010
0100
1000
0001
0010
0100
1000
0001
0010
0100
1000
0001
0010
0100
1000
0001
0010
0100
1000
0001
0010
0100
1000
,
0001
0100
0010
1000
0001
0100
0010
1000
0100
0000
0010
0000
0001
0000
0000
0000
,
1000
0100
0010
0001
1000
0100
0010
0001
1000
0100
0010
0001
1000
0100
0010
0001
1000
0100
0010
0001
1000
0100
0010
0001
1000
0100
0010
0001
1000
0100
0010
0001
,
1000
0001
1000
0001
1000
0000
0010
0000
,
1000
0010
0100
0001
1000
0100
0010
0001
,
0010
0100
1000
0001
0100
0010
1000
0100
,
0010
0001
0010
0100
1000
0001
0100
0010
,
1000
0000
0100
0000
0010
0000
0001
0000
1000
0010
0100
0001
1000
0010
0100
0001
,
0100
0010
1000
0100
0010
0001
0010
0100
,
1000
0000
0001
0000
0100
0000
0010
0000
0100
0010
0100
0010
0100
0000
0010
0000
,
1000
0100
0010
0001
0010
0100
1000
0001
,
0100
0000
0010
0000
1000
0000
0100
0000
0010
0001
0100
0010
1000
0001
0010
0100
,
1000
0001
0100
0010
,
1000
0000
0010
0000
0100
0010
1000
0001
,
2001
3020
0230
0302
,
2003
0000
0000
0000
3200
0000
0000
0000
0310
0000
0001
0000
1000
0010
0100
0001
,
1001
1000
0010
0100
0001
1000
0100
0010
,
0001
0010
0100
1000
0001
0100
0010
1000
,
0001
0100
0010
1000
0100
0010
0001
0010
,
0100
0000
0000
0000
0000
0000
1000
0000
0000
0000
0000
0000
0001
0000
0000
0000
0000
0000
0100
0000
0000
0000
0000
0000
0010
0000
0000
0000
0000
0000
1000
0000
0000
0000
0000
0000
0001
0010
0100
1000
0001
0010
0100
1000
0001
0010
0100
1000
,
0001
0010
0100
0001
,
0100
0010
0100
1000
,
0010
0100
0001
0010
,
0100
1000
0100
0010
,
0001
0010
0100
1000
,
0100
0010
0001
1000
,
0010
0100
0001
0100
,
0010
0000
0000
0000
0000
0000
1000
0000
0000
0000
0000
0000
0001
0000
0000
0000
0000
0000
0001
0010
0100
1000
0001
0010
,
0100
1000
0001
0100
0010
1000
0100
0010
0001
0010
0100
1000
0001
0100
0010
0100
,
0001
0010
0100
1000
0001
0100
0010
1000
0100
0010
0001
0010
0100
1000
0001
0100
,
0010
1000
0100
0010
0001
0010
0100
1000
0001
0100
0010
1000
0001
0010
0100
1000
,
0001
0100
0010
1000
0001
0010
0100
1000
0001
0100
0010
1000
0001
0010
0100
1000
,
0001
0100
0010
1000
0100
0010
0001
0010
0100
1000
0001
0100
0010
1000
0001
0010
,
0100
1000
0001
0100
0010
1000
0100
0010
0001
0010
0100
1000
0001
0100
0010
1000
,
0100
0010
0100
1000
0001
0100
0010
1000
0001
0010
0100
1000
0001
0100
0010
1000
,
0100
0000
0000
0010
0000
0000
0100
0000
0000
1000
0000
0000
0001
0000
0000
0100
0000
0000
0010
0000
0000
1000
0000
0000
0010
0000
0000
0100
0000
0000
0001
0000
0000
0100
0000
0000
0010
0100
1000
0001
0010
0100
1000
0001
0010
0100
1000
0001
,
1000
0010
0000
0000
1000
0010
0000
0000
,
1000
0000
0010
0000
0000
0000
0000
0000
1000
0000
0010
0000
0000
0000
0001
0100
,
0010
0010
0000
0000
0010
0010
0000
0000
,
0010
0010
0000
0100
1000
1000
0001
0001
,
1001
0010
0000
0000
0010
0010
0000
0000
,
0100
0000
0100
0000
0000
0000
0000
0000
0001
0000
0001
0000
0000
0000
0001
1000
,
0010
0100
0000
0000
0010
0100
0000
0000
,
0010
0100
0000
1000
0010
0100
0001
0100
,
0010
0000
0100
0000
0010
0000
1000
0000
0010
0000
0100
0000
0001
0000
1000
0010
,
0100
0001
0010
0100
1000
0001
0100
0000
,
0010
0000
1000
0000
0100
0000
0010
0000
0001
0000
0100
0000
0010
0000
1000
0001
,
0100
0010
1000
0100
0010
0001
1000
0000
,
0001
0010
0100
1000
0001
0010
0100
1000
0004
0000
0000
0000
0000
0000
0000
0000
0403
0000
0000
0000
0000
0000
0000
0000
0340
0000
0000
0000
0000
0000
0000
0000
,
1030
0100
0010
0001
1000
0100
0010
0001
4000
0000
0000
0000
0000
0000
0000
0000
3040
0000
0000
0000
0000
0000
0000
0000
0430
0000
0000
0000
0000
0000
0000
0000
,
0301
0010
0100
1000
0100
0010
0001
1000
0040
0000
0000
0000
0000
0000
0000
0000
0430
0000
0000
0000
0000
0000
0000
0000
0304
0000
0000
0000
0000
0000
0000
0000
,
1003
0010
0100
0001
1000
0100
0010
0001
0040
0000
0000
0000
0000
0000
0000
0000
0034
0000
0000
0000
0000
0000
0000
0000
0403
0000
0000
0000
0000
0000
0000
0000
,
0301
0000
0010
0000
0100
0000
1000
0000
0001
0010
0100
1000
0001
0010
0100
1000
0001
0000
0100
0000
0010
0000
1000
0000
0100
0010
0001
1000
0100
0010
0001
1000
,
0100
0000
0010
0000
0001
0000
0100
0000
0010
1000
0010
0100
0001
1000
0010
0100
0001
0000
1000
0000
0100
0000
0010
0000
0001
0010
0100
1000
0001
0010
0100
1000
,
0001
0000
0100
0000
0010
0000
1000
0000
0001
0010
0100
1000
0001
0010
0100
1000
0001
0000
0100
0000
0010
0000
1000
0000
0001
0010
0100
1000
0001
0010
0100
1000
,
0001
0000
0010
0000
0100
0000
1000
0000
0001
0010
0100
1000
0001
0010
0100
1000
0001
0000
0010
0000
0100
0000
1000
0000
0001
0010
0100
1000
0001
0010
0100
1000
,
0001
0100
0010
1000
0001
0010
0100
1000
0100
0010
0001
0100
0010
1000
0001
0010
,
0100
1000
0001
0100
0010
1000
0100
0010
0001
0010
0100
1000
0001
0100
0010
1000
,
0100
0010
0001
0010
0100
1000
0001
0100
0010
1000
0001
0010
0100
1000
0100
0010
,
0001
0010
0100
1000
0001
0100
0010
1000
0100
0010
0001
0010
0100
1000
0001
0010
,
0100
1000
0001
0100
0010
1000
0100
0010
0001
1000
0010
1000
0010
0100
0001
1000
,
0100
0010
0001
0010
0100
1000
0001
0100
0010
1000
0100
0010
0001
1000
0100
0010
,
0001
0100
0010
1000
0001
0010
0100
1000
0001
0100
0010
1000
0100
0010
0001
1000
,
0100
0010
0001
0010
0100
1000
0001
0100
0010
1000
0100
0010
0001
0010
0100
1000
,
0001
0100
0010
1000
0100
0010
0001
0010
0100
1000
0001
0100
0010
1000
0100
0010
,
0001
0010
0100
1000
0001
0100
0010
1000
0100
0010
0001
0100
0010
1000
0001
0010
,
0100
1000
0100
0010
0001
0010
0100
1000
0001
0100
0010
1000
0100
0010
0100
1000
,
0001
0010
0100
1000
0001
0100
0010
1000
0100
0010
0001
0100
0010
1000
0001
1000
,
0001
0010
0100
1000
0001
0010
0100
1000
0001
0010
0100
1000
0001
0010
0100
1000
0001
0010
0100
1000
0001
0010
0100
1000
0001
0010
0100
1000
0001
0010
0100
1000
,
0001
0010
0100
1000
0001
0010
0100
1000
0001
0010
0100
1000
0001
0010
0100
1000
0001
0010
0100
1000
0001
0010
0100
1000
0001
0010
0100
1000
0001
0010
0100
1000
,
0001
0010
0100
1000
0001
0010
0100
1000
0001
0010
0100
1000
0001
0010
0100
1000
0001
0010
0100
1000
0001
0010
0100
1000
0001
0010
0100
1000
0001
0010
0100
1000
,
0001
0010
0100
1000
0001
0010
0100
1000
0001
0010
0100
1000
0001
0010
0100
1000
0001
0000
1000
0000
0010
0000
0100
0000
0001
0000
0100
0000
0010
0000
1000
0000
,
0001
0010
0100
1000
0001
0010
0100
1000
0001
0010
0100
1000
0001
0010
0100
1000
0001
0010
0100
1000
0001
0010
0100
1000
0001
0010
0100
1000
0001
0010
0100
1000
,
0001
0010
0100
1000
0001
0010
0100
1000
0001
0010
0100
1000
0001
0010
0100
1000
0001
0000
0010
0000
0100
0000
1000
0000
0001
0000
0100
0000
0010
0000
1000
0000
,
0001
0010
0100
1000
0001
0010
0100
1000
0001
0010
0100
1000
0001
0010
0100
1000
0001
0010
0100
1000
0001
0010
0100
1000
0001
0010
0100
1000
0001
0010
0100
1000
,
0001
0010
0100
1000
0001
0010
0100
1000
0001
0010
0100
1000
0001
0010
0100
1000
0001
0000
0100
0000
0010
0000
1000
0000
0001
0000
0100
0000
0010
0000
1000
0000
,
0002
0203
0320
2030
3002
0023
0230
2300
3002
0023
0230
2300
3002
0203
0320
2030
3002
0203
0310
2000
3200
0320
0032
2003
3200
0320
0032
2003
3200
0320
0032
2003
,
3002
0203
0320
2030
3002
0023
0230
2300
3002
0023
0230
2300
3002
0203
0320
2030
3002
0203
0310
2000
3200
0320
0032
2003
3200
0320
0032
2003
3200
0320
0032
2003
,
3002
0023
0230
2300
3002
0023
0230
2300
3002
0203
0320
2030
3002
0203
0320
2030
3002
0023
0230
2300
3002
0023
0230
2300
3002
0203
0320
2030
3002
0203
0320
2030
,
3002
0023
0230
2300
3002
0023
0230
2300
3200
0320
0032
0203
0320
2030
3002
0023
0230
2300
3200
0320
0032
0203
0320
2030
3200
0320
0032
0203
0320
0230
0302
0023
,
0230
2300
3002
0023
0230
2300
3020
2030
3002
0023
0230
2300
3002
0023
0230
2300
3002
0203
0320
2030
3002
0203
0320
2030
3002
0023
0230
2300
3002
0023
0230
2300
,
3002
0023
0230
2300
3002
0023
0230
2300
3002
0203
0320
2030
3002
2003
3020
0230
0302
2003
3200
0320
0032
0023
0230
2300
3002
0203
0320
2030
3200
0320
0032
2003
,
3200
0320
0032
2003
3200
0320
0032
2003
3200
0320
0032
2003
3200
0320
0032
2003
3200
0320
0032
2003
3200
0320
0032
2003
3200
0320
0032
2003
3200
0320
0032
2003
,
3100
0010
0001
2000
3100
0010
0001
1000
0100
0010
0001
1000
0100
0010
0001
1000
0100
0010
0001
1000
0100
0010
0001
1000
0100
0010
0001
1000
0100
0010
0001
1000
,
0001
0010
0100
1000
,
0001
0100
0010
1000
,
0100
0010
0100
1000
,
0001
0100
0010
1000
,
0100
0010
0100
1000
,
0001
0100
0010
1000
,
0100
0010
0001
0100
,
0010
1000
0100
0010
,
0100
0000
0000
0000
;

//---------------dance-single - ----------------
#NOTES:
     dance-single:
     :
     Hard:
     34:
     1.000,1.000,0.098,1.000,1.000,3113.000,22.000,226.000,0.000,6.000:
1001
1000
0010
0100
,
0001
0000
1000
0000
0010
0010
0000
0010
,
0010
1100
0010
1100
,
0010
1100
1011
1011
,
1011
0001
0011
0001
,
1001
0000
1000
0000
0010
0010
0000
0100
,
0100
0101
0010
1010
,
0001
0101
1101
1101
,
1101
1000
0100
0010
0001
0010
0100
1000
,
0001
0000
0100
0000
0010
0000
1000
0000
0100
0010
0001
0100
0010
1000
0010
0100
,
0001
0100
0010
1000
0001
0010
0100
1000
,
0100
0000
0010
0000
0001
0000
0100
0000
0010
1000
0010
0100
0001
0100
0010
1000
,
0010
0100
0001
0010
0100
1000
0001
0100
0010
1000
0100
0010
0001
0010
0100
1000
,
0001
0100
0010
1000
0100
0010
0001
0010
0100
1000
0001
0100
0010
1000
0001
0010
,
0100
1000
0001
0100
0010
1000
0100
0010
0001
0010
0100
1000
0001
0100
0010
1000
,
0100
0010
0001
0010
0100
1000
0010
0100
0001
1000
0100
0010
0001
0010
0100
1000
,
0001
0100
0010
1000
0100
0010
0001
0010
0100
1000
0001
0100
0010
1000
0100
0010
,
0001
0010
0100
1000
0001
0100
0010
1000
0100
0010
0001
1000
0100
0010
0001
1000
,
0001
0000
0000
0002
,
1003
0100
0010
0001
1000
0100
0010
0001
1000
0100
0010
0001
1000
0100
0010
0001
1000
0100
0010
0001
1000
0100
0010
0001
1000
0100
0010
0001
1000
0100
0010
0001
,
1000
0100
0010
0001
1000
0100
0010
0001
1000
0100
0010
0001
1000
0100
0010
0001
1000
0100
0010
0001
1000
0100
0010
0001
1000
0100
0010
0001
1000
0100
0010
0001
,
1000
0100
0010
0001
1000
0100
0010
0001
1000
0100
0010
0001
1000
0100
0010
0001
1000
0100
0010
0001
1000
0100
0010
0001
1000
0100
0010
0001
1000
0100
0010
0001
,
1000
0100
0010
0001
1000
0100
0010
0001
1000
0100
0010
0001
1000
0100
0010
0001
1000
0100
0010
0001
1000
0100
0010
0001
1000
0000
0000
0000
0000
0000
0000
0000
,
0001
0100
0010
1000
0001
0010
0100
1000
0001
0100
0010
1000
0001
0010
0100
1000
,
0001
0100
0010
1000
0001
0010
0100
1000
0001
0100
0010
1000
0001
0010
0100
1000
,
0001
0100
0010
1000
0100
0010
0001
0100
0010
1000
0001
0010
0100
1000
0100
0010
,
0001
0100
0010
1000
0001
0010
0100
1000
0100
0010
0001
1000
0001
0000
0000
0000
,
2000
3200
0320
0031
2000
3200
0320
0032
0023
0230
2300
3002
0023
0230
2300
3002
0203
0320
2030
3200
0320
0032
2003
3200
0320
0032
0023
0130
2000
3002
0203
0320
,
2030
3200
0320
0032
0023
0230
2300
3002
0023
0230
2300
3002
0203
0320
2030
3200
0320
0032
0203
0320
2030
3001
0200
0310
2000
3200
0320
0032
2003
3200
0320
0032
,
0023
0230
2300
3002
0023
0230
2300
3200
0320
0032
0023
0230
2300
3002
0023
0230
2300
3200
0320
0032
2003
3200
0320
0032
2003
3200
0320
0032
0023
0230
2300
3002
,
0023
0230
2300
3200
0320
0032
2003
3200
0320
0032
2003
3020
0230
0302
2003
3200
0320
0032
0023
0230
2300
3200
0320
0032
1003
0000
0100
0000
0010
0000
0001
0000
,
1000
0100
0010
0001
0100
0010
1000
0001
0010
0001
1000
0100
0010
0001
0010
0100
,
1000
0001
0100
0010
1000
0001
0010
0100
1000
0100
0010
0001
0100
0010
0100
0001
,
0010
0100
1000
0100
0010
0001
0010
0100
1000
0001
0100
0010
1000
0100
0010
0001
,
0010
0100
1000
0001
0100
0010
1000
0100
0010
0001
0010
0100
1000
0001
1000
0100
,
1000
0010
0100
0001
1000
0100
0010
0001
0010
0100
1000
0001
0100
0010
1000
0100
,
0010
0001
0010
0100
1000
0001
0100
0010
1000
0100
0010
0001
0010
0100
1000
0001
,
0100
0010
1000
0001
0010
0100
1000
0001
0100
0010
1000
0100
0010
0001
0010
0100
,
1000
0001
0100
0010
1000
0100
0010
0001
0010
0100
1000
0001
0100
0010
1000
0100
,
0010
0001
0010
0100
1000
0001
0100
0010
1000
0100
0010
0001
0010
0100
1000
0001
,
0100
0010
1000
0100
0010
0001
0010
0100
1000
0001
0100
0010
1000
0100
0010
0001
,
1000
0010
0100
0001
1000
0100
0010
0001
0010
0100
1000
0001
0100
0010
1000
0100
,
0010
0100
1000
0001
0010
0100
1000
0001
0100
0010
1000
0100
0010
0001
0010
0100
,
1000
0010
1000
0010
0100
0001
0100
0001
,
1000
0100
1000
0100
0010
0001
0010
0001
,
0100
0010
0100
0010
1000
0001
1000
0001
,
1000
0100
1000
0100
0010
0001
0010
0001
,
1000
0010
0100
0001
1000
0100
0010
0001
0010
0100
1000
0001
0100
0010
1000
0100
,
0010
0001
0010
0100
1000
0001
0100
0010
1000
0100
0010
0001
0010
0100
1000
0001
,
0100
0010
1000
0100
0010
0001
0010
0100
1000
0001
0100
0010
1000
0100
0010
0001
,
0010
0100
1000
0001
0100
0010
1000
0100
0010
0001
0010
0100
1000
0001
0100
0010
,
1000
0010
0100
0001
1000
0100
0010
0001
1000
0010
0100
0001
1000
0100
0010
0001
,
1000
0100
0010
0001
1000
0010
0100
0001
1000
0100
0010
0001
1000
0010
0100
0001
,
1000
0100
0010
0001
1000
0100
0010
0001
1000
0010
0100
0001
1000
0100
0010
0001
,
1000
0010
0100
0001
1000
0100
0010
0001
1000
0010
0100
0001
1000
0100
0010
0001
,
1000
0010
0100
0001
1000
0100
0010
0001
0010
0100
1000
0001
0100
0010
1000
0100
,
0010
0001
1000
0010
0100
0001
1000
0100
0010
0001
1000
0010
0100
0001
0010
0100
,
1000
0001
0100
0010
1000
0100
0010
0001
0010
0100
1000
0001
0100
0010
1000
0100
,
0010
0001
0010
0100
1000
0001
0100
0010
1000
0100
0010
0001
1000
0100
0010
0001
,
1000
0100
0010
0001
1000
0100
0010
0001
1000
0100
0010
0001
1000
0100
0010
0001
1000
0100
0010
0001
1000
0100
0010
0001
1000
0100
0010
0001
1000
0100
0010
0001
,
1000
0100
0010
0001
1000
0100
0010
0001
1000
0100
0010
0001
1000
0100
0010
0001
1000
0100
0010
0001
1000
0100
0010
0001
1000
0100
0010
0001
1000
0100
0010
0001
,
1000
0100
0010
0001
1000
0100
0010
0001
1000
0100
0010
0001
1000
0100
0010
0001
1000
0100
0010
0001
1000
0100
0010
0001
1000
0100
0010
0001
1000
0100
0010
0001
,
1000
0010
0100
0001
0100
0000
0010
0000
1000
0000
0000
0000
0001
0000
0000
0000
,
0001
0010
0100
1000
0100
0010
0001
0100
0010
1000
0001
0010
0100
1000
0100
0010
,
0001
0100
0010
1000
0001
0010
0100
1000
0100
0010
0001
0100
0010
1000
0001
0010
,
0100
1000
0100
0010
0001
0100
0010
1000
0001
0010
0100
1000
0100
0010
0001
0100
,
0001
0100
0010
1000
0001
0000
0100
0000
0010
0000
0000
0000
1000
0000
0000
0000
,
2000
3200
0320
0032
2003
3020
0230
0302
2003
3200
0320
0230
2300
3002
0023
0230
2300
3002
0203
0320
2030
3200
0320
0032
2003
3200
0320
0032
0023
0230
2300
3002
,
0203
0320
2030
3200
0320
0032
0023
0230
2300
3002
0203
0320
2030
3200
0320
0032
2003
3200
0320
0032
2003
3200
0320
0032
2003
3020
0230
0302
0203
0320
2030
3002
,
0203
0320
2030
3002
0023
0230
2300
3200
0320
0032
2003
3020
0230
0302
0203
0320
2030
3200
0320
0032
0023
0230
2300
3002
0203
0320
2030
3200
0320
0032
0203
0320
,
1030
0100
0010
0001
1000
0100
0010
0001
1000
0100
0010
0001
1000
0010
0100
0001
,
1000
0100
0010
0001
0010
0100
1000
0001
0100
0010
1000
0100
0010
0001
0010
0100
,
1000
0001
0100
0010
1000
0100
0010
0001
0010
0100
1000
0001
0100
0010
1000
0100
,
0010
0001
0010
0100
1000
0001
0100
0010
1000
0100
0010
0001
0100
0010
1000
0001
,
0100
0010
1000
0001
0010
0100
0010
0001
1000
0100
0010
0001
1000
0010
0100
0001
,
1000
0100
0010
1000
,
0010
0000
1000
0000
0001
0000
1000
0001
,
1000
0010
0100
0001
,
0010
0000
0000
0000
0001
0000
0000
0000
0100
0000
0010
0000
0100
0000
0010
1000
,
0020
0230
0302
0203
,
0302
0000
0203
0000
0302
0000
0103
0001
,
0101
0010
1000
0001
,
1000
0010
0100
0001
,
1000
0100
0010
0001
1000
0100
0010
0001
1000
0100
0010
0001
1000
0100
0010
0001
1000
0100
0010
0001
1000
0100
0010
0001
1000
0100
0010
0001
1000
0100
0010
0001
,
1000
0100
0010
0001
1000
0100
0010
0001
1000
0100
0010
0001
1000
0100
0010
0001
1000
0100
0010
0001
1000
0100
0010
0001
1000
0100
0010
0001
1000
0100
0010
0001
,
1000
0100
0010
0001
1000
0100
0010
0001
1000
0100
0010
0001
1000
0100
0010
0001
1000
0100
0010
0001
1000
0100
0010
0001
1000
0100
0010
0001
1000
0100
0010
0001
,
1000
0100
0010
0001
1000
0100
0010
0001
1000
0100
0010
0001
1000
0100
0010
0001
1000
0100
0010
0001
1000
0100
0010
0001
1000
0000
0010
0000
0100
0000
0001
0000
,
1000
0100
0010
0001
0010
0100
1000
0001
0100
0010
1000
0100
0010
0001
0010
0100
,
1000
0001
0100
0010
1000
0100
0010
0001
0010
0100
1000
0001
0100
0010
1000
0100
,
0010
0001
0010
0100
1000
0001
0100
0010
1000
0100
0010
0001
0010
0100
1000
0001
,
0100
0010
1000
0100
0010
0001
0010
0100
1000
0001
0100
0010
1000
0100
0010
0001
,
1000
0100
0010
0001
1000
0100
0010
0001
1000
0100
0010
0001
1000
0100
0010
0001
1000
0100
0010
0001
1000
0100
0010
0001
1000
0100
0010
0001
1000
0100
0010
0001
,
1000
0100
0010
0001
1000
0100
0010
0001
1000
0100
0010
0001
1000
0100
0010
0001
1000
0100
0010
0001
1000
0100
0010
0001
1000
0100
0010
0001
1000
0100
0010
0001
,
1000
0100
0010
0001
1000
0100
0010
0001
1000
0100
0010
0001
1000
0100
0010
0001
1000
0100
0010
0001
1000
0100
0010
0001
1000
0100
0010
0001
1000
0100
0010
0001
,
1000
0100
0010
0001
1000
0100
0010
0001
1000
0100
0010
0001
1000
0100
0010
0001
1000
0100
0010
0001
1000
0100
0010
0001
1000
0000
0000
0000
0000
0000
0000
0000
,
1000
0100
0010
0001
0010
0100
1000
0001
0100
0010
1000
0100
0010
0001
0010
0100
,
1000
0001
0100
0010
1000
0100
0010
0001
0010
0100
1000
0001
0100
0010
1000
0100
,
0010
0001
0010
0100
1000
0001
0100
0010
1000
0100
0010
0001
0010
0100
1000
0001
,
0100
0010
1000
0100
0010
0001
0010
0100
1000
0001
0100
0010
1000
0000
0000
0000
,
0001
0010
0100
1000
0001
0100
0010
1000
0100
0010
0001
0010
0100
1000
0001
0100
,
0010
1000
0100
0010
0100
1000
0001
0100
0010
1000
0100
0010
0001
0000
0000
0000
,
0001
0100
0010
1000
0100
0010
0001
0010
0100
1000
0001
0100
0010
1000
0100
0010
,
0001
1000
0100
0010
0001
0010
0100
1000
0001
0100
0010
1000
0001
0000
0000
0000
,
1000
0100
0010
0001
0010
0100
1000
0001
0100
0010
1000
0100
0010
0001
0010
0100
,
1000
0001
0100
0010
1000
0100
0010
0100
1000
0000
0000
0000
0000
0000
0000
0000
,
0001
1000
0100
1000
0001
0100
0010
1000
0001
0010
0100
1000
0100
0010
0001
1000
,
0010
0100
0001
1000
0100
0010
0001
0010
0100
1000
0001
0000
1000
0100
1000
0000
,
0001
0010
0100
1000
0100
0010
0001
0100
0010
1000
0001
0010
0100
1000
0100
0010
,
0001
0100
0010
1000
0001
0010
0100
1000
0001
0100
0010
1000
0001
0010
0100
1000
,
0001
0010
0001
0010
0100
1000
0001
0100
0010
1000
0010
1000
0001
0010
0100
1000
,
0100
0010
0001
0100
0010
1000
0001
0010
0100
1000
0001
0010
0001
0100
0010
0100
,
0001
0010
0001
1000
0100
0010
0001
0100
0010
0100
0001
0010
0100
1000
0001
0100
,
0010
1000
0100
0010
0001
0010
0100
1000
0001
0100
0010
1000
0100
0010
0001
0010
,
0100
1000
0001
0100
0010
1000
0001
0010
0001
1000
0100
0010
0001
1000
0010
0100
,
0001
0100
0010
1000
0001
0010
0100
1000
0100
0010
0001
0100
0010
1000
0001
1000
,
0001
1000
0100
0010
0001
1000
0100
0010
0001
1000
0100
0010
0001
1000
0100
0010
0001
1000
0100
0010
0001
1000
0100
0010
0001
1000
0100
0010
0001
1000
0010
0100
,
0001
0010
0100
1000
0100
0010
0001
0100
0010
1000
0001
0100
0010
1000
0100
0010
,
0001
0010
0100
1000
0001
0010
0100
1000
0001
0010
0100
1000
0001
0010
0100
1000
0001
0010
0100
1000
0001
0010
0100
1000
0001
0010
0100
1000
0001
0010
0100
1000
,
0010
0100
0001
1000
0100
0010
0001
0010
0100
1000
0001
0100
0010
1000
0001
1000
,
0001
0010
0100
1000
0001
0010
0100
1000
0001
0010
0100
1000
0001
0010
0100
1000
0001
0010
0100
1000
0001
0010
0100
1000
0001
0010
0100
1000
0001
0010
0100
1000
,
0001
0100
0010
1000
0001
0100
0010
1000
0100
0000
0010
0000
0001
0000
0000
0000
,
1000
0100
0010
0001
1000
0100
0010
0001
1000
0100
0010
0001
1000
0100
0010
0001
1000
0100
0010
0001
1000
0100
0010
0001
1000
0100
0010
0001
1000
0100
0010
0001
,
1000
0001
1000
0001
1000
0000
0010
0000
,
1000
0010
0100
0001
1000
0100
0010
0001
,
0010
0100
1000
0001
0100
0010
1000
0100
,
0010
0001
0010
0100
1000
0001
0100
0010
,
1000
0000
0100
0000
0010
0000
0001
0000
1000
0010
0100
0001
1000
0010
0100
0001
,
0100
0010
1000
0100
0010
0001
0010
0100
,
1000
0000
0001
0000
0100
0000
0010
0000
0100
0010
0100
0010
0100
0000
0010
0000
,
1000
0100
0010
0001
0010
0100
1000
0001
,
0100
0000
0010
0000
1000
0000
0100
0000
0010
0001
0100
0010
1000
0001
0010
0100
,
1000
0001
0100
0010
,
1000
0000
0010
0000
0100
0010
1000
0001
,
2001
3020
0230
0302
,
2003
0000
0000
0000
3200
0000
0000
0000
0310
0000
0001
0000
1000
0010
0100
0001
,
1000
1000
0010
0100
0001
1000
0100
0010
,
0001
0010
0100
1000
0001
0100
0010
1000
,
0001
0100
0010
1000
0100
0010
0001
0010
,
0100
0000
1000
0000
0001
0000
0100
0000
0010
0000
1000
0000
0001
0010
0100
1000
,
0001
0010
0100
0001
,
0100
0010
0100
1000
,
0010
0100
0001
0010
,
0100
1000
0100
0010
,
0001
0010
0100
1000
,
0100
0010
0001
1000
,
0010
0100
0001
0100
,
0010
0000
0000
0000
0000
0000
1000
0000
0000
0000
0000
0000
0001
0000
0000
0000
0000
0000
0001
0010
0100
1000
0001
0010
,
0100
1000
0001
0100
0010
1000
0100
0010
0001
0010
0100
1000
0001
0100
0010
0100
,
0001
0010
0100
1000
0001
0100
0010
1000
0100
0010
0001
0010
0100
1000
0001
0100
,
0010
1000
0100
0010
0001
0010
0100
1000
0001
0100
0010
1000
0001
0010
0100
1000
,
0001
0100
0010
1000
0001
0010
0100
1000
0001
0100
0010
1000
0001
0010
0100
1000
,
0001
0100
0010
1000
0100
0010
0001
0010
0100
1000
0001
0100
0010
1000
0001
0010
,
0100
1000
0001
0100
0010
1000
0100
0010
0001
0010
0100
1000
0001
0100
0010
1000
,
0100
0010
0100
1000
0001
0100
0010
1000
0001
0010
0100
1000
0001
0100
0010
1000
,
0100
0010
0100
1000
0001
0100
0010
1000
0010
0100
0001
0100
0010
1000
0010
0100
,
0010
0100
0000
0000
1000
0010
0000
0000
,
1000
0000
0010
0000
0000
0000
0000
0000
1000
0000
0010
0000
0000
0000
0001
0100
,
0010
0010
0000
0000
0010
0010
0000
0000
,
0010
0010
0000
0100
1000
1000
0001
0001
,
1001
0010
0000
0000
0010
0010
0000
0000
,
0100
0000
0100
0000
0000
0000
0000
0000
0001
0000
0001
0000
0000
0000
0001
1000
,
0010
0100
0000
0000
0010
0100
0000
0000
,
0010
0100
0000
1000
0010
0100
0001
0100
,
0010
0000
0100
0000
0010
0000
1000
0000
0010
0000
0100
0000
0001
0000
1000
0010
,
0100
0001
0010
0100
1000
0001
0100
0000
,
0010
0000
1000
0000
0100
0000
0010
0000
0001
0000
0100
0000
0010
0000
1000
0001
,
0100
0010
1000
0100
0010
0001
1000
0000
,
0001
0010
0100
1000
0001
0010
0100
1000
0004
0000
0000
0000
0000
0000
0000
0000
0403
0000
0000
0000
0000
0000
0000
0000
0340
0000
0000
0000
0000
0000
0000
0000
,
1030
0100
0010
0001
1000
0100
0010
0001
4000
0000
0000
0000
0000
0000
0000
0000
3040
0000
0000
0000
0000
0000
0000
0000
0430
0000
0000
0000
0000
0000
0000
0000
,
0301
0010
0100
1000
0100
0010
0001
1000
0040
0000
0000
0000
0000
0000
0000
0000
0430
0000
0000
0000
0000
0000
0000
0000
0304
0000
0000
0000
0000
0000
0000
0000
,
1003
0010
0100
0001
1000
0100
0010
0001
0040
0000
0000
0000
0000
0000
0000
0000
0034
0000
0000
0000
0000
0000
0000
0000
0403
0000
0000
0000
0000
0000
0000
0000
,
0301
0000
0010
0000
0100
0000
1000
0000
0001
0010
0100
1000
0001
0010
0100
1000
0001
0000
0100
0000
0010
0000
1000
0000
0100
0010
0001
1000
0100
0010
0001
1000
,
0100
0000
0010
0000
0001
0000
0100
0000
0010
1000
0010
0100
0001
1000
0010
0100
0001
0000
1000
0000
0100
0000
0010
0000
0001
0010
0100
1000
0001
0010
0100
1000
,
0001
0000
0100
0000
0010
0000
1000
0000
0001
0010
0100
1000
0001
0010
0100
1000
0001
0000
0100
0000
0010
0000
1000
0000
0001
0010
0100
1000
0001
0010
0100
1000
,
0001
0000
0010
0000
0100
0000
1000
0000
0001
0010
0100
1000
0001
0010
0100
1000
0001
0000
0010
0000
0100
0000
1000
0000
0001
0010
0100
1000
0001
0010
0100
1000
,
0001
0100
0010
1000
0001
0010
0100
1000
0100
0010
0001
0100
0010
1000
0001
0010
,
0100
1000
0001
0100
0010
1000
0100
0010
0001
0010
0100
1000
0001
0100
0010
1000
,
0100
0010
0001
0010
0100
1000
0001
0100
0010
1000
0001
0010
0100
1000
0100
0010
,
0001
0010
0100
1000
0001
0100
0010
1000
0100
0010
0001
0010
0100
1000
0001
0010
,
0100
1000
0001
0100
0010
1000
0100
0010
0001
1000
0010
1000
0010
0100
0001
1000
,
0100
0010
0001
0010
0100
1000
0001
0100
0010
1000
0100
0010
0001
1000
0100
0010
,
0001
0100
0010
1000
0001
0010
0100
1000
0001
0100
0010
1000
0100
0010
0001
1000
,
0100
0010
0001
0010
0100
1000
0001
0100
0010
1000
0100
0010
0001
0010
0100
1000
,
0001
0100
0010
1000
0100
0010
0001
0010
0100
1000
0001
0100
0010
1000
0100
0010
,
0001
0010
0100
1000
0001
0100
0010
1000
0100
0010
0001
0100
0010
1000
0001
0010
,
0100
1000
0100
0010
0001
0010
0100
1000
0001
0100
0010
1000
0100
0010
0100
1000
,
0001
0010
0100
1000
0001
0100
0010
1000
0100
0010
0001
0100
0010
1000
0001
1000
,
0001
0010
0100
1000
0001
0010
0100
1000
0001
0010
0100
1000
0001
0010
0100
1000
0001
0010
0100
1000
0001
0010
0100
1000
0001
0010
0100
1000
0001
0010
0100
1000
,
0001
0010
0100
1000
0001
0010
0100
1000
0001
0010
0100
1000
0001
0010
0100
1000
0001
0010
0100
1000
0001
0010
0100
1000
0001
0010
0100
1000
0001
0010
0100
1000
,
0001
0010
0100
1000
0001
0010
0100
1000
0001
0010
0100
1000
0001
0010
0100
1000
0001
0010
0100
1000
0001
0010
0100
1000
0001
0010
0100
1000
0001
0010
0100
1000
,
0001
0010
0100
1000
0001
0010
0100
1000
0001
0010
0100
1000
0001
0010
0100
1000
0001
0000
1000
0000
0010
0000
0100
0000
0001
0000
0100
0000
0010
0000
1000
0000
,
0001
0010
0100
1000
0100
0010
0001
0100
0010
1000
0001
0010
0100
1000
0100
0010
,
0001
0100
0010
1000
0001
0010
0100
1000
0001
0010
0100
1000
0001
0100
0010
1000
,
0001
0010
0100
1000
0001
0010
0100
1000
0001
0010
0100
1000
0001
0010
0100
1000
0001
0010
0100
1000
0001
0010
0100
1000
0001
0010
0100
1000
0001
0010
0100
1000
,
0001
0010
0100
1000
0001
0010
0100
1000
0001
0010
0100
1000
0001
0010
0100
1000
0001
0000
0100
0000
0010
0000
1000
0000
0001
0000
0100
0000
0010
0000
1000
0000
,
0001
0010
0100
1000
0100
0010
0001
0100
0010
1000
0001
0010
0100
1000
0100
0010
,
0001
0010
0100
1000
0001
0100
0010
1000
0100
0010
0001
0010
0100
1000
0001
0100
,
0010
1000
0001
0010
0100
1000
0001
0100
0001
1000
0010
0100
0001
1000
0100
0010
,
0001
0010
0100
1000
0001
0100
0010
1000
0100
0010
0001
0010
0100
1000
0001
0100
,
0010
1000
0100
0010
0001
0010
0100
1000
0001
0100
0010
1000
0100
0010
0001
0010
,
0100
1000
0001
0010
0100
1000
0100
0010
0001
0100
0010
1000
0001
0010
0100
1000
,
0100
0010
0001
0100
0010
1000
0001
0010
0100
1000
0001
0100
0010
1000
0100
0010
,
0001
0010
0100
1000
0001
0100
0010
1000
0100
0010
0100
1000
0001
0100
0001
0010
,
0001
0010
0100
1000
,
0001
0100
0010
1000
,
0100
0010
0100
1000
,
0001
0100
0010
1000
,
0100
0010
0100
1000
,
0001
0100
0010
1000
,
0100
0010
0001
0100
,
0010
1000
0100
0010
,
0100
0000
0000
0000
;

//---------------dance-single - ----------------
#NOTES:
     dance-single:
     :
     Medium:
     23:
     1.000,1.000,0.080,0.062,1.000,2708.000,18.000,14.000,0.000,0.000:
1001
1000
0010
0100
,
0001
0000
1000
0000
0010
0010
0000
0010
,
0010
1100
0010
1100
,
0010
1100
1001
1001
,
1001
0001
0011
0001
,
1001
0000
1000
0000
0010
0010
0000
0100
,
0100
0101
0010
1010
,
0001
0101
1001
1001
,
1001
1000
0100
0010
0001
0010
0100
1000
,
0001
0000
0100
0000
0010
0000
1000
0000
0100
0010
0001
0100
0010
1000
0010
0100
,
0001
0100
0010
1000
0001
0010
0100
1000
,
0100
0000
0010
0000
0001
0000
0100
0000
0010
1000
0010
0100
0001
0100
0010
1000
,
0010
0100
0001
0010
0100
1000
0001
0100
0010
1000
0100
0010
0001
0010
0100
1000
,
0001
0100
0010
1000
0100
0010
0001
0010
0100
1000
0001
0100
0010
1000
0001
0010
,
0100
1000
0001
0100
0010
1000
0100
0010
0001
0010
0100
1000
0001
0100
0010
1000
,
0100
0010
0001
0010
0100
1000
0010
0100
0001
1000
0100
0010
0001
0010
0100
1000
,
0001
0100
0010
1000
0100
0010
0001
0010
0100
1000
0001
0100
0010
1000
0100
0010
,
0001
0010
0100
1000
0001
0100
0010
1000
0100
0010
0001
1000
0100
0010
0001
1000
,
0001
0000
0000
0002
,
1003
0001
0100
0010
1000
0100
0010
0001
1000
0010
1000
0010
0100
0001
1000
0100
,
0010
0001
0010
0001
1000
0100
0010
0001
0010
0100
1000
0001
0100
0001
0100
0010
,
1000
0100
0010
0001
0100
0010
1000
0001
0010
0100
1000
0100
0010
0100
1000
0001
,
0100
0010
0100
0001
0100
0010
1000
0010
0100
0001
0100
0010
1000
0000
0000
0000
,
0001
0100
0010
1000
0001
0010
0100
1000
0001
0100
0010
1000
0001
0010
0100
1000
,
0001
0100
0010
1000
0001
0010
0100
1000
0001
0100
0010
1000
0001
0010
0100
1000
,
0001
0100
0010
1000
0100
0010
0001
0100
0010
1000
0001
0010
0100
1000
0100
0010
,
0001
0100
0010
1000
0001
0010
0100
1000
0100
0010
0001
1000
0001
0000
0000
0000
,
1000
0010
0100
0001
1000
0100
0010
0001
0010
0100
1000
0001
0100
0010
1000
0100
,
0010
0001
0010
0100
1000
0001
0100
0010
1000
0100
0010
0001
0010
0100
1000
0001
,
0100
0010
1000
0100
0010
0100
1000
0001
0100
0010
1000
0001
0010
0100
1000
0001
,
0100
0010
1000
0100
0010
0001
0010
0100
1000
0001
0100
0001
1000
0100
0010
0001
,
1000
0100
0010
0001
0100
0010
1000
0001
0010
0001
1000
0100
0010
0001
0010
0100
,
1000
0001
0100
0010
1000
0001
0010
0100
1000
0100
0010
0001
0100
0010
0100
0001
,
0010
0100
1000
0100
0010
0001
0010
0100
1000
0001
0100
0010
1000
0100
0010
0001
,
0010
0100
1000
0001
0100
0010
1000
0100
0010
0001
0010
0100
1000
0001
1000
0100
,
1000
0010
0100
0001
1000
0100
0010
0001
0010
0100
1000
0001
0100
0010
1000
0100
,
0010
0001
0010
0100
1000
0001
0100
0010
1000
0100
0010
0001
0010
0100
1000
0001
,
0100
0010
1000
0001
0010
0100
1000
0001
0100
0010
1000
0100
0010
0001
0010
0100
,
1000
0001
0100
0010
1000
0100
0010
0001
0010
0100
1000
0001
0100
0010
1000
0100
,
0010
0001
0010
0100
1000
0001
0100
0010
1000
0100
0010
0001
0010
0100
1000
0001
,
0100
0010
1000
0100
0010
0001
0010
0100
1000
0001
0100
0010
1000
0100
0010
0001
,
1000
0010
0100
0001
1000
0100
0010
0001
0010
0100
1000
0001
0100
0010
1000
0100
,
0010
0100
1000
0001
0010
0100
1000
0001
0100
0010
1000
0100
0010
0001
0010
0100
,
1000
0010
1000
0010
0100
0001
0100
0001
,
1000
0100
1000
0100
0010
0001
0010
0001
,
0100
0010
0100
0010
1000
0001
1000
0001
,
1000
0100
1000
0100
0010
0001
0010
0001
,
1000
0010
0100
0001
1000
0100
0010
0001
0010
0100
1000
0001
0100
0010
1000
0100
,
0010
0001
0010
0100
1000
0001
0100
0010
1000
0100
0010
0001
0010
0100
1000
0001
,
0100
0010
1000
0100
0010
0001
0010
0100
1000
0001
0100
0010
1000
0100
0010
0001
,
0010
0100
1000
0001
0100
0010
1000
0100
0010
0001
0010
0100
1000
0001
0100
0010
,
1000
0010
0100
0001
1000
0100
0010
0001
1000
0010
0100
0001
1000
0100
0010
0001
,
1000
0100
0010
0001
1000
0010
0100
0001
1000
0100
0010
0001
1000
0010
0100
0001
,
1000
0100
0010
0001
1000
0100
0010
0001
1000
0010
0100
0001
1000
0100
0010
0001
,
1000
0010
0100
0001
1000
0100
0010
0001
1000
0010
0100
0001
1000
0100
0010
0001
,
1000
0010
0100
0001
1000
0100
0010
0001
0010
0100
1000
0001
0100
0010
1000
0100
,
0010
0001
1000
0010
0100
0001
1000
0100
0010
0001
1000
0010
0100
0001
0010
0100
,
1000
0001
0100
0010
1000
0100
0010
0001
0010
0100
1000
0001
0100
0010
1000
0100
,
0010
0001
0010
0100
1000
0001
0100
0010
1000
0100
0010
0001
1000
0100
0010
0001
,
1000
0100
0010
0100
1000
0001
0100
0010
1000
0001
0100
0010
1000
0001
0010
0100
,
1000
0100
0010
0001
0100
0010
1000
0001
0010
0100
1000
0001
0100
0010
1000
0100
,
0010
0001
0010
0100
1000
0001
0100
0010
1000
0100
0010
0001
0100
0010
1000
0100
,
1000
0010
0100
0001
0100
0000
0010
0000
1000
0000
0000
0000
0001
0000
0000
0000
,
0001
0010
0100
1000
0100
0010
0001
0100
0010
1000
0001
0010
0100
1000
0100
0010
,
0001
0100
0010
1000
0001
0010
0100
1000
0100
0010
0001
0100
0010
1000
0001
0010
,
0100
1000
0100
0010
0001
0100
0010
1000
0001
0010
0100
1000
0100
0010
0001
0100
,
0001
0100
0010
1000
0001
0000
0100
0000
0010
0000
0000
0000
1000
0000
0000
0000
,
0001
0010
0100
1000
0100
0010
0001
0100
0010
0100
0001
0010
0100
1000
0100
0010
,
0001
1000
0010
0100
0001
1000
0100
0010
0001
0010
0100
1000
0001
0100
0010
1000
,
0001
0010
0100
1000
0001
0100
0010
1000
0001
0100
0010
1000
0001
0010
0100
1000
,
0001
0010
0100
1000
0001
0010
0100
1000
0001
0010
0100
1000
0001
0100
0010
1000
,
0001
0010
0100
1000
0100
0010
0001
1000
0010
0100
0001
0010
0100
1000
0100
0010
,
0001
1000
0010
0100
0001
0010
0100
1000
0100
0010
0001
1000
0010
0100
0001
0010
,
0100
1000
0100
0010
0001
1000
0010
0100
0001
0010
0100
1000
0010
0100
0001
1000
,
0010
0100
0001
1000
0100
0010
0100
1000
0001
0010
0100
1000
0001
0100
0010
1000
,
0100
0010
0010
1000
,
0010
0000
1000
0000
0001
0000
1000
0001
,
1000
0010
0100
0001
,
0010
0000
0000
0000
0001
0000
0000
0000
0100
0000
0010
0000
0100
0000
0010
1000
,
0020
0230
0302
0203
,
0302
0000
0203
0000
0302
0000
0103
0001
,
0101
0010
1000
0001
,
1000
0010
0100
0001
,
1000
0100
0010
0001
0010
0100
1000
0001
0100
0010
1000
0100
0010
0001
0010
0100
,
1000
0001
0100
0010
1000
0001
0010
0100
1000
0001
0100
0010
1000
0100
0010
0001
,
0010
0100
1000
0001
0100
0010
0100
0001
0100
0010
0100
0001
1000
0100
1000
0001
,
1000
0100
1000
0001
0100
0010
0100
0001
0100
0010
1000
0001
1000
0010
0100
0001
,
1000
0100
0010
0001
0010
0100
1000
0001
0100
0010
1000
0100
0010
0001
0010
0100
,
1000
0001
0100
0010
1000
0100
0010
0001
0010
0100
1000
0001
0100
0010
1000
0100
,
0010
0001
0010
0100
1000
0001
0100
0010
1000
0100
0010
0001
0010
0100
1000
0001
,
0100
0010
1000
0100
0010
0001
0010
0100
1000
0001
0100
0010
1000
0100
0010
0001
,
1000
0100
0010
0001
0010
0100
1000
0001
0100
0010
0100
0001
0010
0100
1000
0001
,
0100
0010
1000
0100
0010
0001
0100
0010
1000
0001
0010
0100
1000
0100
0010
0001
,
0100
0010
0100
0001
0010
0100
1000
0001
0100
0010
1000
0100
0010
0001
0100
0010
,
1000
0001
0010
0100
1000
0001
0100
0010
1000
0100
0010
0001
1000
0000
0000
0000
,
1000
0100
0010
0001
0010
0100
1000
0001
0100
0010
1000
0100
0010
0001
0010
0100
,
1000
0001
0100
0010
1000
0100
0010
0001
0010
0100
1000
0001
0100
0010
1000
0100
,
0010
0001
0010
0100
1000
0001
0100
0010
1000
0100
0010
0001
0010
0100
1000
0001
,
0100
0010
1000
0100
0010
0001
0010
0100
1000
0001
0100
0010
1000
0000
0000
0000
,
0001
0010
0100
1000
0001
0100
0010
1000
0100
0010
0001
0010
0100
1000
0001
0100
,
0010
1000
0100
0010
0100
1000
0001
0100
0010
1000
0100
0010
0001
0000
0000
0000
,
0001
0100
0010
1000
0100
0010
0001
0010
0100
1000
0001
0100
0010
1000
0100
0010
,
0001
1000
0100
0010
0001
0010
0100
1000
0001
0100
0010
1000
0001
0000
0000
0000
,
1000
0100
0010
0001
0010
0100
1000
0001
0100
0010
1000
0100
0010
0001
0010
0100
,
1000
0001
0100
0010
1000
0100
0010
0100
1000
0000
0000
0000
0000
0000
0000
0000
,
0001
1000
0100
1000
0001
0100
0010
1000
0001
0010
0100
1000
0100
0010
0001
1000
,
0010
0100
0001
1000
0100
0010
0001
0010
0100
1000
0001
0000
1000
0100
1000
0000
,
0001
0010
0100
1000
0100
0010
0001
0100
0010
1000
0001
0010
0100
1000
0100
0010
,
0001
0100
0010
1000
0001
0010
0100
1000
0001
0100
0010
1000
0001
0010
0100
1000
,
0001
0010
0001
0010
0100
1000
0001
0100
0010
1000
0010
1000
0001
0010
0100
1000
,
0100
0010
0001
0100
0010
1000
0001
0010
0100
1000
0001
0010
0001
0100
0010
0100
,
0001
0010
0001
1000
0100
0010
0001
0100
0010
0100
0001
0010
0100
1000
0001
0100
,
0010
1000
0100
0010
0001
0010
0100
1000
0001
0100
0010
1000
0100
0010
0001
0010
,
0100
1000
0001
0100
0010
1000
0001
0010
0001
1000
0100
0010
0001
1000
0010
0100
,
0001
0100
0010
1000
0001
0010
0100
1000
0100
0010
0001
0100
0010
1000
0001
1000
,
0001
0010
0100
1000
0100
0010
0001
0100
0010
1000
0100
0010
0001
0100
0001
0010
,
0001
0010
0100
1000
0100
0010
0001
0100
0010
1000
0001
0100
0010
1000
0100
0010
,
0001
0010
0100
1000
0001
0100
0010
1000
0001
0010
0001
1000
0100
0010
0100
1000
,
0010
0100
0001
1000
0100
0010
0001
0010
0100
1000
0001
0100
0010
1000
0001
1000
,
0001
0010
0100
1000
0100
0010
0001
0100
0010
1000
0100
0010
0100
1000
0001
0100
,
0001
0100
0010
1000
0001
0100
0010
1000
0100
0000
0010
0000
0001
0000
0000
0000
,
1000
0100
0010
0001
0010
0100
1000
0001
0100
0010
1000
0100
0010
0001
0100
0010
,
1000
0001
1000
0001
1000
0000
0010
0000
,
1000
0010
0100
0001
1000
0100
0010
0001
,
0010
0100
1000
0001
0100
0010
1000
0100
,
0010
0001
0010
0100
1000
0001
0100
0010
,
1000
0000
0100
0000
0010
0000
0001
0000
1000
0010
0100
0001
1000
0010
0100
0001
,
0100
0010
1000
0100
0010
0001
0010
0100
,
1000
0000
0001
0000
0100
0000
0010
0000
0100
0010
0100
0010
0100
0000
0010
0000
,
1000
0100
0010
0001
0010
0100
1000
0001
,
0100
0000
0010
0000
1000
0000
0100
0000
0010
0001
0100
0010
1000
0001
0010
0100
,
1000
0001
0100
0010
,
1000
0000
0010
0000
0100
0010
1000
0001
,
2001
3020
0230
0302
,
2003
0000
0000
0000
3200
0000
0000
0000
0310
0000
0001
0000
1000
0010
0100
0001
,
1000
1000
0010
0100
0001
1000
0100
0010
,
0001
0010
0100
1000
0001
0100
0010
1000
,
0001
0100
0010
1000
0100
0010
0001
0010
,
0100
0000
1000
0000
0001
0000
0100
0000
0010
0000
1000
0000
0001
0010
0100
1000
,
0001
0010
0100
0001
,
0100
0010
0100
1000
,
0010
0100
0001
0010
,
0100
1000
0100
0010
,
0001
0010
0100
1000
,
0100
0010
0001
1000
,
0010
0100
0001
0100
,
0010
1000
0001
0001
,
0001
1000
0001
0100
0010
1000
0100
0010
0001
0010
0100
1000
0001
0100
0010
0100
,
0001
0010
0100
1000
0001
0100
0010
1000
0100
0010
0001
0010
0100
1000
0001
0100
,
0010
1000
0100
0010
0001
0010
0100
1000
0001
0100
0010
1000
0001
0010
0100
1000
,
0001
0100
0010
1000
0001
0010
0100
1000
0001
0100
0010
1000
0001
0010
0100
1000
,
0001
0100
0010
1000
0100
0010
0001
0010
0100
1000
0001
0100
0010
1000
0001
0010
,
0100
1000
0001
0100
0010
1000
0100
0010
0001
0010
0100
1000
0001
0100
0010
1000
,
0100
0010
0100
1000
0001
0100
0010
1000
0001
0010
0100
1000
0001
0100
0010
1000
,
0100
0010
0100
1000
0001
0100
0010
1000
0010
0100
0001
0100
0010
1000
0010
0100
,
0010
0100
0000
0000
1000
0010
0000
0000
,
1000
0000
0010
0000
0000
0000
0000
0000
1000
0000
0010
0000
0000
0000
0001
0100
,
0010
0010
0000
0000
0010
0010
0000
0000
,
0010
0010
0000
0100
1000
1000
0001
0001
,
1001
0010
0000
0000
0010
0010
0000
0000
,
0100
0000
0100
0000
0000
0000
0000
0000
0001
0000
0001
0000
0000
0000
0001
1000
,
0010
0100
0000
0000
0010
0100
0000
0000
,
0010
0100
0000
1000
0010
0100
0001
0100
,
0010
0000
0100
0000
0010
0000
1000
0000
0010
0000
0100
0000
0001
0000
1000
0010
,
0100
0001
0010
0100
1000
0001
0100
0000
,
0010
0000
1000
0000
0100
0000
0010
0000
0001
0000
0100
0000
0010
0000
1000
0001
,
0100
0010
1000
0100
0010
0001
1000
0000
,
0001
0010
0100
1000
0100
0010
0001
0100
0010
1000
0001
0100
0010
1000
0001
0010
,
0100
1000
0001
1000
0100
0010
0001
1000
0010
0100
0001
0100
0010
1000
0001
0010
,
0100
1000
0001
0100
0010
1000
0100
0010
0001
0010
0100
1000
0001
0100
0010
0100
,
0001
0010
0001
1000
0100
1000
0010
0100
0010
1000
0100
0010
0001
1000
0010
0100
,
0001
0010
0001
1000
0100
0010
0100
1000
0010
1000
0100
1000
0001
0100
0010
0100
,
0001
0100
0010
1000
0001
0100
0010
0100
0010
1000
0010
0100
0001
1000
0100
0010
,
0001
0010
0100
1000
0001
0100
0010
1000
0100
0010
0100
1000
0001
0100
0010
1000
,
0100
0010
0100
1000
0001
0100
0010
1000
0100
0010
0100
1000
0001
0100
0010
1000
,
0001
0100
0010
1000
0001
0010
0100
1000
0100
0010
0001
0100
0010
1000
0001
0010
,
0100
1000
0001
0100
0010
1000
0100
0010
0001
0010
0100
1000
0001
0100
0010
1000
,
0100
0010
0001
0010
0100
1000
0001
0100
0010
1000
0001
0010
0100
1000
0100
0010
,
0001
0010
0100
1000
0001
0100
0010
1000
0100
0010
0001
0010
0100
1000
0001
0010
,
0100
1000
0001
0100
0010
1000
0100
0010
0001
1000
0010
1000
0010
0100
0001
1000
,
0100
0010
0001
0010
0100
1000
0001
0100
0010
1000
0100
0010
0001
1000
0100
0010
,
0001
0100
0010
1000
0001
0010
0100
1000
0001
0100
0010
1000
0100
0010
0001
1000
,
0100
0010
0001
0010
0100
1000
0001
0100
0010
1000
0100
0010
0001
0010
0100
1000
,
0001
0100
0010
1000
0100
0010
0001
0010
0100
1000
0001
0100
0010
1000
0100
0010
,
0001
0010
0100
1000
0001
0100
0010
1000
0100
0010
0001
0100
0010
1000
0001
0010
,
0100
1000
0100
0010
0001
0010
0100
1000
0001
0100
0010
1000
0100
0010
0100
1000
,
0001
0010
0100
1000
0001
0100
0010
1000
0100
0010
0001
0100
0010
1000
0001
1000
,
0001
0010
0100
1000
0001
0010
0100
1000
0001
0010
0100
1000
0001
0010
0100
1000
0001
0010
0100
1000
0001
0010
0100
1000
0001
0010
0100
1000
0001
0010
0100
1000
,
0001
0010
0100
1000
0001
0010
0100
1000
0001
0010
0100
1000
0001
0010
0100
1000
0001
0010
0100
1000
0001
0010
0100
1000
0001
0010
0100
1000
0001
0010
0100
1000
,
0001
0010
0100
1000
0001
0010
0100
1000
0001
0010
0100
1000
0001
0010
0100
1000
0001
0010
0100
1000
0001
0010
0100
1000
0001
0010
0100
1000
0001
0010
0100
1000
,
0001
0010
0100
1000
0001
0010
0100
1000
0001
0010
0100
1000
0001
0010
0100
1000
0001
0000
1000
0000
0010
0000
0100
0000
0001
0000
0100
0000
0010
0000
1000
0000
,
0001
0010
0100
1000
0100
0010
0001
0100
0010
1000
0001
0010
0100
1000
0100
0010
,
0001
0100
0010
1000
0001
0010
0100
1000
0001
0010
0100
1000
0001
0100
0010
1000
,
0001
0010
0100
1000
0001
0010
0100
1000
0001
0010
0100
1000
0001
0010
0100
1000
0001
0010
0100
1000
0001
0010
0100
1000
0001
0010
0100
1000
0001
0010
0100
1000
,
0001
0010
0100
1000
0001
0010
0100
1000
0001
0010
0100
1000
0001
0010
0100
1000
0001
0000
0100
0000
0010
0000
1000
0000
0001
0000
0100
0000
0010
0000
1000
0000
,
0001
0010
0100
1000
0100
0010
0001
0100
0010
1000
0001
0010
0100
1000
0100
0010
,
0001
0010
0100
1000
0001
0100
0010
1000
0100
0010
0001
0010
0100
1000
0001
0100
,
0010
1000
0001
0010
0100
1000
0001
0100
0001
1000
0010
0100
0001
1000
0100
0010
,
0001
0010
0100
1000
0001
0100
0010
1000
0100
0010
0001
0010
0100
1000
0001
0100
,
0010
1000
0100
0010
0001
0010
0100
1000
0001
0100
0010
1000
0100
0010
0001
0010
,
0100
1000
0001
0010
0100
1000
0100
0010
0001
0100
0010
1000
0001
0010
0100
1000
,
0100
0010
0001
0100
0010
1000
0001
0010
0100
1000
0001
0100
0010
1000
0100
0010
,
0001
0010
0100
1000
0001
0100
0010
1000
0100
0010
0100
1000
0001
0100
0001
0010
,
0001
0010
0100
1000
,
0001
0100
0010
1000
,
0100
0010
0100
1000
,
0001
0100
0010
1000
,
0100
0010
0100
1000
,
0001
0100
0010
1000
,
0100
0010
0001
0100
,
0010
1000
0100
0010
,
0100
0000
0000
0000
;

//---------------dance-single - ----------------
#NOTES:
     dance-single:
     :
     Easy:
     11:
     0.841,1.000,0.223,0.463,0.085,1167.000,50.000,104.000,0.000,0.000:

1001
0001
0100
0010
,
1000
0000
0010
0000
1000
0010
0000
0010
,
1000
0010
0100
0001
,
0010
0001
1001
1001
,
1001
0010
0100
0010
,
1000
0000
0010
0000
1000
0010
0000
0010
,
1000
0001
0100
0001
,
1001
0010
1001
1001
,
1001
0010
0100
0010
,
1000
0010
1000
0000
0001
0000
0100
0000
,
0001
0010
0001
0000
0010
0000
0001
0000
,
1000
0000
0001
0000
0100
0001
0100
0000
,
0001
1000
0001
1000
0001
1000
0001
1000
,
0010
0100
0010
0100
0010
0100
0010
0100
,
0001
0010
0001
0010
0001
0010
0001
0010
,
0001
1000
0001
1000
0001
1000
0001
1000
,
0010
0100
0010
1000
0010
0100
0001
0010
,
0100
1000
0100
0010
0001
1000
0001
0100
,
0001
0000
0000
0000
,
0001
1000
0001
1000
0001
1000
0001
0100
,
0010
1000
0001
0100
0001
0010
0100
1000
,
0100
0010
0001
1000
0001
0100
0001
1000
,
0001
0010
0001
1000
0010
0100
0010
1000
,
0100
0010
0001
1000
0001
0100
0001
1000
,
0001
0010
0001
1000
0001
0100
0001
0100
,
0010
1000
0001
0010
0100
1000
0001
0100
,
0010
1000
0001
1000
0100
0010
0001
1000
,
0100
1000
0001
1000
0010
1000
0001
1000
,
0010
0100
0001
0010
0001
1000
0001
0010
,
0001
1000
0001
0010
0001
1000
0001
1000
,
0100
1000
0001
1000
0010
1000
0001
1000
,
0010
1000
0001
1000
0001
0100
0010
1000
,
0010
0100
0001
0010
0100
1000
0001
0010
,
0100
1000
0001
0010
0001
1000
0001
0010
,
0001
0010
0001
1000
0001
1000
0001
1000
,
0001
0010
0100
0010
,
1000
0010
0100
0010
,
1000
0001
0100
0010
,
1000
0010
0100
0001
,
1001
0010
0100
0010
,
1000
0010
0100
0001
,
0010
0100
1000
0001
,
0100
0010
1000
0010
,
1000
0001
0100
0010
,
1000
0001
0010
0100
,
1000
0001
0100
0010
,
1000
0001
1000
0001
,
1000
0100
1000
0100
,
0010
0001
0100
0010
,
1000
0010
0100
0001
,
0010
0100
1000
0001
,
1000
0010
0100
0010
,
1000
0001
0010
0100
,
1000
0001
0100
0010
,
1000
0001
1000
0001
,
1000
0010
0100
0001
,
0010
0100
1000
0100
,
0010
0001
0100
0010
,
1000
0001
1000
0001
,
0100
0001
0010
0100
1000
0001
0010
0100
,
1000
0010
0100
0001
1000
0100
0010
0001
,
0100
0010
0100
0001
0010
0100
1000
0001
,
0100
0010
1000
0100
0010
0001
0100
0010
,
1000
0001
0010
0100
1000
0100
0010
0001
,
0100
0010
1000
0001
0100
0010
1000
0001
,
0010
0100
1000
0100
0010
0001
0100
0010
,
1000
0001
0100
0010
1000
0100
0010
0001
,
0100
0010
0100
0001
1000
0100
1000
0001
,
0100
0010
1000
0001
0010
0100
1000
0100
,
0010
0001
0100
0010
1000
0001
0010
0100
,
1000
0100
0010
0001
0100
0010
0100
0001
,
0010
0100
1000
0001
0100
0010
1000
0100
,
0010
0001
0100
0010
1000
0001
0010
0100
,
1000
0100
0010
0001
0100
0010
1000
0001
,
0100
0010
1000
0100
0010
0001
1000
0001
,
1000
0010
0100
0001
,
0010
0001
0100
0001
,
1000
0010
0100
0010
,
0100
0010
1000
0010
,
0010
1000
0010
0100
,
0001
0010
0001
0100
,
0010
1000
0010
0100
,
0010
1000
0010
1000
,
0001
1000
0001
1000
0010
0100
0010
0100
,
0001
0010
0001
0010
0100
1000
0100
1000
,
0001
0100
0001
0100
0010
1000
0010
1000
,
0001
0010
0001
0010
0100
1000
0100
1000
,
0001
0100
0001
0100
0010
1000
0010
1000
,
0001
0100
0010
0100
0001
0100
0010
0100
,
0001
1000
0100
1000
0001
1000
0100
1000
,
0001
0100
0010
0100
0001
0100
0010
0100
,
0001
1000
0100
0010
0001
1000
0100
0010
,
0001
0100
0010
1000
0001
0010
0100
1000
,
0100
0010
0001
0100
0010
1000
0100
0010
,
0100
1000
0001
0100
0010
1000
0100
0010
,
0001
0100
0010
1000
0001
0010
0100
1000
,
0100
0010
0001
0100
0010
1000
0001
0010
,
0100
1000
0100
0010
0001
0100
0010
1000
,
0100
0010
0100
1000
0001
0100
0010
0000
,
1000
0001
1000
0001
1000
0000
0000
0000
0001
1000
0001
1000
0001
0000
0000
0000
,
1000
0001
1000
0001
1000
0000
0000
0000
0001
1000
0001
1000
0001
0000
0000
0000
,
0100
0010
0100
0010
0100
0000
0000
0000
0010
0100
0010
0100
0010
0000
0000
0000
,
0100
0010
0100
0010
0100
0000
0000
0000
0010
0100
0010
0100
0010
0000
0000
0000
,
1000
0001
1000
0001
1000
0000
0000
0000
0001
1000
0001
1000
0001
0000
0000
0000
,
1000
0001
1000
0001
1000
0000
0000
0000
0000
0000
0000
0000
0000
0000
0000
0000
,
1000
0100
0010
0001
1000
0100
0010
0001
,
1000
0010
0100
0001
1000
0000
0000
0000
,
0002
2003
3002
2003
3002
2003
3002
2003
,
3002
0203
0302
0203
0302
0203
0302
0203
,
0320
2030
3020
2030
3020
2030
3020
2030
,
3002
0203
0302
0203
0302
0203
0302
0203
,
0320
2030
3020
2030
3020
2030
3020
2030
,
3002
0203
0302
0203
0302
0203
0302
0203
,
0310
1000
0010
1000
0010
1000
0010
1000
,
0002
0203
0320
2030
,
3200
0000
0000
0000
,
0310
0001
0010
0001
0010
0001
0010
0001
0010
0001
0010
0001
0010
0001
0010
0001
,
0020
0000
0000
0000
,
0130
1000
0100
1000
0100
1000
0100
1000
0100
1000
0100
1000
0100
1000
0100
1000
,
0200
0000
0000
0000
,
0310
0001
0010
0001
0010
0001
1000
0000
,
0020
0000
0000
0000
,
0130
0001
0100
0001
0100
0000
0010
0000
,
1000
0010
0100
0001
1000
0100
0010
0001
,
0010
0100
1000
0001
0100
0010
1000
0100
,
0010
0001
0100
0010
1000
0001
0010
0100
,
1000
0100
0010
0001
0100
0010
1000
0001
,
0100
0010
1000
0100
0010
0001
0100
0010
,
1000
0010
0100
0001
1000
0100
0010
0000
,
0001
0100
0010
1000
0001
0100
0010
1000
,
0100
0010
0001
0010
0100
1000
0001
0100
,
0010
1000
0010
0100
,
0001
0010
0001
1000
,
0010
0100
0001
0010
,
0001
0100
0010
1000
,
1010
0010
0100
0001
,
0010
0001
0100
0001
,
1001
0010
1000
0010
,
0100
0001
0010
0001
,
1001
0010
0100
0010
,
1000
0010
0100
0001
,
0010
0100
1000
0100
,
0010
0100
1000
0001
,
0100
0001
1000
0010
,
0100
0001
1000
0100
,
0010
0001
0010
0100
,
1000
0000
0001
0000
0100
0000
0040
0030
,
1001
0001
0100
0010
,
1000
0100
0010
0001
,
0100
0010
1000
0100
,
0010
0100
1000
0001
,
0100
0010
1000
0100
,
0010
0100
1000
0001
,
0100
0010
1000
0100
,
0010
0100
1000
0001
,
1000
1000
0000
0000
0010
0010
0000
0000
,
0100
0100
0000
0000
0001
0001
0000
0000
,
0100
0100
0000
0000
1000
1000
0000
0000
,
1000
1000
0000
0000
0000
0000
0000
0000
,
0001
0001
0000
0000
0100
0100
0000
0000
,
0010
0010
0000
0000
1000
1000
0000
0000
,
0001
0001
0000
0000
0100
0100
0000
0000
,
0010
0010
0000
0000
1000
1000
0000
0000
,
0001
0100
0010
1000
,
0010
0100
0001
1000
,
0001
0010
0001
1000
,
0010
0100
0001
1000
,
0400
0310
0001
0100
,
0040
1030
0100
0010
,
0004
0103
0010
1000
,
0040
0130
0001
0100
,
0020
4030
3020
0430
,
0302
0403
0320
4030
,
3002
0403
0320
4030
,
3020
0430
0302
0403
,
0320
4030
3200
0340
,
0032
0403
0320
4030
,
3002
0403
0320
4030
,
3002
0403
0320
4030
,
3200
0340
0032
0043
,
0230
4300
3020
0430
,
0302
0043
0230
4300
,
3200
0340
0032
0043
,
0230
4300
3200
0340
,
0230
0340
0230
4300
,
3020
0430
0302
4003
,
3200
0340
0032
0403
,
0301
0010
0001
0010
0100
1000
0001
0100
,
0010
1000
0100
0010
0100
1000
0001
0010
,
0100
1000
0100
0010
0001
0010
0001
0100
,
0010
1000
0100
0010
0100
1000
0001
0010
,
0100
1000
0001
0100
0010
1000
0100
0010
,
0100
1000
0001
0100
0010
1000
0100
0010
,
0100
1000
0001
0100
0010
1000
0100
0010
,
0001
0100
0010
1000
0100
0010
0001
0100
,
0020
2030
3200
0320
,
0032
0203
0320
2030
,
3200
0320
0032
0203
,
0320
2030
3200
0320
,
0031
0100
0010
1000
,
0100
0010
0001
0100
,
0010
1000
0100
0010
,
0001
0100
0010
1000
,
0001
0100
0010
1000
,
0100
0010
0100
1000
,
0001
0100
0010
1000
,
0100
0010
0100
1000
,
0001
0010
0100
1000
,
0001
0100
0010
1000
,
0100
0010
0100
1000
,
0001
1000
0010
1000
,
0110
0000
0000
0000
;
