#TITLE:Level 1-1;
#SUBTITLE:;
#ARTIST:Kinetikai;
#TITLETRANSLIT:;
#SUBTITLETRANSLIT:;
#ARTISTTRANSLIT:;
#CREDIT:Kairon;
#BANNER:Level1-1-banner.png;
#BACKGROUND:Level1-1-bg.png;
#LYRICSPATH:;
#CDTITLE:!Kairon-cdtitle.png;
#MUSIC:Level 1-1.mp3;
#OFFSET:-0.040;
#SAMPLESTART:41.420;
#SAMPLELENGTH:10.700;
#SELECTABLE:YES;
#BPMS:0.000=197.000;
#STOPS:;
#BGCHANGES:;
// cache tags:
#FIRSTBEAT:4.000;
#LASTBEAT:296.000;
#SONGFILENAME:Songs/KBU/Level 1-1 (Kairon)/Level 1-1.sm;
#HASMUSIC:1;
#HASBANNER:1;
#MUSICLENGTH:91.428;
// end cache tags

//---------------dance-single - Copied from----------------
#NOTES:
     dance-single:
     Copied from:
     Hard:
     13:
     1.000,1.000,1.000,0.602,1.000,855.000,156.000,55.000,0.000,7.000:
0000
0000
0000
0000
,
1100
1100
0000
1100
0110
0000
0011
0000
2002
0000
0000
3003
0101
0000
0010
0000
,
1000
0001
0010
0001
0100
0001
0010
0100
0010
0001
0100
0010
1000
0100
0010
0001
,
0100
0001
0010
0001
1000
0010
0100
0010
1000
0001
0100
0001
0010
0100
1000
0010
,
0100
0001
0010
0001
0100
0010
0100
0001
0010
0100
1000
0100
1000
0010
0100
0001
,
1000
0010
1000
0100
0010
0001
0100
0001
0010
0100
1000
0010
0100
0010
1000
0001
,
0100
0010
0100
0010
1000
0100
1000
0010
1000
0001
1000
0010
0100
0010
1000
0001
,
0100
0001
0010
0001
0100
0001
0010
0100
1000
0010
0100
0001
1000
0100
0010
0001
,
0100
0010
1000
0001
0100
0001
0010
0100
1000
0010
0100
0001
1000
0100
0010
0001
,
0110
0110
0000
0110
1010
0000
0101
0000
0220
0000
0000
0330
1001
0010
0100
1000
,
0001
1000
0010
0100
0010
1000
0001
0010
0100
1000
0010
1000
0100
0010
0001
0100
,
0010
0100
0001
0010
0100
1000
0100
1000
0010
1000
0100
1000
0010
0100
0010
1000
,
0010
0100
0001
0010
0100
0010
0100
1000
0010
0100
0001
1000
0010
1000
0100
0010
,
0001
0100
0010
1000
0100
1000
0010
0100
0001
1000
0100
1000
0010
0100
0001
0100
,
0010
1000
0100
0010
0001
0100
0010
1000
0001
0010
0001
0100
0010
0100
0010
1000
,
0010
0100
0001
1000
0100
0010
0001
0010
0100
1000
0010
1000
0100
0010
0001
1000
,
0001
0010
0100
1000
0100
0010
0001
0010
0100
1000
0100
0010
,
0011
0000
0000
0000
0110
0000
0000
0000
1100
0000
0000
0000
1010
0000
0000
0000
0110
0000
0000
0000
0101
0000
0000
0000
2002
0000
0000
0000
0000
0000
0000
0000
0000
3003
0000
0000
0010
0000
0000
0000
0000
0000
0100
0000
0000
0000
0000
0000
,
1001
0000
0100
0010
0101
0000
1000
0000
0110
0000
1000
0100
1001
0000
0010
0000
,
0100
1000
0100
1000
0100
0010
0100
0010
1002
0000
0100
0003
1010
0000
0101
0000
,
1100
0000
0010
0001
1010
0000
0100
0000
1001
0000
0001
1000
0110
0000
1000
0000
,
0010
0001
0010
0001
0010
0100
0010
0100
2001
0000
0010
3000
0101
0000
1010
0000
,
1000
0100
0010
0001
1000
0100
0010
0001
2000
0000
0000
0000
0000
0000
0000
3000
,
0001
0010
0100
1000
0001
0010
0100
1000
0002
0000
0000
0000
0000
0000
0000
0003
,
1001
0000
0010
0100
1000
0000
1100
0000
0011
0100
0001
0100
0010
0000
1010
0000
,
0110
0001
0010
0001
0100
0010
0100
0010
1100
0000
0110
0000
0011
0000
0110
0000
,
1010
0000
0100
1000
0011
0000
1000
0000
0110
0000
0001
1000
0101
0000
0001
0000
,
0100
1000
0100
1000
0100
0010
0100
0010
1002
0000
0100
0003
1100
0000
0011
0000
,
1001
0000
0010
0001
0110
0000
0010
0000
1001
0000
0100
0010
1100
0000
1000
0000
,
0010
0001
0010
0001
0010
0100
0010
0100
2001
0000
0010
3000
0011
0000
1100
0000
,
1000
0010
0100
0001
1000
0010
0100
0001
2000
0000
0000
0000
0000
0000
0000
3000
,
0001
0100
0010
1000
0001
0100
0010
1000
0002
0000
0000
0000
0000
0000
0000
0003
,
0110
0000
0010
0100
0010
0000
0101
0000
1001
0100
0010
0100
1000
0000
1001
0000
,
0110
1000
0100
1000
0010
0100
0010
0100
0022
0000
0000
0033
2200
0000
0000
3300
,
0011
0011
0000
0011
0110
0000
1100
0000
2002
0000
0000
3003
0110
0000
0001
0000
,
0010
0001
0100
0010
1000
0010
0100
0010
1000
0100
1000
0001
0010
0001
0100
0001
,
0010
0001
0100
0001
1000
0010
0100
0001
0010
0100
1000
0010
1000
0010
0100
0001
,
0100
0010
0100
0010
0100
0001
1000
0010
0100
0010
1000
0100
0010
0001
0100
0001
,
0010
0001
1000
0001
0010
0001
0100
0010
1000
0001
0100
0010
1000
0010
0100
0001
,
0010
0001
0100
0010
1000
0001
0100
0010
1000
0100
1000
0001
0100
0010
1000
0100
,
0010
0100
1000
0100
0010
0001
0100
0010
1000
0001
0010
0001
0100
0001
0010
0100
,
1000
0100
0010
0001
1000
0010
0100
0001
0010
0001
0010
0100
1000
0100
1000
0010
,
1001
1001
0000
1001
0101
0000
1100
0000
2020
0000
0000
3030
0101
0010
0100
1000
,
0010
0100
0001
0010
0100
0010
0001
0010
0100
1000
0010
1000
0100
0010
0100
0010
,
0001
0100
0010
0100
0001
0010
0100
1000
0100
1000
0010
1000
0100
0010
0100
0010
,
0001
0100
0010
1000
0100
0010
0001
0010
0100
1000
0010
0100
0010
1000
0100
1000
,
0001
0100
0010
0100
0001
0010
0100
1000
0010
1000
0100
0010
0001
0010
0001
0100
,
0010
0100
0001
1000
0010
1000
0100
1000
0001
0010
0100
1000
0001
0100
0010
1000
,
0001
0010
0100
1000
0001
0100
0010
0100
0001
0010
0100
1000
0100
0010
0100
0010
,
1000
0100
0010
0001
0100
0010
1000
0100
0010
0001
0100
0010
,
1010
0101
1010
0011
1100
0011
2002
0000
0000
0000
0000
3003
,
1010
0000
0100
0000
0011
0000
0010
0000
1001
0100
0010
0100
1001
0000
0010
0000
,
0101
0010
0100
0010
0101
0000
0010
0000
2000
0000
0000
3000
0200
0000
0000
0300
,
0011
0000
0100
0000
0110
0000
1000
0000
1001
0010
0100
1000
0010
1000
0100
0010
,
0001
0100
0010
1000
0001
0010
0100
1000
0010
0100
0001
0010
0100
1000
0010
1000
,
0110
0000
0001
0000
1010
0000
0001
0000
0110
1000
0001
1000
0110
0000
0010
0000
,
0011
0100
1000
0100
0011
0000
1000
0000
0020
0000
0000
0030
0200
0000
0000
0300
,
1001
0100
0010
0001
1000
0100
0010
0001
0110
0001
0010
0100
1000
0001
0010
0100
,
1010
0100
0010
1000
0001
0100
0010
1000
0202
0000
0000
0303
0020
0000
0000
0030
,
1000
0100
0010
0100
1000
0100
0010
0100
2000
0000
0001
0000
0001
0000
0001
3000
,
0001
0010
0100
0010
0001
0010
0100
0010
0002
0000
1000
0000
1000
0000
1000
0003
,
1001
1010
0101
0110
1010
0110
1001
0101
,
1001
0101
1010
0110
0101
0110
1001
1010
,
0001
0100
0010
0100
0001
0100
0010
0100
0002
0000
1000
0000
1000
0000
1000
0003
,
1000
0010
0100
0010
1000
0010
0100
0010
2000
0000
0001
0000
0001
0000
0001
3000
,
2002
0000
3003
0011
0110
1100
2002
0000
3003
0220
0000
0330
,
1100
0000
0000
0000
0000
0000
0000
0000
0110
0000
0000
0000
0000
0000
0000
0000
0011
0000
0000
0000
0000
0000
0000
0000
2002
3003
0000
0000
0000
0000
0000
0000
,
0000
0000
0000
0000
,
0000
0000
0000
0000
,
2200
3300
1100
1100
1010
1001
0022
0033
0011
0011
0101
1001
,
1010
0000
0110
0000
0101
0000
2200
0000
3300
0202
0000
0303
,
2020
3030
0011
0110
1001
0110
1100
0000
0011
0000
1100
0000
,
2002
0000
0000
0000
,
0010
0000
0000
0010
0000
0000
0010
0000
0000
0010
0100
0010
,
3113
0000
0000
0000
;
