#TITLE:NO AIR;
#SUBTITLE:(duet with Chris Brown);
#ARTIST:JORDIN SPARKS;
#TITLETRANSLIT:;
#SUBTITLETRANSLIT:;
#ARTISTTRANSLIT:;
#CREDIT:;
#BANNER:noair-bn.png;
#BACKGROUND:noair-bg.png;
#LYRICSPATH:;
#CDTITLE:JUKUGUY ORIGINAL.png;
#MUSIC:NO AIR (duet with Chris Brown).mp3;
#OFFSET:-1.920;
#SAMPLESTART:40.580;
#SAMPLELENGTH:12.620;
#SELECTABLE:YES;
#BPMS:0.000=80.000,241.000=68.000,242.000=64.000,242.500=60.000;
#STOPS:66.000=0.740
;
#BGCHANGES:5.500=noair.avi=1.000=1=0=1,
99999=-nosongbg-=1.000=0=0=0 // don't automatically add -songbackground-
;
// cache tags:
#FIRSTBEAT:12.000;
#LASTBEAT:243.000;
#SONGFILENAME:Songs/new cedric/NO AIR (duet with Chris Brown)/NO AIR (duet with Chris Brown).sm;
#HASMUSIC:1;
#HASBANNER:1;
#MUSICLENGTH:191.352;
// end cache tags

//---------------dance-single - ----------------
#NOTES:
     dance-single:
     :
     Hard:
     7:
     0.375,0.397,0.000,0.246,0.287,455.000,0.000,47.000,0.000,0.000:
0000
0000
0000
0000
,
0000
0000
0000
0000
,
0000
0000
0000
0000
,
0100
0000
0000
0200
0000
0000
0000
1300
,
0100
0000
0100
0000
0000
0000
0000
0000
0000
0000
0100
0000
0000
0100
0000
0000
,
0100
1000
0000
0000
0100
1000
0000
0000
0001
0100
0000
0000
0100
0001
0000
0000
,
0010
0001
0000
0000
0010
0001
0000
0000
1000
0010
0000
0000
0010
1000
0000
0000
,
1000
0100
0000
0000
1000
0001
1000
0000
0001
0000
0100
0000
0001
0000
0100
0000
,
0001
0000
0001
0000
0000
1000
0000
0000
0100
2000
0000
0000
0000
3100
0000
0000
,
0010
0000
0001
0000
0000
0000
0000
0000
0010
0000
0001
0000
0000
0000
0000
0000
0100
0010
0001
0000
0000
0000
0000
0000
0100
0000
0001
0000
0000
0000
0000
0000
,
0010
0100
0000
0000
1000
0002
0000
0003
0100
0010
0000
0000
0010
0100
0000
0000
,
0001
1000
0000
0000
0100
1000
0001
0000
0100
1000
0000
0000
0100
0001
1000
0000
,
0010
0000
0010
0000
0000
0100
0000
0000
1000
0000
0000
0000
0001
0000
0100
0000
,
0001
0000
0000
0000
0000
0000
0100
1000
0000
0000
0100
1000
0000
0001
0100
0000
,
0010
0000
1000
0000
0000
0000
0100
1000
0010
0000
0100
0010
0000
1000
0100
0000
,
1000
0000
0100
0000
0001
0000
0100
0001
0100
0000
0001
0100
0000
0100
0000
0000
,
0010
0000
1000
0100
0000
0100
0000
0000
0010
0000
0000
0000
0200
0000
0000
0000
,
1300
0100
0010
0001
0100
0000
0001
2000
,
3010
0000
0002
0000
0103
0000
0001
0000
1000
0100
1000
0000
0002
0000
0013
0000
,
2000
0000
3100
1000
0100
0000
1000
0000
0001
0100
0001
0000
0020
0000
0130
0000
,
1000
0001
1000
0000
0002
0000
0000
0000
0103
0000
0001
1000
0000
0100
1000
0000
,
0001
0100
0001
0010
0100
1000
0002
0000
,
0103
0000
0001
1000
0100
1000
0001
0000
0100
1000
0100
0000
2000
0000
0000
0000
,
3001
0000
0100
0001
0100
0000
0001
0000
0100
0010
0100
0000
0001
0000
1000
0000
,
0100
0000
2000
0000
3001
0000
0000
0000
0002
0000
0103
0010
0000
0010
0100
0000
,
0001
1000
0100
1000
0100
1000
0001
0000
,
0100
0001
1000
0100
1000
0100
0001
0000
,
0010
0100
1000
0100
1000
0010
0001
0000
,
0100
1000
0001
1000
0100
1000
0020
0000
,
0000
0000
0000
0000
0000
0000
0000
0000
0130
0000
0000
0000
0001
0100
0001
0100
,
0000
0010
0100
0010
0000
0100
0001
0100
0001
0000
0100
0000
0010
1000
0010
1000
,
0000
0100
1000
0100
0000
0010
1000
0010
1000
0000
0100
0000
1000
0001
1000
0001
,
0000
0100
0001
0000
0020
0000
0000
0032
0000
0000
0203
0000
0020
0000
0300
0000
,
0000
0000
0000
0000
0000
0030
0000
0000
0100
1000
0100
2000
0000
0000
0000
0000
,
0000
0000
0000
0000
3000
0000
0000
0000
1000
0001
1000
0002
0000
0000
0000
0000
,
0000
0000
0000
0000
0003
0000
0000
0000
0001
0100
1000
0100
0001
0000
1000
0000
,
0001
0000
1000
0100
0000
0000
0000
0000
0002
0000
2003
0000
3200
0000
0000
0000
,
1300
0000
0100
1000
0100
0000
1000
0000
0001
0100
0001
0000
0020
0000
0031
0000
,
0200
0000
1300
0000
0010
0000
0100
0000
0001
0010
0001
0000
0200
0000
1300
0000
,
0020
0000
0031
0100
0001
0000
0010
0100
0001
0100
0010
0000
0200
0000
1300
0000
,
0002
0000
0013
0000
0001
0000
0100
0000
0001
1000
0100
1000
0001
0000
1000
0000
,
0100
1000
0100
0001
1000
0010
0200
0000
,
1300
0000
0100
0010
1000
0010
0100
0000
1000
0010
1000
0000
0020
0000
0000
0000
,
0130
0000
1000
0100
1000
0000
0100
0000
1000
0001
1000
0000
0100
0000
0010
0000
,
1000
0000
0010
0000
0100
0000
0010
0000
1000
0001
1000
0001
1000
0000
0100
0000
,
1000
0020
1030
0100
0100
0020
1030
0100
,
1000
0002
0103
0010
0010
0002
0103
0010
,
0100
0000
0020
0000
1030
0000
0010
0000
0010
0000
1000
0000
0100
0000
1000
0100
,
0000
1000
0100
0000
0001
0000
0100
0001
0000
0100
0001
0000
0200
1000
0000
0000
,
1300
0000
0100
1000
0001
0100
0010
1000
0100
0000
0010
0000
0002
0000
0000
0000
,
0103
0000
0001
1000
0010
0100
0001
0000
1000
0100
1000
0000
0020
0000
0000
0000
,
0130
0000
0001
0100
0001
0000
0010
0000
1000
0001
1000
0000
0100
0000
0200
0000
,
1300
0001
1000
0000
0010
0000
0100
0000
0001
1000
0000
1000
0100
0000
0000
0000
,
1000
0100
0010
0001
0100
0001
0020
0000
,
0130
1000
0001
0010
0100
1000
0020
0000
,
0130
0001
1000
0100
0010
0001
0200
0000
,
0300
1000
0100
0000
0200
0000
0300
0000
1000
0000
0020
0000
0000
0230
0000
0000
,
0300
0010
1000
0001
1000
0001
0000
0000
,
0000
1000
0010
0100
0010
0100
0000
0000
,
0000
0010
0001
0100
0001
0100
0010
0000
,
0010
0000
1000
0000
0001
0000
1000
0100
0000
0100
0000
0000
0100
0000
0000
0000
;

//---------------dance-single - ----------------
#NOTES:
     dance-single:
     :
     Medium:
     5:
     0.211,0.238,0.000,0.225,0.010,239.000,0.000,43.000,0.000,0.000:
0000
0000
0000
0000
,
0000
0000
0000
0000
,
0000
0000
0000
0000
,
0000
0000
0000
0000
,
0000
0000
0000
0000
0000
0000
0000
0000
0000
0000
1000
0000
0000
0001
0000
0000
,
1000
0100
0100
0100
,
1000
0001
0001
0001
,
2000
0000
3100
0000
1000
0010
0100
0000
,
0020
0000
0000
0000
0000
0000
0000
0000
0001
0000
0000
0000
0000
0031
0000
0000
,
0010
0100
0001
0001
,
0100
1000
0001
0001
,
0100
0000
2000
0000
3010
0100
1000
0000
,
0001
0000
0100
0100
0100
0000
0000
0100
,
2000
0000
0000
0000
3000
0000
0100
1000
,
0002
0000
0000
0003
0001
0100
0010
1000
,
0200
0000
0300
0000
0010
0010
0010
0000
,
0100
0100
0100
0000
1000
0000
1000
0000
,
0200
0000
1300
0010
0100
0000
0010
0000
,
0010
0000
0002
0000
0103
0000
0010
0100
,
0001
0000
0100
0000
0100
0000
0010
1000
,
0200
0000
1300
0000
1000
0010
0100
0001
,
0010
0100
0100
0020
,
0030
0100
0100
2000
,
3000
0010
0010
0002
,
0003
2000
0000
3000
0200
0000
2300
0000
,
0000
0000
0000
0000
3000
0100
1000
0000
,
0020
0000
0000
0000
0030
0100
0010
0000
,
0002
0000
0000
0000
0003
1000
0001
1000
,
0100
0000
1000
0000
0001
1000
0100
0000
,
0000
0000
0000
0000
1000
0001
1000
0000
,
0000
0000
0000
0000
0001
0100
0001
0000
,
0000
0000
0000
0000
0010
1000
0010
0100
,
0000
0000
0100
0000
0100
0000
0000
1000
0000
0000
0001
0000
2000
0000
0000
0000
,
0000
0000
3000
0000
0100
0001
2000
0000
,
0000
0000
3000
0000
1000
0001
0020
0000
,
0000
0000
0030
0000
0100
0001
0010
0010
,
0010
0000
0000
0100
0000
0000
0000
0000
2000
0000
0000
0000
3001
0000
0000
0000
,
0100
0001
0100
0000
2000
0000
3001
0000
,
0010
0001
0010
0000
0002
0000
1003
0000
,
0100
1000
0100
0000
0002
0010
0013
0000
,
0200
0000
1300
0010
0100
0000
0002
0000
,
1003
0010
1000
0100
1000
0000
0020
0000
,
0130
0001
0100
0000
0002
0000
1003
0100
,
1000
0010
0100
0000
0001
0001
1000
1000
,
0100
0100
1000
1000
0020
0000
0000
0000
,
0130
0000
0001
1000
0100
0000
1000
0000
,
0010
0100
0010
0100
0010
0000
1000
0000
,
0100
1000
0001
0000
0010
0001
0100
0000
,
0020
0000
0000
0000
0130
0000
0010
2000
,
0000
3002
0000
0000
0103
0000
0001
2000
,
0000
3200
0000
0000
1300
0000
0010
0200
,
0000
0302
0000
0000
1003
0001
1000
0100
,
0010
0000
2000
0000
3001
1000
0200
0000
,
1000
0001
1300
0200
,
0300
0001
0100
0002
,
0003
1000
0010
2000
,
3000
0200
0300
0020
,
0000
0000
0030
0000
,
0000
1000
0100
0000
0100
0000
0000
0000
,
0000
1000
0001
0000
0001
0000
0100
0000
,
1000
0001
1000
0000
0100
0100
0100
0000
;

//---------------dance-single - ----------------
#NOTES:
     dance-single:
     :
     Easy:
     2:
     0.127,0.159,0.000,0.157,0.003,140.000,0.000,30.000,0.000,0.000:
0000
0000
0000
0000
,
0000
0000
0000
0000
,
0000
0000
0000
0000
,
0000
0000
0000
0000
,
0000
0000
0000
0000
,
0100
0000
0100
0000
,
1000
0000
1000
0000
,
0100
0000
0100
0000
,
1000
0000
0010
0010
,
0001
0000
0100
0000
,
0100
0000
0001
0000
,
0001
0000
0100
0000
,
0100
0100
0010
0000
,
0200
0000
0300
0000
,
0100
0100
0000
0000
,
0010
1000
0001
0000
,
0100
0000
0100
2000
,
0000
0000
3000
0001
,
0200
0000
0300
0010
,
0002
0000
0003
0100
,
0002
1003
0200
1300
,
0010
0100
0001
1000
,
0000
0100
0100
0100
,
0000
1000
1000
1000
,
0000
0010
0100
0001
,
0000
0000
0000
1000
,
1000
0000
0000
0001
,
0001
0000
0000
0100
,
0100
0000
0000
0020
,
0000
0000
0030
0000
,
0100
1000
0001
0000
,
0100
0001
1000
0000
,
0100
0000
0100
2000
,
0000
0000
3100
0002
,
0000
0000
0013
2000
,
0000
0000
3100
0002
,
0103
0000
0000
2000
0000
0000
0000
0000
3000
0000
0000
0000
0100
0000
0000
0000
,
0100
1000
0000
0100
,
1000
1000
0000
0010
,
0001
0001
0000
0001
,
0010
0010
0100
1000
,
1000
0002
0003
0100
,
0000
0000
0010
0100
,
0000
0010
0000
2000
,
0000
0100
3001
0002
,
0103
2000
3010
0100
,
0000
0100
0002
1003
,
0000
0010
2000
3100
,
0002
0103
2000
3010
,
0000
0010
0200
1300
,
0000
0100
2000
3010
,
0000
0100
0002
0103
,
0010
1000
0002
0203
,
0000
0000
0300
0020
,
0000
0000
0030
0200
,
0000
0000
0300
2000
,
3000
0002
0003
0200
,
0000
0300
0010
0100
,
1000
0001
1000
0100
,
0000
0100
0000
0100
,
0100
0100
0000
0100
;
