#TITLE:Minimalian;
#SUBTITLE:;
#ARTIST:Detroian;
#TITLETRANSLIT:;
#SUBTITLETRANSLIT:;
#ARTISTTRANSLIT:;
#CREDIT:;
#BANNER:minimalian-bn.png;
#BACKGROUND:Minimalian-bg.jpg;
#LYRICSPATH:;
#CDTITLE:;
#MUSIC:28.minimalian.mp3;
#OFFSET:-3.806;
#SAMPLESTART:54.713;
#SAMPLELENGTH:12.000;
#SELECTABLE:YES;
#BPMS:0.000=141.000;
#STOPS:;
#BGCHANGES:;
// cache tags:
#FIRSTBEAT:0.000;
#LASTBEAT:200.000;
#SONGFILENAME:Songs/StepmaniaFreak's Favorites/Minimalian/minimalian.sm;
#HASMUSIC:1;
#HASBANNER:1;
#MUSICLENGTH:92.819;
// end cache tags

//---------------dance-single - ----------------
#NOTES:
     dance-single:
     :
     Hard:
     13:
     1.000,1.000,1.000,0.000,1.000,634.000,196.000,0.000,0.000,0.000:
1001
0100
1001
0100
0011
1000
0011
1000
,
1010
0100
1010
0100
0101
0010
0101
0010
,
1001
0100
1000
0001
0010
1000
0000
0000
0100
0000
0000
0000
0101
0000
0000
0000
,
1010
0100
0001
0010
0001
0100
0000
0000
1010
0000
0000
0000
0001
0000
0000
0000
,
1001
1000
0001
1000
0001
1000
0001
1000
0011
0100
0001
1000
0010
0100
0010
1000
,
1100
0001
0010
0001
1100
0010
0001
0010
0101
0001
0100
0010
0100
1000
0010
0001
,
0011
0100
0001
1000
0010
1000
0100
0010
1001
1000
0100
1000
0001
0010
0100
0001
,
1010
0010
1000
0001
0110
0010
0101
0000
0000
0000
0011
0000
0011
0000
0011
0000
,
0011
0100
0001
0010
0100
1000
0001
0100
0011
0010
0100
1000
0010
0100
0010
1000
,
0101
0010
1000
0010
0101
0010
1000
0010
1001
0100
0001
0010
0001
1000
0010
1000
,
0011
0100
0011
0100
,
1100
0101
1010
0010
,
0011
0100
1000
0010
0101
0001
1000
0010
,
0101
0010
1100
0100
1100
0010
0100
0001
,
1010
0000
1001
0000
0010
1000
0001
0010
0100
1000
0001
0100
0010
0100
0001
0010
,
1100
0000
1010
0000
0100
0010
1000
0100
0010
0100
1000
0001
1000
0010
0001
0100
,
0110
0000
0101
0000
0100
0010
0001
0010
1000
0100
0010
0001
0100
1000
0010
1000
,
0011
0000
1010
0000
0001
0100
0010
0001
0010
1000
0100
0010
0001
1000
0100
1000
,
0101
0000
1001
0000
0100
0010
1000
0001
0100
0010
0100
0001
0010
0100
1000
0001
,
1100
0000
0110
0000
0100
0010
0100
0001
0010
1000
0010
0100
0001
0100
1000
0100
,
1010
0000
0101
0000
0010
0100
0001
0010
0100
0001
1000
0010
0100
0001
0100
0010
,
0110
0000
0110
0000
1000
0000
0001
0000
1000
0010
0100
0001
0100
0010
1000
0000
,
1001
0000
0010
0000
1100
0000
0100
0010
0001
0100
0010
1000
0100
1000
0010
0100
,
0101
0000
0001
0000
0011
0000
0100
1000
0010
0100
0001
1000
0100
0010
0001
0010
,
1100
0000
0010
0000
1001
0000
0100
1000
0010
0100
0001
0010
0100
0001
1000
0010
,
0101
0000
0100
0000
0110
0000
0100
0010
1000
0001
1000
0010
0100
1000
0001
0010
,
0110
0000
1000
0000
0110
0000
0001
0010
0100
0001
1000
0010
0100
0001
0010
0100
,
0011
0000
0100
0000
0110
0000
0010
1000
0001
0010
1000
0010
0100
0010
0001
1000
,
0101
0000
0010
0000
1010
0000
0010
1000
0001
0010
0001
1000
0100
0010
0001
0010
,
1100
0000
1000
0000
1010
0000
0100
0001
0010
1000
0010
0001
0100
0010
1000
0100
,
0110
0000
0001
0000
1100
0000
0001
0010
0100
0010
0001
1000
0010
0100
0010
1000
,
0011
0000
0100
0000
1100
0000
0100
0010
0001
0100
0010
1000
0010
0001
0100
0010
,
1010
0000
0100
0000
1001
0000
0001
0010
0100
1000
0100
0010
0001
0100
0010
0100
,
1010
0000
0001
0000
0011
0000
0010
0100
0001
0100
0010
1000
0010
0100
1000
0001
,
1001
0000
1100
0000
0011
0100
1010
0100
0011
0100
1010
0001
1100
0001
1010
0100
,
0011
0000
0011
0000
1001
0100
0011
1000
0101
0010
1100
0001
0110
1000
0110
1000
,
0101
0000
1010
0000
1010
0001
1100
0010
1001
0100
0011
1000
0101
1000
0110
0001
,
1100
0000
0110
0000
0011
0100
0011
1000
0101
1000
0101
0010
1100
0001
1100
0010
,
0101
0000
1100
0000
0011
0100
1001
0100
0011
0100
1001
0010
1100
0001
0110
1000
,
0101
0000
0110
0000
1100
0001
0110
1000
0011
0100
1010
0001
0110
1000
0101
0010
,
1100
0000
1001
0000
0101
0010
0101
1000
0011
1000
0101
1000
0011
0100
0011
0100
,
1010
0110
0100
0100
0110
0110
0010
0010
,
1001
0100
0011
1000
0101
0010
1100
0010
0101
0010
1100
1001
0100
0010
0001
1000
,
0110
0000
0011
0000
1100
0010
1001
0100
0011
1000
0101
0110
1000
0001
0010
0100
,
1010
0000
1100
0000
1010
0100
1010
0001
1100
0010
1001
0110
1000
0001
0010
1000
,
0101
0000
0110
0000
0110
0001
0110
1000
0110
0001
1010
1100
0001
0100
0010
1000
,
0101
0000
0011
0000
1100
0001
1100
0010
1100
0001
0110
1001
0010
0100
0010
0100
,
1010
0000
0101
0000
0011
0100
0011
1000
0110
0001
1100
1001
0100
0010
0001
0100
,
1010
0000
1001
0000
0110
1000
0101
1000
0011
0100
1010
0101
0010
1000
0001
0010
,
1100
0010
1100
0010
0101
0010
0101
0010
1100
0001
0110
1000
0110
0001
0100
0010
,
0100
0000
0000
0000
;
