#TITLE:03 READY STEADY GO;
#SUBTITLE:;
#ARTIST:L'Arc en Ciel;
#TITLETRANSLIT:;
#SUBTITLETRANSLIT:;
#ARTISTTRANSLIT:;
#CREDIT:;
#BANNER:steps-bn.png;
#BACKGROUND:steps-bg.png;
#LYRICSPATH:;
#CDTITLE:;
#MUSIC:03 READY STEADY GO.mp3;
#OFFSET:-0.585;
#SAMPLESTART:42.249;
#SAMPLELENGTH:11.980;
#SELECTABLE:YES;
#BPMS:0.000=144.008;
#STOPS:;
#BGCHANGES:;
// cache tags:
#FIRSTBEAT:0.000;
#LASTBEAT:535.750;
#SONGFILENAME:Songs/cedric step/READY STEADY GO/steps.sm;
#HASMUSIC:1;
#HASBANNER:1;
#MUSICLENGTH:228.257;
// end cache tags

//---------------dance-single - Heavy----------------
#NOTES:
     dance-single:
     Heavy:
     Hard:
     11:
     1.000,1.000,1.000,0.495,0.865,1292.000,264.000,113.000,0.000,0.000:
1100
0000
0100
0010
0000
0100
0001
0000
0100
1000
0010
0100
1000
0100
0010
0000
,
1010
0000
0001
0010
0000
0001
1000
0000
0010
0100
0001
1000
0010
0100
0001
1000
,
0011
0000
1000
0100
0000
0010
0100
0000
0001
0100
0001
0100
1000
0010
0001
0000
,
0110
0000
0100
1000
0100
0010
0100
0000
1001
0001
0010
0000
0110
0100
1000
0000
,
0110
1010
0110
0101
0110
1001
0110
1001
,
0000
0010
1000
0100
0010
0100
0000
0001
0100
0010
0100
1000
0000
0010
1000
0100
,
0110
1100
0101
1100
1001
0101
1100
0101
,
0000
0010
1000
0100
0010
0100
0010
0000
0100
0000
0010
0100
1000
0100
0001
0000
,
0110
0110
1001
1001
0011
1010
1100
0101
,
0000
0010
1000
0100
0010
0100
1000
0100
0001
0100
1000
0100
1000
0010
1000
0000
,
1010
0101
0011
1100
1010
0101
0011
1100
,
0010
1000
0010
1000
0100
0010
0001
0010
0100
1000
0001
0100
0010
0010
1000
0001
,
1001
0000
1000
0000
0100
0000
0010
0001
0000
0100
0001
0010
1000
0000
0010
0000
,
1001
0000
0100
0000
0010
0000
0100
0001
0000
1000
0010
0001
0010
1000
0100
0000
,
0110
0000
0100
0000
1100
0000
0010
0001
0000
0010
1000
0100
1000
0000
0100
0000
,
0110
0000
0010
0000
0011
0000
0100
1000
0000
0100
0001
0010
0001
0100
0010
0000
,
0110
0000
1001
0000
0110
0000
1100
0100
0000
0001
1000
0100
0100
0010
0001
0000
,
1001
0000
0110
0000
1001
0000
1010
0010
0000
0010
0100
1000
0100
0001
0100
1000
,
0100
0001
0010
0001
0100
0001
1000
0100
,
1000
0100
0010
0001
1000
0100
0010
0001
1000
0001
0100
0010
0100
1000
0100
0001
,
1000
0001
0100
0010
0001
0010
1000
0002
,
0000
1000
0000
1000
0000
1000
0000
1003
,
0010
0100
0010
0010
1000
0001
0100
0020
,
0000
0000
0200
0000
0300
0000
0100
0000
0000
0000
2000
0000
0000
0030
0002
3003
,
2002
0000
0000
0000
3003
0000
0011
0000
0011
0000
0000
0110
0000
0000
2200
0000
,
0000
0000
0000
0000
0000
0000
0000
0000
0000
0300
3010
0000
1000
0000
0100
0000
,
0002
0013
0001
1001
0010
0001
0010
0001
,
0200
0000
0002
0303
1001
0110
1001
0110
,
0100
0010
0001
1000
0001
0100
1000
0200
,
0000
0000
0020
0000
0000
0030
0010
0000
0000
0000
0010
0000
0000
0000
0010
0300
,
1000
0001
0001
0010
0100
0010
0001
2000
,
0000
0000
0002
0000
0003
0000
0002
0000
0000
0003
0200
0000
0000
3000
0020
0330
,
0220
0000
0000
0000
0330
0000
1010
0000
1010
0000
0000
1001
0000
0000
0202
0000
,
0000
0000
0000
0000
0000
0000
0000
0000
0000
0303
1000
0000
0100
0000
0002
0000
,
0013
1000
0010
0110
1000
0010
2000
0010
,
0002
0000
0000
3003
0220
0000
0330
0000
2002
0000
3003
0000
2002
0000
3003
0000
,
0110
0100
1100
1000
1001
0001
0011
0010
,
0110
0100
0101
0100
1100
1000
1010
0010
,
1001
0011
1001
1010
1001
1100
1001
0101
,
1100
0011
0101
1010
1100
0011
0101
1010
,
1000
0001
1000
0000
0010
0000
0100
0000
0001
1000
0001
0000
0100
0000
0010
0000
,
1000
0001
1000
0000
0110
0000
1001
0000
0001
1000
0001
0000
1001
0000
0110
0000
,
1000
0001
1000
0000
0101
0000
1100
0000
0001
1000
0001
0000
1010
0000
0101
0000
,
1001
0000
0000
0000
2002
0000
0000
3003
0220
0000
0000
0330
2002
0000
0000
3003
,
0010
1000
0100
0000
0010
0001
0010
0000
0100
1000
0010
0000
1000
0100
0010
0000
,
0001
0100
0010
0000
0100
0001
0010
0000
0001
1000
0001
0000
0010
0100
0010
0000
,
1000
0100
0010
0000
0010
0001
0100
0000
0010
0001
0100
0000
0010
1000
0100
0000
,
0010
1000
0001
0000
0001
0010
1000
0000
1000
0010
0001
0000
1000
0100
0010
0000
,
0101
0010
1000
0000
0100
0010
0001
0000
1001
0100
1000
0000
0010
1000
0001
0000
,
0011
1000
0100
0000
0010
1000
0100
0000
1010
0001
0010
0000
1000
0010
0001
0000
,
0220
0000
0000
0000
0000
0000
0000
0000
0000
0000
0000
0000
0000
0000
0000
0330
0000
0000
0000
0000
0000
0000
0000
0000
0101
0000
0000
0000
0000
0000
0000
0000
0101
0000
0000
0000
0000
0000
0000
0000
0000
0000
2002
0000
0000
0000
0000
0000
,
0000
0000
0000
0000
0000
3003
0000
0000
0010
0000
0100
0010
0001
1000
0001
0000
,
1100
0000
0100
0010
0000
0100
0001
0000
0100
1000
0010
0100
1000
0100
0010
0000
,
1010
0000
0001
0010
0000
0001
1000
0000
0010
0100
0001
1000
0010
0100
0001
1000
,
0011
0000
1000
0100
0000
0010
0100
0000
0001
0100
0001
0100
1000
0010
0001
0000
,
0110
0000
0100
1000
0100
0010
0100
0000
1001
0001
0010
0000
0110
0100
0000
0000
,
0100
0001
0100
0010
0100
0001
0010
2000
,
0000
0000
0002
0000
0000
3003
0001
0000
0100
1000
0001
0000
0100
1000
0001
0000
,
0010
0100
0010
0001
1000
0001
0100
0020
,
0000
0000
0200
0000
0300
0000
0130
0000
0100
0010
0001
0010
1000
0100
0010
0001
,
2002
0000
0000
0000
3003
0000
0011
0000
0011
0000
0000
0110
0000
0000
2200
0000
,
0000
0000
0000
0000
0000
0000
0000
0000
0000
0300
3010
0000
1000
0000
0100
0000
,
0002
0013
0001
1001
0010
0001
0010
0001
,
0200
0000
0000
0000
0002
0000
0303
0000
1001
0000
0110
0000
1000
0100
0010
0001
,
0100
0010
0001
1000
0001
0100
1000
0200
,
0000
0000
0020
0000
0000
0030
1000
0000
0000
0000
0001
0000
0000
0000
0310
0000
,
1000
0001
0001
0010
0100
0010
0001
2000
,
0000
0000
0002
0000
0003
0000
0002
0000
0000
0003
0200
0000
0000
3000
0020
0330
,
0220
0000
0000
0000
0330
0000
1010
0000
1010
0000
0000
1001
0000
0000
0102
0000
,
1000
0000
0100
0000
1000
0000
0100
0000
0010
0003
1000
0000
0100
0000
0002
0000
,
0013
1000
0010
0110
1000
0010
2000
0010
,
0002
0000
0000
3003
0220
0000
0330
0000
2002
0000
3003
0000
2002
0000
3003
0000
,
0010
1000
0100
0010
0001
0100
0010
0010
0001
0010
1000
0100
0010
0001
0100
1000
,
0100
0100
0010
1000
0100
0010
0001
0100
0001
1000
0001
0010
0001
0100
0010
1000
,
0100
0010
0001
0100
1000
0100
0001
0010
0001
1000
0010
0001
0010
1000
0100
0010
,
0001
0100
0010
1000
0001
0010
0100
1000
0010
0100
0010
0001
0001
0010
0100
0001
,
0010
1000
0010
0001
0001
0100
0001
0100
0001
0010
0001
0010
0100
1000
0100
1000
,
0010
1000
0100
0010
0001
0100
0010
1000
0001
0100
0001
0010
0001
1000
0010
0100
,
0001
1000
0010
0100
0010
0100
0001
0010
1000
0010
0100
1000
0010
0001
0010
0100
,
0110
0000
0000
0000
2002
0000
0000
3003
0220
0000
0000
0330
2002
0000
0000
3003
,
1000
0010
1000
0100
0010
0001
0001
0100
0010
0100
0001
0010
0100
1000
1000
0100
,
0010
0100
0001
0100
1000
0010
0001
0010
1000
0010
0001
0010
1000
0100
0001
0100
,
0001
0100
0010
0010
0100
1000
0010
0100
0010
0001
0010
1000
0100
0010
0001
0100
,
0010
1000
0001
0010
0100
0010
0100
0001
0100
1000
0010
0100
0001
0010
0100
1000
,
0010
1000
0010
1000
0100
0010
0001
0100
0001
0010
0100
1000
0001
0010
0100
1000
,
1000
0100
0010
0001
0100
0001
1000
0100
0010
0100
0010
0001
0001
0100
0001
1000
,
1001
0000
0000
0000
0000
0000
2002
0000
0000
0000
0000
0000
0000
0000
0000
0000
0000
0000
0000
0000
0000
3003
0000
0000
0101
0000
0000
0000
0000
0000
0000
0000
0000
0000
0101
0000
0000
0000
0000
0000
0000
0000
2200
0000
0000
0000
0000
0000
,
0000
0000
0000
0000
0000
3300
0000
0000
0010
0000
0100
0010
0001
1000
0001
0000
,
1100
0000
0100
0010
0000
0100
0001
0000
0100
1000
0010
0100
1000
0100
0010
0000
,
1010
0000
0001
0010
0000
0001
1000
0000
0010
0100
0001
1000
0010
0100
0001
1000
,
0011
0000
1000
0100
0000
0010
0100
0000
0001
0100
0001
0100
1000
0010
0001
0000
,
0110
0000
0100
1000
0100
0010
0100
0000
1001
0001
0010
0000
0110
0100
1000
0000
,
0101
0000
0100
0010
0000
0100
1000
0000
0100
0001
0010
0100
0001
0100
0010
0000
,
0011
0000
1000
0010
0000
1000
0001
0000
0010
0100
1000
0001
0010
0100
1000
0001
,
1010
0000
0001
0100
0000
0010
0100
0000
1000
0100
1000
0100
0001
0010
1000
0000
,
0110
0000
0100
0001
0100
0010
0100
0000
1001
1000
0010
0000
0110
0100
0001
0000
,
0110
1010
0110
0101
0110
1001
0110
1002
,
0000
0000
0000
0100
1000
0000
0010
0000
0100
0000
0000
0100
1000
0000
0010
0003
,
0101
1100
1100
0110
0110
0011
0011
0201
,
0000
0000
0000
0010
0001
0000
1000
0000
0010
0000
0000
0010
0001
0000
1300
0000
,
1010
0101
0101
1100
0101
1100
0011
2100
,
0000
0000
0000
0100
0001
0000
0010
0000
0100
0000
0000
0100
0001
0000
0010
3000
,
1100
0110
0101
0110
0011
0110
1100
0110
,
1000
0001
1000
0001
1000
0001
1000
0001
1000
0001
1000
0001
1000
0001
1000
0001
1000
0001
1000
0001
1000
0001
1000
0001
1000
0001
1000
0001
1000
0001
0000
0000
,
2001
0001
0001
0001
0001
0001
0001
0001
,
0100
0000
0100
0000
0100
0000
0100
0000
0100
0000
0100
0000
0100
0000
0100
3000
,
1020
0000
0000
0000
1000
0000
0000
0000
1000
0000
0000
0000
1000
0000
0000
0000
1030
0000
0000
0000
0100
0000
0100
0010
0100
0000
0000
0000
0001
0000
0000
0000
,
0010
0000
0100
0000
2000
0000
0000
0000
0200
3300
1010
0000
0101
0000
1100
0000
,
0220
0000
0000
0000
0000
0000
0000
0000
0330
0000
0000
0000
0001
0000
0001
1000
0001
0000
0000
0000
0010
0000
0000
0000
0000
0000
0000
0000
1000
0000
0100
0000
,
0010
0001
0010
0100
1000
0010
0100
0001
0010
0100
0001
1000
0100
0010
0100
1000
,
0110
0000
0000
0000
0000
0000
0000
0000
0000
1001
0000
0000
0000
0000
0000
0000
0000
0000
0101
0000
0000
0000
0000
0000
0000
0000
0000
0000
0000
0000
1000
0000
0100
0000
0010
0000
0000
0000
0000
0000
0000
0000
0101
0000
0000
0000
0000
0000
,
1100
0000
0000
0000
2200
0000
0000
3300
0022
0000
0000
0033
0220
0000
0000
0330
,
0110
0101
1100
1010
1001
0101
0011
1010
,
0110
0101
0101
0110
1100
1001
1010
0110
,
1001
0011
1001
1010
1001
1100
1001
0101
,
1100
0011
0101
1010
1100
0011
0101
1010
,
1000
0001
1000
0000
0010
0000
0100
0000
0001
1000
0001
0000
0100
0000
0010
0000
,
1000
0001
1000
0000
0110
0000
1001
0000
0001
1000
0001
0000
1001
0000
0110
0000
,
1000
0001
1000
0000
0101
0000
1100
0000
0001
1000
0001
0000
1010
0000
0101
0000
,
1001
0000
0000
0000
2002
0000
0000
3003
0220
0000
0000
0330
2002
0000
0000
3003
,
0010
1000
0100
0000
0010
0001
0010
0000
0100
1000
0010
0100
1000
0100
0010
0000
,
0001
0100
0010
0000
0100
0001
0010
0000
0001
1000
0001
0100
0010
0100
0010
1000
,
1000
0100
0010
0000
0010
0001
0100
0000
0010
0001
0100
0001
0010
0100
1000
0001
,
0010
1000
0010
0001
0100
1000
0100
0000
1000
0010
0001
0010
1000
0100
0010
0000
,
0101
0010
1000
0000
0100
0010
0001
0000
1001
0100
1000
0000
0010
1000
0001
0000
,
0011
1000
0100
0000
0010
1000
0100
0000
1010
0001
0010
0000
1000
0010
0001
0000
,
0220
0000
0000
0000
0000
0000
0000
0000
0000
0000
0000
0000
0000
0000
0000
0330
0000
0000
0000
0000
0000
0000
0000
0000
0101
0000
0000
0000
0000
0000
0000
0000
0101
0000
0000
0000
0000
0000
0000
0000
0000
0000
2002
0000
0000
0000
0000
0000
,
0000
0000
0000
0000
0000
3003
0000
0000
,
0220
0000
0000
0000
0000
0330
0000
0000
0202
0000
0000
0000
0303
0000
2002
0000
,
0000
0000
0000
0000
0000
0000
0000
3003
,
1100
0000
0100
0010
0000
0100
0001
0000
0100
1000
0010
0100
1000
0100
0010
0000
,
1010
0000
0001
0010
0000
0001
1000
0000
0010
0100
0001
1000
0010
0100
0001
1000
,
0011
0000
1000
0100
0000
0010
0100
0000
0001
0100
0001
0100
1000
0010
0001
0000
,
0110
0000
0100
0010
0000
0010
0100
0000
0001
1000
0100
0010
0100
1000
0100
0001
;
