#TITLE:What Will Come Of Me;
#SUBTITLE:;
#ARTIST:Black Rose Garden;
#TITLETRANSLIT:;
#SUBTITLETRANSLIT:;
#ARTISTTRANSLIT:;
#CREDIT:;
#BANNER:;
#BACKGROUND:;
#LYRICSPATH:;
#CDTITLE:;
#MUSIC:What Will Come Of Me.ogg;
#OFFSET:-1.773;
#SAMPLESTART:45.571;
#SAMPLELENGTH:12.000;
#SELECTABLE:YES;
#BPMS:0.000=140.000;
#STOPS:;
#BGCHANGES:;
// cache tags:
#FIRSTBEAT:6.000;
#LASTBEAT:252.000;
#SONGFILENAME:Songs/SSSC Pack 2/What Will Come Of Me - [NIQ9]/What Will Come Of Me.sm;
#HASMUSIC:1;
#HASBANNER:0;
#MUSICLENGTH:114.938;
// end cache tags

//---------------dance-single - NIQ9----------------
#NOTES:
     dance-single:
     NIQ9:
     Challenge:
     13:
     0.866,1.000,0.235,0.183,1.000,649.000,27.000,21.000,0.000,0.000:


0000
0000
0000
0000
,
0000
0000
0000
0000
0000
0000
0000
0000
0000
0000
0000
0000
1000
0100
0020
0000
0000
0000
0000
0000
0000
0000
0000
0000
,
0031
1000
0010
0000
0000
0000
0100
0000
0000
0000
0000
0000
0001
1000
0010
1000
0001
0100
0010
0100
0001
1000
0010
1000
,
0001
0100
0010
0100
0001
1000
0010
1000
0001
0100
0001
1000
0010
1000
0001
0010
0100
1000
0001
0010
0100
0010
0001
1000
,
0100
0010
0001
1000
0010
1000
0001
0100
0010
0200
0000
0000
0000
0000
0000
0000
0000
0000
0000
0000
0000
0000
0000
0000
,
0300
0000
0000
0000
0000
0000
0000
0000
0000
0001
0100
0010
0100
0001
1000
0001
0010
0100
1000
0100
0010
0001
1000
0010
,
1000
0001
0100
0010
0100
0001
1000
0001
0010
0100
1000
0100
0010
0001
0010
0001
1000
0010
1000
0001
0100
0010
0100
0001
,
1000
0010
1000
0010
1000
0001
0100
0010
0100
0001
1000
0001
0010
0100
1000
0100
0010
0100
1000
0001
0100
0010
1000
0001
,
0020
0000
0000
0000
0000
0000
0031
0010
0001
0000
0011
0000
1100
0000
1001
0000
,
0021
0000
0000
0000
0000
0000
0100
0030
0000
0000
0000
0000
1000
0000
0000
0000
0000
0000
0010
0000
0000
0000
0000
0000
0100
0000
0000
0000
0000
0000
0000
0000
0000
0000
0000
0000
0010
0000
0000
0000
0000
0000
1000
0000
0000
0000
0000
0000
,
0000
0010
0000
1001
1000
0000
0020
0000
,
0130
0001
0010
0100
1000
0000
0100
0010
,
0000
0001
0000
0101
0100
0000
0020
1000
,
1030
0100
0010
0001
0010
0000
0100
1000
,
0000
0010
0000
1001
0001
0000
2000
0100
,
3100
0010
0001
0010
0000
0001
0000
0100
,
0010
0000
0000
0000
0000
0000
1000
0000
0000
0000
0000
0000
0001
0000
0000
1000
0000
0000
0001
0000
0000
0000
0000
0000
0000
0000
0000
0000
0000
0000
1000
0000
0000
0000
0000
0000
0001
0000
0000
0000
0000
0000
0100
0000
0001
0000
0100
0000
,
0001
1000
0100
0000
1000
0001
0100
0000
0101
0000
0100
0000
0010
0000
1000
0000
,
0100
0100
0100
0010
0001
0000
1000
1000
,
0010
0100
0001
0010
0100
1000
0001
1000
,
0000
0010
0000
0101
0001
0000
1000
1000
,
0100
0010
0100
1000
0001
0000
1000
0010
,
0000
0100
0000
1001
1000
0000
0002
0000
,
0013
0010
0100
1000
0010
0000
0100
0001
,
0000
0000
0010
0000
0100
0000
0100
0000
1100
0000
1100
0000
1000
0010
0100
0000
,
0001
0000
0000
1000
0000
0000
0100
0000
0000
1000
0100
1000
0100
0000
0000
1000
0000
0000
0002
0000
0000
0100
0000
0000
,
0103
0000
0010
0000
1000
0100
0010
0000
0001
0000
1000
0000
0020
0000
1000
0000
,
1030
0100
1000
0001
1001
1000
0100
0010
,
0001
0000
0000
0000
0000
0000
1000
0000
0000
0010
0000
0000
0100
0000
0000
0000
0000
0000
0001
0000
0100
0000
0001
0000
0100
0000
0000
0000
0000
0000
0020
0000
0000
0000
0000
0000
0000
0000
0000
0000
0000
0000
1030
0000
0000
0000
0000
0000
,
0001
0000
0000
0010
0000
0000
0001
0000
0000
1000
0001
1000
0001
0000
0000
1000
0000
0000
0000
0000
0000
1000
0000
0000
,
0001
0000
1000
0000
0010
1000
0100
0000
0010
0000
0002
0000
1003
0000
0010
0000
,
0020
0100
0000
1030
1001
1000
0001
0010
,
0100
0000
0000
0000
0000
0000
1000
0000
0000
0010
0000
0000
0100
0000
0000
0000
0000
0000
0001
0000
1000
0000
0001
0000
1000
0000
0000
0000
0000
0000
0100
0000
0000
0000
0000
0000
0010
0000
0000
0000
0000
0000
0001
0000
0000
1000
0000
0000
,
0010
0100
0001
0010
0101
0000
1000
0020
,
0000
0000
0130
0000
0001
0000
1000
0000
1001
0000
0001
0000
0001
0000
0010
0001
,
0100
0010
1000
0001
0011
0010
0100
0200
,
0000
0000
1300
0000
1000
0000
0001
0000
1001
0000
1000
0000
0010
0000
1000
0010
,
0100
0001
1000
0100
1001
0000
0001
0100
,
0000
0000
0010
0000
0010
0000
1000
0000
1001
0000
0000
0000
0000
0000
1000
0001
,
1000
0001
0010
0100
0000
1000
0010
0200
,
0000
0000
0000
0302
0000
0000
0000
0000
0000
1003
0000
0000
0001
0000
0010
0000
0100
0000
1000
0000
0010
0000
0100
0000
,
0001
0000
0000
1000
0000
0000
0010
0000
0000
1000
0000
0000
0001
0000
0000
0100
0000
0000
0010
0000
1000
0000
0001
0000
1000
0000
0000
0000
0000
0000
0100
0000
0000
0000
0000
0000
1000
0000
0000
0000
0000
0000
0010
0000
0000
0000
0000
0000
,
0000
0000
0100
0000
0001
0100
0010
0000
1001
0000
1000
0000
0000
0000
0001
0000
,
0100
0010
0100
0001
1001
1000
0100
0100
,
1000
0000
0000
0000
0000
0000
0010
0000
0000
1000
0000
0000
0100
0000
0000
0000
0000
0000
1000
0000
0001
0000
1000
0000
0001
0000
0000
0000
0000
0000
0100
0000
0000
0000
0000
0000
0010
0000
0000
0000
0000
0000
0010
0000
0000
0000
0000
0000
,
0100
0000
0000
0001
0000
0000
1000
0000
0000
0001
0010
0001
0010
0000
0000
0100
0000
0000
1000
0000
0000
0010
0000
0000
,
0010
0000
0100
0000
0010
1000
0100
0000
0011
0000
0011
0000
1000
0000
1100
0000
,
1000
0100
1000
0100
1000
0100
1000
0000
1001
0000
0001
0000
0100
0000
0010
0000
,
0100
0010
1000
0010
0100
0001
0100
0010
1000
0010
0100
0001
1000
0001
1000
0010
,
1000
0010
1000
0001
0100
0010
0100
0001
1000
0010
1000
0001
0100
0010
0100
0001
1000
0010
1000
0001
0100
0010
0100
0001
,
1000
0001
1000
0100
0010
0100
1000
0100
0010
0001
0010
0100
1000
0100
0010
0001
1000
0010
1000
0001
0100
0010
0100
0001
,
0100
0001
0100
0001
0100
0010
1000
0001
0010
0100
1000
0100
0010
0001
1000
0010
0100
0001
1000
0010
0100
0001
1000
0100
,
0010
0001
0010
0100
1000
0001
1000
0010
1000
0001
0100
0010
0100
0001
1000
0001
0010
0100
1000
0100
0010
0001
0010
0100
,
1000
0001
1000
0010
0100
0001
1000
0100
0010
0001
0010
0100
1000
0001
1000
0100
0010
0100
1000
0001
1000
0010
1000
0001
,
0100
0010
0100
0001
1000
0100
0010
0001
0010
0100
1000
0001
0100
0010
0100
0001
1000
0010
1000
0001
0100
0010
0100
0001
,
1000
0001
1000
0010
0100
0001
1000
0001
1000
0001
0010
0100
0010
0001
0010
0100
1000
0100
0010
0001
1000
0010
0100
0010
,
1000
0001
0100
0010
0100
0001
0100
0010
1000
0001
0100
0010
1000
0000
0010
0000
0100
0000
0001
0000
0010
0000
0001
0000
,
0200
0000
0000
0010
0000
0000
0010
0000
,
0001
0000
0000
0010
0000
0000
0001
0000
,
0301
0010
0100
2000
0000
0000
3100
0000
,
0010
0000
0000
0001
0000
0000
0100
0000
,
0202
0000
0000
0000
,
0000
0000
0000
0000
,
0303
0000
0000
0000
;

//---------------dance-single - NIQ9----------------
#NOTES:
     dance-single:
     NIQ9:
     Hard:
     9:
     0.589,0.713,0.452,0.174,0.231,402.000,52.000,20.000,0.000,0.000:


0000
0000
0000
0000
,
0000
0000
0000
0000
,
0000
0000
0000
0000
,
0000
0000
0000
0001
0001
0000
0000
0000
,
0000
0000
0000
0000
,
0000
0000
0000
1000
1000
0000
0000
0000
,
0000
0000
0000
0000
,
0000
0000
0000
0100
0100
0000
0000
0000
,
0000
0000
0000
0010
0010
0000
0000
0001
,
0011
0100
1000
0010
0100
0000
0010
1000
,
0000
0010
0000
1001
1000
0000
0020
0000
,
0130
0001
0010
0100
1000
0000
0100
0010
,
0000
0001
0000
0101
0100
0000
0020
1000
,
1030
0100
0010
0001
0010
0000
0100
1000
,
0000
0010
0000
1001
0001
0000
2000
0100
,
3100
0010
0001
0010
0000
0001
0000
0100
,
0010
0000
0000
0000
0000
0000
1000
0000
0000
0000
0000
0000
0001
0000
0000
1000
0000
0000
0001
0000
0000
0000
0000
0000
0000
0000
0000
0000
0000
0000
1000
0000
0000
0000
0000
0000
0001
0000
0000
0000
0000
0000
0100
0000
0001
0000
0100
0000
,
0001
1000
0100
0000
1000
0001
0100
0000
0101
0000
0100
0000
0010
0000
1000
0000
,
0100
0100
0100
0010
0001
0000
1000
1000
,
0010
0100
0001
0010
0100
1000
0001
1000
,
0000
0010
0000
0101
0001
0000
1000
1000
,
0100
0010
0100
1000
0001
0000
1000
0010
,
0000
0100
0000
1001
1000
0000
0002
0000
,
0013
0010
0100
1000
0010
0000
0100
0001
,
0000
0000
0010
0000
0100
0000
0100
0000
1100
0000
1100
0000
1000
0010
0100
0000
,
0001
0000
0000
1000
0000
0000
0100
0000
0000
1000
0100
1000
0100
0000
0000
2000
0000
0000
0010
0000
0000
3001
0000
0000
,
0100
0000
0010
0000
1000
0100
0010
0000
0001
0000
2000
0000
0001
0000
3010
0000
,
1000
0100
1000
0001
1001
1000
0100
0010
,
0001
0000
0000
0000
0000
0000
1000
0000
0000
0010
0000
0000
0100
0000
0000
0000
0000
0000
0001
0000
0100
0000
0001
0000
0100
0000
0000
0000
0000
0000
0020
0000
0000
0000
0000
0000
1000
0000
0000
0000
0000
0000
1030
0000
0000
0000
0000
0000
,
0001
0000
0000
0010
0000
0000
0010
0000
0000
0001
0010
0001
0010
0000
0000
0100
0000
0000
0000
0000
0000
0010
0000
0000
,
0001
0000
1000
0000
0010
1000
0100
0000
0010
0000
0002
0000
1003
0000
0010
0000
,
0020
0100
0000
1030
1001
1000
0001
0010
,
0100
0000
0000
0000
0000
0000
1000
0000
0000
0010
0000
0000
0100
0000
0000
0000
0000
0000
0001
0000
1000
0000
0001
0000
1000
0000
0000
0000
0000
0000
0100
0000
0000
0000
0000
0000
0010
0000
0000
0000
0000
0000
0001
0000
0000
1000
0000
0000
,
0010
0100
0001
0010
0101
0000
1000
0020
,
0000
0000
0130
0000
0001
0000
1000
0000
1001
0000
0001
0000
0001
0000
0010
0001
,
0100
0010
1000
0001
0011
0010
0100
0200
,
0000
0000
1300
0000
1000
0000
0001
0000
1001
0000
1000
0000
0010
0000
1000
0010
,
0100
0001
1000
0100
1001
0000
0001
0100
,
0000
0000
0010
0000
0010
0000
1000
0000
1001
0000
0000
0000
0000
0000
1000
0001
,
1000
0001
0010
0100
0000
1000
0010
0200
,
0000
0000
0000
0302
0000
0000
0000
0000
0000
1003
0000
0000
0001
0000
0010
0000
0100
0000
1000
0000
0010
0000
0100
0000
,
0001
0000
0000
1000
0000
0000
0010
0000
0000
1000
0000
0000
0001
0000
0000
0100
0000
0000
0010
0000
1000
0000
0001
0000
1000
0000
0000
0000
0000
0000
0100
0000
0000
0000
0000
0000
1000
0000
0000
0000
0000
0000
0010
0000
0000
0000
0000
0000
,
0000
0000
0100
0000
0001
0100
0010
0000
1001
0000
1000
0000
0000
0000
0001
0000
,
0100
0010
0100
0001
1001
1000
0100
0100
,
1000
0000
0000
0000
0000
0000
0010
0000
0000
1000
0000
0000
0100
0000
0000
0000
0000
0000
1000
0000
0001
0000
1000
0000
0001
0000
0000
0000
0000
0000
0100
0000
0000
0000
0000
0000
0000
0000
0000
0000
0000
0000
0010
0000
0000
0000
0000
0000
,
0100
0000
0000
0001
0000
0000
1000
0000
0000
0001
0010
0001
0010
0000
0000
0100
0000
0000
1000
0000
0000
0010
0000
0000
,
0010
0000
0100
0000
0010
1000
0100
0000
0011
0000
0011
0000
1000
0000
1100
0000
,
1000
0100
1000
0100
1000
0100
1000
0000
1001
0000
0001
0000
0100
0000
0010
0000
,
0100
0010
1000
0010
0100
0001
0100
0010
1000
0010
0100
0001
1000
1000
0000
0000
,
0011
0011
0011
0011
0011
0000
0000
1001
,
0000
1001
1001
0000
0000
0000
1010
1010
,
1010
1010
1010
1010
1010
0000
0000
1001
,
0000
0101
0101
0000
0000
0000
1001
1001
,
1000
0100
0010
0001
1001
0001
1100
1100
,
1000
0000
0101
0000
1001
0000
1000
0000
1010
0000
0100
0000
0001
0000
0010
0100
,
1000
0001
0100
1000
1100
0100
0001
0010
,
0100
0000
0000
1000
0000
0000
0010
0000
0000
1000
0000
0000
1010
0000
1010
0000
0010
0000
0100
0000
0001
0000
0010
0000
,
0200
0000
0000
1000
0000
0000
0010
0000
,
2300
0000
0000
0010
0000
0000
0001
0000
,
3100
1000
0100
0020
0000
0000
0031
0000
,
0200
0000
0000
0020
0300
0000
2030
0000
,
0002
0000
0000
0000
,
0000
0000
0000
0000
,
3003
0000
0000
0000
;

//---------------dance-single - NIQ9----------------
#NOTES:
     dance-single:
     NIQ9:
     Medium:
     7:
     0.344,0.493,0.087,0.035,0.004,263.000,10.000,4.000,0.000,0.000:


0000
0000
0000
0000
,
0000
0000
0000
0000
,
0000
0000
0000
0000
,
0000
0000
0000
0000
,
0000
0000
0000
0000
,
0000
0000
0000
0000
,
0000
0000
0000
0000
,
0000
0000
0000
0000
,
0000
0000
0000
0000
,
0001
1000
0100
1000
0010
0000
0100
0010
,
0000
1000
0000
0011
0001
0000
0000
0000
,
1000
0100
1000
0010
0100
0000
0010
1000
,
0000
0001
0000
0011
0001
0000
0000
0000
,
1000
0100
1000
0010
0100
0000
0010
1000
,
0000
0001
0000
0100
0001
0000
0000
0000
,
1000
0000
0100
0010
0000
0001
0000
1000
,
0100
0000
1000
0000
0001
1000
0001
0000
0000
0000
0000
0000
0000
0000
0000
0000
,
1000
0010
0100
0010
1000
0000
0001
0100
,
0000
0010
0000
1000
0100
0000
0000
0000
,
0010
0001
0100
0001
0010
0000
0100
1000
,
0000
0010
0000
0110
0010
0000
0000
0000
,
1000
0010
1000
0001
0100
0000
0001
0010
,
0000
0100
0000
1000
0100
0000
0000
0000
,
1000
0010
1000
0010
1000
0000
0010
0100
,
0000
0001
0010
0100
0000
0000
0000
0000
,
1000
0000
0000
0100
,
0010
0000
0000
0001
0000
0000
1000
0000
,
0010
1000
0001
0100
0000
0001
0010
0100
,
0000
1000
0100
0000
1001
0000
0000
0000
,
1000
0010
1000
0001
0000
0100
0000
0010
,
0000
1000
0100
0000
0000
0000
0010
0001
,
0100
0000
0000
0010
,
1000
0000
0000
0100
0000
1000
0100
0010
,
0001
1000
0100
1000
0010
0000
0100
0010
,
0000
1000
0010
0100
0001
0000
0000
0000
,
0000
0010
0100
1000
0000
0010
0000
0100
,
0000
0001
1000
0100
0000
0010
0000
0001
,
0000
0010
0100
1000
0100
0000
0010
0001
,
0000
1000
0010
0100
0001
0000
0000
1000
,
0000
0100
0010
0100
0000
1000
0010
0100
,
0000
0001
0000
1000
0000
0100
0000
0010
,
0000
0001
0010
0100
1000
0000
0010
0100
,
0000
0010
0010
1000
0100
0000
0000
0000
,
0000
1000
0001
0010
0000
0100
0000
0010
,
0000
0001
0100
0010
0000
1000
0000
0100
,
1000
0010
0100
0001
0010
0000
0100
1000
,
0000
0001
0000
1000
0000
0000
0000
0010
,
1010
1010
0010
0100
0010
0000
1000
0010
,
0100
0010
1000
0010
0100
0001
1000
0000
,
0001
0001
0001
0001
0001
0000
0000
0010
,
0000
0100
0100
0000
0000
0000
1000
1000
,
1000
1000
1000
1000
1000
0000
0000
0001
,
0000
0001
0001
0000
0000
0000
1001
1001
,
1000
0010
0100
0010
1010
1000
0010
0100
,
0001
1000
0001
0010
0011
0001
1000
0100
,
0100
1000
0010
0100
0001
1000
0001
0100
,
0001
0010
0100
1000
0002
0000
2003
0000
,
3100
0000
0000
0010
0000
0000
0001
0000
,
0100
0000
0000
0010
0000
0000
1000
0000
,
0010
1000
0010
0100
0000
0000
0010
0000
,
1000
0000
0000
0001
0000
0000
0020
0000
,
0002
0000
0000
0000
,
0000
0000
0000
0000
,
0033
0000
0000
0000
;

//---------------dance-single - NIQ9----------------
#NOTES:
     dance-single:
     NIQ9:
     Easy:
     5:
     0.234,0.301,0.174,0.035,0.000,164.000,20.000,4.000,0.000,0.000:


0000
0000
0000
0000
,
0000
0000
0000
0000
,
0000
0000
0000
0000
,
0000
0000
0001
0000
,
0000
0000
0000
0000
,
0000
0000
1000
0000
,
0000
0000
0000
0000
,
0000
0000
0010
0000
,
0000
0000
0100
0000
,
0001
0000
1000
0000
0100
0000
0000
1000
,
0000
0001
0000
0000
1001
0000
0000
0000
,
0001
0000
0100
0000
0010
0000
0000
1000
,
0000
0010
0000
0000
1001
0000
0000
0000
,
0001
0000
0100
0000
0001
0000
0000
0010
,
0000
0100
0000
0000
1000
0000
0000
0000
,
0001
0100
0001
1000
,
0100
0010
0000
1001
,
0001
0100
0010
0000
,
0000
0000
0000
0000
,
1000
0100
0010
0001
,
0100
0010
1000
0000
,
0001
0000
0010
0000
0100
0000
0000
1000
,
0000
0110
0000
0000
0100
0000
0000
0000
,
1000
0000
0001
0000
,
1000
0000
0000
0000
0100
0100
0000
0000
,
1000
0000
0000
0010
,
0100
0000
0000
0001
0000
0000
0010
0000
,
0100
1000
0100
1000
,
0010
0100
1001
0000
,
0001
0000
0000
0010
0000
0100
0000
1000
,
0000
0001
0000
1000
,
1010
0000
0101
0001
,
1000
0100
1100
1000
,
0010
0000
0100
0000
1001
0000
0000
0001
,
0000
0010
1100
0000
,
0000
0010
0100
0001
,
0010
0100
1001
0001
,
1000
0000
1000
0000
1010
0000
0000
0001
,
0000
0100
0000
1001
0000
0000
0000
0001
,
0000
0010
0000
0100
0000
1000
0000
0010
,
0000
0010
0000
0100
0000
0100
0000
0001
,
0000
1100
1001
0001
,
0100
0010
1001
1000
,
0100
0100
0110
0010
,
0001
1000
0010
0100
,
0001
0001
1001
1000
,
0100
0100
1001
0001
,
0100
0100
0100
0010
,
1000
0000
0000
0000
,
0001
0000
0001
0000
0001
0000
0000
1000
,
0000
1000
0000
0001
,
0001
0000
0001
0000
0001
0000
0000
0010
,
0000
0000
0010
0000
0000
0000
0100
1000
,
0001
0100
1010
0010
,
0100
0000
0001
0000
1000
0000
0100
0010
,
0001
1000
0002
2000
,
3003
0000
0000
0000
,
0010
0000
0000
0000
,
0100
0000
0000
0000
,
0001
0000
0000
0000
,
1000
0000
0000
0100
0000
0000
0020
0000
,
0002
0000
0000
0000
,
0000
0000
0000
0000
,
0033
0000
0000
0000
;
