#TITLE:The Matrix DNB;
#SUBTITLE:;
#ARTIST:ParagonX9;
#TITLETRANSLIT:;
#SUBTITLETRANSLIT:;
#ARTISTTRANSLIT:;
#CREDIT:;
#BANNER:NG2630 - The Matrix DNB - BN.png;
#BACKGROUND:NG2630 - The Matrix DNB.png;
#LYRICSPATH:;
#CDTITLE:spyrothedragon.png;
#MUSIC:NG2630 - The Matrix DNB.mp3;
#OFFSET:-0.192;
#SAMPLESTART:20.214;
#SAMPLELENGTH:12.000;
#SELECTABLE:YES;
#BPMS:0.000=149.983;
#STOPS:;
#BGCHANGES:;
// cache tags:
#FIRSTBEAT:0.000;
#LASTBEAT:119.500;
#SONGFILENAME:Songs/toune 2/NG2630 - The Matrix DNB/NG2630 - The Matrix DNB.sm;
#HASMUSIC:1;
#HASBANNER:1;
#MUSICLENGTH:51.260;
// end cache tags

//---------------dance-single - ----------------
#NOTES:
     dance-single:
     :
     Easy:
     4:
     0.273,0.288,0.020,0.000,0.000,97.000,1.000,0.000,0.000,0.000:
1000
1000
0100
1000
,
0001
0001
0100
0001
,
1010
1000
0010
0000
,
0001
0000
1000
0100
,
0001
0000
1000
0010
,
1000
0000
0001
0010
,
0001
0000
1000
0010
,
0001
0000
1000
0010
,
0001
0010
0100
0010
,
0001
0100
0010
0100
,
0001
0010
0100
0010
,
1000
0000
0001
0100
,
0001
0010
0100
0010
,
1000
0001
0100
0000
,
0001
0010
0100
0010
,
1000
0000
0001
0100
,
1000
0001
0100
0000
,
1000
0001
0010
0000
,
1000
0001
0010
0000
,
0001
0000
1000
0100
,
1000
0001
0100
0000
,
1000
0001
0100
0000
,
1000
0001
0100
0000
,
0001
0000
1000
0100
,
1000
0001
0100
0000
,
1000
0001
0100
0000
,
0001
1000
0100
0000
,
0001
0000
1000
0100
,
1000
0001
0100
0000
,
0001
1000
0100
0000
;

//---------------dance-single - ----------------
#NOTES:
     dance-single:
     :
     Medium:
     7:
     0.407,0.466,0.059,0.000,0.000,143.000,3.000,0.000,0.000,0.000:
1010
0000
0001
0010
0100
0010
0001
0000
,
0011
0000
1000
0010
0100
0010
1000
0000
,
0011
0100
0010
1000
,
0001
0000
0000
0000
1000
0000
0001
0001
,
1000
0000
0000
0000
0001
0000
1000
1000
,
1000
0000
0000
0000
0001
0000
1000
1000
,
1000
0000
0000
0000
0001
0000
1000
1000
,
1000
0000
0000
0000
0001
0000
1000
1000
,
0001
0000
1000
0000
0100
0000
0010
0001
,
0001
0000
1000
0000
0010
0000
0100
0001
,
1000
0000
0001
0000
0010
0000
0100
1000
,
1000
0000
0010
0000
0100
0000
0010
0100
,
0001
0000
1000
0000
0100
0000
0010
0001
,
1000
0000
0100
0000
1000
0000
0010
1000
,
0001
0000
1000
0000
0100
0000
0010
0001
,
1000
0000
0010
0000
0100
0000
0010
0100
,
1000
0000
0100
0000
1000
0000
0010
1000
,
1000
0000
0010
0000
1000
0000
0100
1000
,
0001
0000
0100
0000
0001
0000
0010
0001
,
0001
0000
0000
0000
1000
0000
0001
0001
,
1000
0000
0100
0000
1000
0000
0010
1000
,
0001
0000
0010
0000
0001
0000
0100
0001
,
0001
0000
0010
0000
0001
0000
0100
0001
,
0001
0000
0000
0000
1000
0000
0001
0001
,
1000
0000
0100
0000
1000
0000
0010
1000
,
1000
0000
0100
0000
1000
0000
0010
1000
,
0001
0000
0010
0000
0001
0000
0100
0001
,
0001
0000
0000
0000
1000
0000
0001
0001
,
1000
0000
0100
0000
1000
0000
0010
1000
,
1000
0000
0100
0000
1000
0000
0010
1000
;

//---------------dance-single - ----------------
#NOTES:
     dance-single:
     :
     Hard:
     9:
     0.563,0.495,0.195,0.000,0.000,192.000,10.000,0.000,0.000,0.000:
1001
1000
1000
0100
0010
0001
0010
0000
,
1001
0000
0001
0010
0100
1000
0100
0000
,
0011
0000
0010
0000
0001
0000
0100
0100
,
1000
0000
0100
0100
0010
0000
0100
0100
,
1000
0000
0010
0010
0100
0000
0010
0010
,
1000
0000
0100
0100
0010
0000
0100
0100
,
1000
0000
0100
0100
0010
0000
0100
0100
,
0001
0000
0010
0010
0100
0000
0010
0000
,
0110
0000
0001
1000
0100
0010
0001
0000
,
0110
0000
0001
1000
0100
0010
0001
0000
,
0110
0000
0001
1000
0010
0100
0001
0000
,
1100
0000
0001
0001
1000
0001
0010
0000
,
0110
0000
0001
1000
0100
0010
0001
1000
,
1000
0001
0100
0000
0001
0100
0001
0000
,
0110
0000
0001
1000
0100
0010
0001
0000
,
1100
0000
0001
0001
1000
0001
0010
1000
,
1000
0001
0100
0000
0001
0100
0001
1000
,
0001
1000
0010
0000
1000
0010
1000
0001
,
0001
1000
0100
0000
1000
0100
1000
0001
,
1000
0000
0100
0100
0010
0000
0100
0100
,
1000
0001
0100
0000
0001
0100
0001
1000
,
0001
1000
0100
0000
1000
0100
1000
0001
,
1000
0001
0010
0000
0001
0010
0001
1000
,
1000
0000
0100
0100
0010
0000
0100
0100
,
1000
0001
0100
0000
0001
0100
0001
1000
,
1000
0001
0100
0000
0001
0100
0001
1000
,
0001
1000
0100
0000
1000
0100
1000
0001
,
1000
0000
0100
0100
0010
0000
0100
0100
,
1000
0001
0100
0000
0001
0100
0001
1000
,
1000
0001
0010
0000
0001
0010
0001
1000
;
