#TITLE:Black Winter Night;
#SUBTITLE:Valley Of The Damned;
#ARTIST:Dragonforce;
#TITLETRANSLIT:;
#SUBTITLETRANSLIT:;
#ARTISTTRANSLIT:;
#CREDIT:Gitaroo Man Vs. Dog_E;
#BANNER:black.PNG;
#BACKGROUND:black-BG.PNG;
#LYRICSPATH:;
#CDTITLE:GMTitle.PNG;
#MUSIC:Black Winter Night.mp3.mp3;
#OFFSET:-0.159;
#SAMPLESTART:124.138;
#SAMPLELENGTH:19.860;
#SELECTABLE:YES;
#BPMS:0.000=200.200,184.000=200.000,708.000=400.000,716.000=200.000,732.000=201.000,788.000=199.000,820.000=200.200,1104.000=200.000,1172.000=99.800,1188.000=199.800;
#STOPS:;
#BGCHANGES:;
// cache tags:
#FIRSTBEAT:32.000;
#LASTBEAT:1274.000;
#SONGFILENAME:Songs/CMDKDF Pack/Black Winter Night (Gitaroo Man Vs. Dog_E)/Black Winter Night.sm;
#HASMUSIC:1;
#HASBANNER:1;
#MUSICLENGTH:390.360;
// end cache tags

//---------------dance-single - ----------------
#NOTES:
     dance-single:
     :
     Hard:
     13:
     1.000,1.000,1.000,0.482,1.000,3132.000,505.000,188.000,0.000,13.000:

0000
0000
0000
0000
,
0000
0000
0000
0000
,
0000
0000
0000
0000
,
0000
0000
0000
0000
,
0000
0000
0000
0000
,
0000
0000
0000
0000
,
0000
0000
0000
0000
,
0000
0000
0000
0000
,
1001
0001
0100
0010
1010
0010
0100
0001
,
1100
0000
0001
0000
0010
0000
0100
1000
0100
0000
1000
0000
0010
0000
0100
0010
,
1001
0000
0100
0010
1010
0010
0100
0001
,
1100
0000
0001
0000
0010
0000
0100
1000
0100
0000
1000
0000
0010
0000
0100
0010
,
1001
0001
0100
0010
1010
0010
0100
0001
,
1100
0000
0001
0000
0010
0000
0100
1000
0100
0000
1000
0000
0010
0000
0100
0010
,
1001
0000
0100
0010
1010
0010
0100
0001
,
1000
0010
1000
0010
1000
0010
1000
0010
1000
0001
1000
0001
1000
0001
1000
0001
,
1001
0000
0000
0000
1010
0000
1000
0000
0100
0000
0001
0000
0010
0000
0100
1000
,
0010
0000
0000
0000
0100
0010
1000
0000
0100
0000
0010
0000
0100
0000
1000
0000
,
1001
0000
0000
0000
1010
0000
1000
0000
0100
0000
0001
0000
0010
0000
0100
1000
,
0010
0100
0001
0100
0001
0100
0001
0010
0100
0010
0100
0010
0100
1000
0100
1000
,
1100
0000
0000
0000
0100
0010
0001
0000
0100
0000
0010
0000
0100
0000
1000
0000
,
1001
0000
0000
0000
1010
0000
1000
0000
0100
0000
0001
0000
0010
0000
0100
1000
,
1010
1010
1010
1010
1001
1001
1001
1001
,
0001
1000
0010
0100
0010
1000
0100
0010
0001
0100
0010
1000
0100
0010
0100
1000
,
0010
0100
0001
1000
0001
0100
0001
1000
0100
1000
0010
0100
0010
1000
0100
0010
,
0001
1000
0100
1000
0010
1000
0100
1000
0001
1000
0010
0100
0001
0010
0100
1000
,
0010
1000
0100
1000
0001
0100
0001
0100
0010
1000
0100
1000
0001
1000
0010
0100
,
0001
0100
0010
1000
0001
0010
0100
0010
0001
1000
0010
0100
0010
1000
0001
1000
,
0001
0100
0010
0100
0001
1000
0100
1000
0010
0100
0010
1000
0001
1000
0010
0100
,
0010
1000
0001
0010
0100
0010
0001
0010
0100
1000
0010
0100
0001
1000
0001
0010
,
0100
1000
0001
0100
0010
1000
0010
0100
0010
1000
0100
0010
0001
1000
0001
1000
,
0010
1000
0010
1000
0010
1000
0010
1000
0010
0100
0010
0100
0001
0100
0001
0100
,
0001
0100
0001
1000
0001
0100
0001
1000
0100
1000
0010
0100
0010
1000
0100
0010
,
0001
1000
0100
1000
0010
1000
0100
1000
0001
1000
0010
0100
0001
0010
0100
1000
,
0010
1000
0100
1000
0001
0100
0001
0100
0010
1000
0100
1000
0001
1000
0010
0100
,
0001
0100
0010
1000
0001
0010
0100
0010
0001
1000
0010
0100
0010
1000
0001
1000
,
0001
0100
0010
0100
0001
1000
0100
1000
0010
0100
0010
1000
0001
1000
0010
0100
,
0010
1000
0001
0010
0100
0010
0001
0010
0100
1000
0010
0100
0001
1000
0001
0010
,
0100
1000
0001
0100
0010
1000
0010
0100
0010
1000
0100
0010
0001
1000
0001
1000
,
0010
1000
0010
1000
0010
1000
0010
1000
0010
0100
0010
0100
0001
0100
0001
0100
,
1000
0001
1000
0001
1000
0001
1000
0010
0100
0001
1000
0001
1000
0001
1000
0001
,
0010
0100
1000
0001
1000
0001
1000
0001
1000
0010
0100
0001
1000
0001
1000
0001
,
1000
0001
1000
0010
1000
0010
1000
0010
1000
0010
0100
0001
0010
0001
0010
0001
,
0010
0100
1000
0010
1000
0010
1000
0010
1000
0010
0100
0001
0010
0001
0010
0001
,
0010
0100
1000
0001
1000
0010
0100
0010
1000
0010
1000
0001
0010
0100
0010
0001
,
0100
0010
1000
0100
1000
0010
0100
0010
1000
0001
0010
0100
1000
0010
0100
0010
,
2002
3003
0100
0000
0010
0000
2002
3003
0100
0000
0010
0000
2002
3003
0100
0000
,
2000
3020
0230
0302
2003
3002
0023
0230
,
1301
0101
0000
0110
1010
0000
0010
0001
,
0101
1001
0000
0101
0000
1100
0000
0010
,
1100
0000
0000
0110
0000
0000
0001
0000
1010
0000
0000
0110
0000
0000
1000
0000
,
2002
0000
0000
0000
0000
0000
0000
3003
,
1001
1010
1100
0000
0101
0000
1000
0010
,
1100
0000
0000
0110
0000
0000
0022
0000
0000
0000
0033
0000
1001
0000
1001
0000
,
1010
0000
0000
0110
0000
0000
1000
0000
0011
0000
0000
1100
0000
0000
0010
0000
,
0200
0000
0000
0000
0000
0000
0000
0300
,
1000
0010
0100
0001
0010
0100
1000
0100
1000
0001
1000
0010
0100
0010
1000
0100
,
1000
0001
0100
0001
0010
0001
0100
0010
1000
0001
0100
0001
1000
0001
0010
0100
,
1000
0010
0100
0001
1000
0010
1000
0001
0100
0010
1000
0100
1000
0010
0100
0001
,
0100
0001
0010
0100
1000
0010
0100
0001
1000
0010
0100
0010
1000
0100
0010
0001
,
0100
0010
1000
0100
1000
0001
0100
0001
1000
0010
0100
0001
0100
0001
0010
0100
,
0010
0001
1000
0001
0010
0100
1000
0001
0100
0010
1000
0010
0100
0010
1000
0001
,
1000
0010
1000
0001
0010
0100
1000
0010
1000
0100
1000
0010
0100
0010
1000
0001
,
1000
0001
1000
0001
1000
0001
1000
0001
1000
0001
1000
0001
1000
0001
1000
0001
,
1000
0010
0100
0001
0100
0010
1000
0100
0010
0100
1000
0001
1000
0100
0010
0100
,
1000
0010
0100
0001
0100
0010
1000
0010
0100
0010
1000
0100
0010
0001
0010
0100
,
1001
0000
0011
0000
0100
1000
0010
0000
1001
0000
1100
0000
0010
0001
0100
0000
,
1001
0000
0011
0000
0100
1000
0010
0000
1001
0000
0000
0000
0110
0000
0000
0000
,
0001
0010
0100
1000
0100
0010
0001
0100
0010
0100
0001
0100
0001
0100
0010
0100
,
0001
0010
0100
1000
0100
0010
0001
0100
0010
0100
0001
0100
0001
0100
0010
0100
,
1001
0000
0000
1001
0000
0000
1001
0000
,
0210
0000
0000
0000
0000
0000
0302
0000
0000
0000
0000
0000
0023
0000
0000
0030
,
1001
1000
0001
1000
0001
1000
0001
1000
0001
1000
0001
1000
0001
1000
0001
1000
,
1001
0000
1001
0220
0000
0000
0000
0330
,
1001
0001
1000
0001
1000
0001
1000
0001
1000
0001
1000
0001
1000
0001
1000
0001
,
1001
0000
1001
0220
0000
0000
0000
0330
,
0010
1000
0100
0010
0100
1000
0010
0100
0001
0010
0100
0010
0001
1000
0001
1000
,
0010
0100
0001
0100
0010
1000
0001
1000
0200
0000
0000
0000
0000
0000
0300
0000
,
0100
0001
0010
0100
0010
0001
0100
0010
1000
0100
0010
0100
1000
0001
1000
0001
,
0100
0010
1000
0010
0100
0001
1000
0001
0020
0000
0000
0000
0000
0000
0030
0000
,
1001
0101
1010
0000
1100
0000
0010
0001
,
0101
0000
1001
0101
0000
0000
1100
0010
,
1100
0000
0000
0110
0000
0000
0001
0000
1010
0000
0000
0110
0000
0000
1000
0000
,
2002
0000
0000
0000
0000
0000
0000
3003
,
1001
1010
0000
1100
0101
0000
1000
0010
,
1100
0000
0000
0110
0000
0000
0022
0000
0000
0000
0033
0000
1001
0000
1001
0000
,
1010
0000
0000
0110
0000
0000
1000
0000
0011
0000
0000
1100
0000
0000
0010
0000
,
0200
0000
0000
0000
0000
0000
0000
0300
,
1000
0010
0100
0001
0010
0100
1000
0100
1000
0001
1000
0010
0100
0010
1000
0100
,
1000
0001
0100
0001
0010
0001
0100
0010
1000
0001
0100
0001
1000
0001
0010
0100
,
1000
0010
0100
0001
1000
0010
1000
0001
0100
0010
1000
0100
1000
0010
0100
0001
,
0100
0001
0010
0100
1000
0010
0100
0001
1000
0010
0100
0010
1000
0100
0010
0001
,
0100
0010
1000
0100
1000
0001
0100
0001
1000
0010
0100
0001
0100
0001
0010
0100
,
0010
0001
1000
0001
0010
0100
1000
0001
0100
0010
1000
0010
0100
0010
1000
0001
,
1000
0010
1000
0001
0010
0100
1000
0010
1000
0100
1000
0010
0100
0010
1000
0001
,
1000
0001
1000
0001
1000
0001
1000
0001
1000
0001
1000
0001
1000
0001
1000
0001
,
1000
0010
0100
0001
0100
0010
1000
0100
0010
0100
1000
0001
1000
0100
0010
0100
,
1000
0010
0100
0001
0100
0010
1000
0010
0100
0010
1000
0100
0010
0001
0010
0100
,
1001
0000
0011
0000
0100
1000
0010
0000
1001
0000
1100
0000
0010
0001
0100
0000
,
1001
0000
0011
0000
0100
1000
0010
0000
1001
0000
0000
0000
0110
0000
0000
0000
,
0001
0010
0100
1000
0100
0010
0001
0100
0010
0100
0001
0100
0001
0100
0010
0100
,
0001
0010
0100
1000
0100
0010
0001
0100
0010
0100
0001
0100
0001
0100
0010
0100
,
1001
0000
0000
0101
0000
0000
1010
0000
,
0120
0000
2030
3020
,
1031
0010
1000
1100
1000
0010
0101
0010
,
0101
0100
0010
1100
1000
0010
1100
1000
,
1010
0100
0001
1010
0101
1001
0100
1010
,
1000
0010
0100
0001
1010
0010
0101
1000
,
1001
0010
1000
1100
1000
0010
0101
0010
,
0101
0100
0010
1100
1000
0010
1100
1000
,
1010
0100
0001
1010
0101
1001
0100
1010
,
0001
0010
1000
0010
1001
0100
1010
0001
,
1100
0010
1000
0101
0010
1000
0011
0100
,
1100
0010
1000
1001
0100
0001
1010
1000
,
0110
0001
0100
1100
1001
0011
0100
1100
,
0010
0001
1000
0010
0101
1000
0011
0100
,
1100
0010
0001
0101
0010
1000
0011
0100
,
1001
0010
0100
1100
0010
1000
0110
0010
,
2002
0000
0000
0000
,
3023
0000
0000
0000
,
1130
0001
0100
0010
1000
0001
1010
0100
,
1100
1000
0110
0011
0100
1000
0101
0010
,
1001
0100
0011
1100
0001
1000
0110
0100
,
0011
0010
0100
1002
0000
0000
0000
0000
,
0013
0100
1000
0010
0100
0001
1000
0001
0100
0010
1000
0010
0100
0001
0100
0010
,
1000
0001
0100
0010
1000
0100
0010
0100
1000
0001
0100
0010
0100
0001
0010
0100
,
1000
0001
1000
0010
0100
0010
1000
0001
0010
0100
1000
0010
0100
0010
1000
0100
,
0010
0100
1000
0001
1000
0010
1000
0001
0100
0010
1000
0010
0100
0001
0100
0001
,
0110
0001
0100
0010
1000
0100
1010
0001
,
1100
0010
0101
0101
1000
0100
0011
0010
,
1001
0100
0010
1000
0001
0100
1100
0010
,
1001
0100
1100
0011
1000
0010
0101
0100
,
1001
0010
0100
1000
0010
0100
0010
1000
0100
0010
0100
1000
0010
0100
0001
1000
,
0100
0010
0001
0010
0001
0010
0100
1000
0010
0100
1000
0001
1000
0010
0100
0010
,
1001
0000
1010
0101
0000
0000
1001
0000
,
1100
0000
0000
1001
0000
0000
0110
0000
,
1001
0001
1000
0001
1000
0001
1000
0001
1000
0001
1000
0001
1000
0001
1000
0001
,
1000
0010
0100
0010
0100
0010
0100
0010
1001
0000
0000
0000
0011
0000
0000
0000
,
1100
1000
0010
0100
0001
1000
0010
0100
0010
1000
0100
0010
0100
1000
0010
0100
,
0101
0000
0101
1020
0000
0000
0000
0000
,
1030
0100
0010
0001
0010
0100
0010
0001
0100
0010
1000
0010
0100
0001
0010
0100
,
1100
0000
1100
0012
0000
0000
0000
0000
,
1003
0100
1000
0100
1000
0100
0010
0001
0010
0001
0010
0100
1000
0010
0100
0010
,
0100
0001
0100
0001
0100
0001
1000
0010
1000
0010
1000
0001
0100
0010
1000
0100
,
0010
0001
0010
0001
0010
0001
0010
0100
1000
0010
0100
0010
1000
0100
0010
0100
,
0010
0001
0010
0001
0010
0001
0010
0100
1000
0100
1000
0100
0010
0001
0100
0010
,
2100
0000
0000
3012
0000
0000
1103
0000
,
0021
0000
0000
0131
0000
0000
0000
0000
,
0012
0000
0000
2103
0000
0000
3011
0000
,
1200
0000
0000
0000
0000
0000
1310
0000
0000
0000
0000
0001
1000
0001
1000
0001
,
0110
0000
0000
1100
0000
0000
0011
0000
0011
0000
0000
1100
0000
0000
0011
0000
,
0101
0000
0000
1010
0000
0000
1100
0000
0011
0000
0000
0000
0000
0000
0000
0000
,
0101
0000
0000
1010
0000
0000
0110
0000
0101
0000
0000
0000
0011
0000
0000
0000
,
1100
0000
1001
0110
,
1000
0010
0100
0001
0100
0010
1000
0100
0010
0100
1000
0001
1000
0100
0010
0100
,
1000
0010
0100
0001
0100
0010
1000
0010
0100
0010
1000
0100
0010
0001
0010
0100
,
1001
0000
0011
0000
0100
1000
0010
0000
1001
0000
1100
0000
0010
0001
0100
0000
,
1001
0000
0011
0000
0100
1000
0010
0000
1001
0000
0000
0000
0110
0000
0000
0000
,
0001
0010
0100
1000
0100
0010
0001
0100
0010
0100
0001
0100
0001
0100
0010
0100
,
0001
0010
0100
1000
0100
0010
0001
0100
0010
0100
0001
0100
0001
0100
0010
0100
,
1001
0000
0000
0101
0000
0000
1010
0000
,
0120
0000
2030
3020
,
1031
0010
1000
1100
1000
0010
0101
0010
,
0101
0100
0010
1100
1000
0010
1100
1000
,
1010
0100
0001
1010
0101
1001
0100
1010
,
1000
0010
0100
0001
1010
0010
0101
1000
,
1001
0010
1000
1100
1000
0010
0101
0010
,
0101
0100
0010
1100
1000
0010
1100
1000
,
1010
0100
0001
1010
0101
1001
0100
1010
,
0001
0010
1000
0010
1001
0100
1010
0001
,
1100
0010
1000
0101
0010
1000
0011
0100
,
1100
0010
1000
1001
0100
0001
1010
1000
,
0110
0001
0100
1100
1001
0011
0100
1100
,
0010
0001
1000
0010
0101
1000
0011
0100
,
1100
0010
0001
0101
0010
1000
0011
0100
,
1001
0010
0100
1100
0010
1000
0110
0010
,
2000
0000
0000
0000
0000
0000
0000
3000
,
0020
0000
0000
0000
,
0000
0000
0000
0000
,
1031
0010
0100
0010
1000
0100
1001
0100
,
0101
0100
1010
1010
1000
0100
0011
1000
,
0101
1000
0101
0101
1000
0010
1010
0100
,
1100
0001
1000
0101
0010
1000
0001
0010
,
1100
0100
0010
0001
0010
0100
1001
0100
,
0110
0010
1100
1100
1000
0100
0101
0010
,
0011
0100
0101
0101
0010
1000
1100
0100
,
0101
0001
1000
0010
1001
0100
0110
0010
,
1001
0001
0010
0100
1000
0001
1010
0100
,
1100
0010
0101
0101
1000
0010
0011
0100
,
0101
0010
1000
0100
0001
1000
1010
1000
,
0110
0100
1010
1010
0100
0010
0101
0010
,
0011
0100
1000
0001
0010
0100
1100
0010
,
0011
1000
0011
1100
0001
1000
0011
0100
,
0101
0010
1100
1001
0100
0010
1010
0100
,
0110
0000
0000
1001
0000
0000
0110
0000
,
0001
0010
0100
1000
0010
0100
0010
1000
0100
0010
0001
0010
0100
1000
0001
1000
,
0001
0010
0100
1000
0100
0010
0100
0010
2002
3003
0000
0000
0022
0033
0000
0000
,
1000
0100
0010
0001
0010
0100
0010
0001
0010
0100
0001
0100
,
0010
1000
0001
0100
0010
1000
0100
0010
0001
0100
0010
0100
,
0001
0010
0100
1000
0001
0100
0010
1000
0001
0100
0010
0100
,
1000
0001
1000
0001
0010
0100
1000
0001
0100
0010
1000
0001
,
0100
0010
0001
0100
1000
0010
0100
0010
0001
0100
0010
1000
,
0100
0000
0000
0000
0010
0000
0000
0000
0001
0000
0000
0000
0010
0000
0000
0000
0100
0000
0000
0000
0010
0000
0000
0000
1000
0000
0000
0100
0000
0000
0010
0000
0000
0001
0000
0000
1000
0000
0000
0010
0000
0000
0100
0000
0000
0001
0000
0000
,
1000
0100
0010
0001
0100
0010
0100
1000
0100
0010
0100
1000
,
0001
0000
0000
0000
0010
0000
0000
0000
0100
0000
0000
0000
0001
0000
0000
0000
0100
0000
0000
0000
0010
0000
0000
0000
0001
0000
0000
0010
0000
0000
0100
0000
0000
1000
0000
0000
0001
0000
0000
1000
0000
0000
0100
0000
0000
0010
0000
0000
,
0110
0010
0001
1000
1100
1000
0001
0010
,
0101
0000
0010
0000
1000
0000
0001
0100
0001
0000
0100
0000
1000
0000
0001
1000
,
0110
0000
0001
1000
1100
1000
0001
0010
,
0101
0000
0010
0000
1000
0000
0001
0100
0001
0000
0100
0000
1000
0000
0001
1000
,
0110
0010
0001
1000
1100
1000
0001
0010
,
0101
0000
0010
0000
1000
0000
0001
0100
0001
0000
0100
0000
1000
0000
0001
1000
,
0110
0000
0001
1000
1100
1000
0001
0010
,
0100
1000
0100
1000
0100
1000
0100
1000
0100
0010
0100
0010
0100
0010
0100
0010
,
0110
0000
0000
0000
1100
0000
0100
0000
0001
0000
0010
0000
1000
0000
0001
0100
,
1000
0000
0000
0000
0001
1000
0100
0000
0001
0000
1000
0000
0001
0000
0100
0000
,
0110
0000
0000
0000
1100
0000
0100
0000
0001
0000
0010
0000
1000
0000
0001
0100
,
1000
0001
0010
0001
0010
0001
0010
1000
0001
1000
0001
1000
0001
0100
0001
0100
,
0101
0000
0000
0000
0001
1000
0010
0000
0001
0000
1000
0000
0001
0000
0100
0000
,
0110
0000
0000
0000
1100
0000
0100
0000
0001
0000
0010
0000
1000
0000
0001
0100
,
1010
0000
1010
0000
1010
0000
1010
0000
1000
0001
1000
0001
1000
0001
1000
0001
,
1000
0100
0010
0100
1000
0100
0010
0100
0020
0000
0000
0000
0000
0030
0000
0000
,
2000
0000
0000
3000
1000
0000
0200
0000
0000
0000
0310
0000
0001
0000
0100
0000
,
0020
0000
0031
0010
0000
0100
1000
0100
,
0002
0000
0003
0000
0000
0001
0002
0000
0000
0000
2003
3000
0000
0000
0020
0030
,
0000
0000
0200
0000
0300
0000
2000
0000
0000
3000
0001
0000
0010
0000
0100
0000
,
0011
0000
0010
0100
1000
0000
0011
0000
1000
0100
0010
0000
0001
0010
0100
0000
,
1100
0000
0100
0010
0001
0000
1100
0000
0001
0010
0100
0000
1000
0100
0010
0000
,
0200
0000
0000
0300
0010
0000
0001
0000
0100
0000
0010
0000
1000
0000
0200
0000
,
0000
0300
0020
0000
0000
0030
0002
0000
0000
0003
0200
0000
1300
0000
0001
0000
,
0001
0010
0001
0010
0100
1000
0001
0010
0001
0010
0100
1000
0001
0010
0100
1000
,
0010
1000
0010
1000
0001
0100
0010
1000
0010
1000
0001
0100
0010
1000
0001
0100
,
1000
0100
1000
0100
0010
0001
1000
0100
1000
0100
0010
0001
1000
0100
0010
0001
,
0100
0001
0100
0001
1000
0010
0100
0001
0100
0001
1000
0010
0100
0001
1000
0010
,
0001
0010
0001
0010
0100
1000
0001
0010
0001
0010
0100
1000
0001
0010
0100
1000
,
0010
0100
0010
0100
1000
0001
0010
0100
0010
0100
1000
0001
0010
0100
1000
0001
,
0100
1000
0100
1000
0001
0010
0100
1000
0100
1000
0001
0010
0100
1000
0001
0010
,
0100
1000
0100
0010
0001
0010
0100
1000
0100
0010
0001
0010
0100
1000
0100
0010
,
0002
0000
0000
0000
0003
0000
0020
0000
0000
0030
0000
0000
0200
0000
0000
0300
,
2000
0000
0000
3000
0000
0000
0020
0000
0000
0030
0000
0000
0002
0003
0010
0000
,
1000
0100
0010
0001
1000
0100
1000
0100
0010
0001
1000
0100
1000
0100
1000
0100
,
0010
0001
0100
0010
1000
0100
0010
0001
0100
0010
1000
0100
0002
0010
0100
1003
,
0220
0000
0000
0000
0330
0000
0022
0000
0000
0033
0000
0000
0220
0000
0000
0330
,
2020
0000
0000
0000
0000
3030
0202
0000
0000
0000
0303
0000
2002
3003
0110
0000
,
0001
0010
0100
1000
0100
0010
0001
0100
0010
1000
0100
0010
0001
0100
0010
0100
,
1000
0010
0100
0001
1000
0100
0010
0001
1000
0001
0010
0100
1000
0001
0100
0010
,
2000
0000
0000
0000
0000
3000
0200
0000
0000
0000
0300
0000
0020
0000
0000
0030
,
0002
0000
0003
0000
0020
0030
0020
0030
0020
0000
0000
0000
0000
0000
0030
0000
,
0010
0001
0100
0010
0100
0000
0001
0000
1000
0000
0100
0000
1000
0000
0001
0000
,
0100
0000
0010
0001
0100
0010
1000
0000
0200
0000
0000
0000
0000
0000
0300
0000
,
1000
0000
0000
0000
0100
0000
0000
0000
0010
0000
0000
0000
1000
0000
0000
0000
0010
0000
0100
0000
0000
1000
0000
0000
0100
0000
0000
0010
0000
0000
0001
0000
0000
0100
0000
0000
0010
0000
0000
1000
0000
0000
0100
0000
0000
0010
0000
0000
,
0001
0010
0100
0010
0001
1000
0001
1000
0010
0100
1000
0100
0010
0001
0010
0100
,
0010
1000
0001
0100
0010
1000
0001
1000
0100
1000
0010
1000
0001
1000
0010
1000
,
0100
1000
0100
0010
0001
0010
0100
1000
0200
0000
0000
0000
0000
0000
0000
0300
,
0010
0100
0010
0100
0001
1000
0010
0100
0010
0100
0001
1000
0010
0100
0001
1000
,
0100
1000
0100
1000
0001
0010
0100
1000
0100
1000
0001
0010
0100
1000
0100
0010
,
0001
0100
0010
1000
0001
0010
0100
1000
0100
0010
0001
0100
0010
1000
0100
0010
,
0002
0000
0000
0000
0000
0000
0000
0000
0000
0000
0000
0003
0002
0000
0020
0003
0002
0030
0020
0003
0002
0030
0020
0003
0002
0030
0000
0000
0000
0000
0003
0000
,
1000
0100
0010
0001
1000
0001
1000
0001
0010
0100
1000
0001
1000
0100
0010
0001
,
0010
0100
0010
0001
0100
0010
1000
0100
0010
0001
0010
0100
0010
0001
0010
0100
,
1000
0100
0010
0001
1000
0010
0100
0001
1000
0001
0010
0100
1000
0001
0100
0010
,
2100
0000
0000
3000
1200
0000
0000
0300
0002
0000
0010
1003
0200
0000
0000
0300
,
0020
0000
0031
0100
0010
1000
0001
0100
,
1010
0000
0101
0000
0010
0100
0010
0000
1001
0000
0011
0000
0100
0010
0100
0000
,
1001
0000
1100
0000
0001
0010
0001
0000
1100
0000
0011
0000
0100
0010
0100
0000
,
1001
0000
1100
0000
0100
0010
0100
0000
0001
0010
0100
1000
0100
0010
0100
1000
,
0110
0000
0011
0000
0100
0010
0100
0000
0011
0000
0110
0000
1000
0100
1000
0000
,
0101
0000
0011
0000
0100
0010
0100
0000
1001
0000
0011
0000
1000
0100
1000
0000
,
0001
0010
0100
1000
0001
0010
0100
1000
0001
0010
0100
1000
0001
0010
0100
1000
,
0010
1000
0100
0010
0001
0100
0010
1000
0001
0100
0010
0001
0100
0010
1000
0100
,
0022
0000
0000
0033
0220
0330
0022
0000
0033
0000
2200
0000
3300
0000
0202
0303
,
0220
0000
0330
0000
2002
3003
2200
0000
0000
0000
0000
0000
0000
0000
0000
3300
,
0220
0000
0000
0330
0202
0303
0220
0000
0000
0330
2200
0000
0000
3300
2002
3003
,
0022
0000
0000
0000
0000
0033
0220
0000
0000
0000
0000
0000
0000
0000
0330
0000
,
2200
0000
0000
3300
2002
3003
0220
0000
0000
0330
0022
0000
0000
0033
0220
0330
,
2002
0000
0000
3003
2200
3300
0022
0000
0000
0033
0202
0000
0000
0303
0200
0000
,
2300
0000
0000
0000
0000
0000
0000
0000
0000
0000
0000
0000
0200
0300
0020
0030
,
0001
0010
3100
0010
0001
0010
0100
0010
1001
0100
0010
0001
0110
0001
1000
0001
,
0110
1000
0100
0101
0100
1000
0011
1000
,
0011
0001
1000
0101
0100
1000
0101
0100
,
1100
0001
0010
1100
0011
0110
0001
1100
,
0100
1000
0001
0010
1100
1000
0011
0100
,
0110
1000
0100
0101
0100
1000
0011
1000
,
0011
0001
1000
0101
0100
1000
0101
0100
,
1100
0001
0010
1100
0011
0110
0001
1100
,
0010
1000
0100
1000
0110
0001
1100
0010
,
0101
1000
0100
0011
1000
0100
1010
0001
,
0101
1000
0100
0110
0001
0010
1100
0100
,
1001
0010
0001
1000
0110
1010
0001
0101
,
1000
0010
0100
1000
0011
0100
1010
0001
,
0101
1000
0010
0011
1000
0100
1010
0001
,
0110
1000
0001
0101
1000
0100
1001
1000
,
0220
0000
0000
0000
0000
0000
0000
0330
,
0100
0010
0001
1000
0100
0010
0001
0010
0100
1000
0001
0010
0100
1000
0010
0001
,
1020
0000
0000
0000
0000
0000
2030
0000
3002
0000
0103
0020
0000
0000
2030
0000
,
3200
0000
0301
0020
0000
0000
0032
0000
2003
0000
3000
0002
0000
0000
0000
0003
,
1002
0000
0000
0000
0000
0000
0023
0000
0230
0000
1300
0020
0000
0000
0230
0000
,
0320
0000
0030
2000
0000
3000
0001
0000
2002
0000
0000
0000
0000
0000
0000
0000
,
3103
0010
0100
0010
1000
0100
1001
0100
,
0101
0100
1010
1010
1000
0100
0011
1000
,
0101
1000
0101
0101
1000
0010
1010
0100
,
1100
0001
1000
0101
0010
1000
0001
0010
,
0010
0100
1000
0010
0100
0001
1000
0001
0100
0010
1000
0010
0100
0001
0100
0010
,
1000
0001
0100
0010
1000
0100
0010
0100
1000
0001
0100
0010
0100
0001
0010
0100
,
1000
0001
1000
0010
0100
0010
1000
0001
0010
0100
1000
0010
0100
0010
1000
0100
,
0010
0100
1000
0001
1000
0010
1000
0001
0100
0010
1000
0010
0100
0001
0100
0001
,
1001
0001
0010
0100
1000
0001
1010
0100
,
1100
0010
0101
0101
1000
0010
0011
0100
,
0101
0010
1000
0100
0001
1000
0110
1000
,
0110
0100
1010
1010
0100
0010
0101
0010
,
0011
0100
1000
0001
0010
0100
1100
0010
,
0011
1000
0011
1100
0001
1000
0011
0100
,
0101
0010
1100
1001
0100
0010
1010
0100
,
0110
0000
0000
1001
0000
0000
0110
0000
,
1010
1000
0100
0010
0001
0100
0010
1000
0010
0100
0010
1000
0100
0010
0100
1000
,
0100
0010
0001
0100
0010
0100
0010
1000
0001
1000
0100
0010
0001
0010
0100
0010
,
0001
0100
0010
1000
0010
0100
0010
1000
0100
0010
0100
1000
0100
0010
0001
0010
,
0100
1000
0001
0100
0010
0100
0001
1000
0010
1000
0100
1000
0010
0100
0001
0100
,
0010
1000
0100
0010
0100
1000
0010
0100
0001
0100
0010
1000
0001
1000
0001
1000
,
1001
0000
1001
0220
0330
0000
0000
0000
;
