#TITLE:Pollinosis;
#SUBTITLE:;
#ARTIST:DJ REMO-CON;
#TITLETRANSLIT:;
#SUBTITLETRANSLIT:;
#ARTISTTRANSLIT:;
#CREDIT:;
#BANNER:Pollinosis-bn.png;
#BACKGROUND:Pollinosis-bg.png;
#LYRICSPATH:;
#CDTITLE:jpd.png;
#MUSIC:Pollinosis.mp3;
#OFFSET:-0.080;
#SAMPLESTART:41.382;
#SAMPLELENGTH:12.000;
#SELECTABLE:YES;
#BPMS:0.000=144.990,165.000=289.980,189.000=144.990;
#STOPS:4.000=1.241
,217.000=0.207
,217.500=0.207
,218.000=0.207
,218.500=0.207
;
#BGCHANGES:;
// cache tags:
#FIRSTBEAT:0.000;
#LASTBEAT:286.000;
#SONGFILENAME:Songs/Fabulously Fresh Flock of Fantastic Files F5/(JoeP & Ducky) Pollinosis/Pollinosis.sm;
#HASMUSIC:1;
#HASBANNER:1;
#MUSICLENGTH:117.606;
// end cache tags

//---------------dance-single - by Joe P.----------------
#NOTES:
     dance-single:
     by Joe P.:
     Hard:
     11:
     0.847,1.000,1.000,0.451,0.519,484.000,160.000,53.000,0.000,0.000:
0000
0000
0000
0000
,
1001
0110
0101
0010
0100
0010
0100
0010
,
0100
0010
1010
0001
1000
0001
1000
0001
,
1000
0001
0101
0010
1000
0010
1000
0010
,
1000
0010
0110
0100
0001
0100
0001
0010
,
0000
0110
1100
0010
0100
1000
0100
0010
,
0100
1000
0101
0010
0100
0001
0100
0010
,
0100
0001
0011
0100
1000
0010
1000
0100
,
1000
0010
0101
0100
0010
1000
0100
0010
,
0000
0010
0101
0000
1010
0000
1100
0000
,
0011
0101
1010
1100
,
1001
1000
1100
0000
0110
0000
0101
0000
,
0110
0000
1010
0000
1100
0000
1001
0100
,
0000
0100
0000
0100
0110
0000
0000
0000
0101
0000
0000
0000
0110
0000
0000
0000
,
1010
1000
1001
0000
0101
0000
0110
0000
,
0101
0000
0011
0010
0101
0100
1001
0001
,
1010
0000
0010
0000
1001
0000
0000
1000
0001
0000
0100
0000
0110
0000
1010
0000
,
0000
1001
0000
0000
0101
0000
0110
0000
0000
0000
1100
0000
0000
0000
0101
0000
,
0000
0011
0000
1010
0000
1100
0000
0101
,
0000
0011
0000
0110
0000
1001
0000
0101
,
0000
1010
0000
1100
0000
0011
0000
0101
,
0000
0000
1010
0000
0100
0000
0000
0000
0220
0000
0000
0000
0000
0330
0000
0001
,
1000
0001
1000
0002
2000
0000
0000
0000
0000
0000
0000
0000
0000
0000
0000
0000
,
0000
0000
3000
1003
0100
0000
0000
0000
2002
0000
0000
0000
0000
3003
0000
0010
,
0100
0010
0100
0020
0200
0000
0000
0000
0000
0000
0000
0000
0000
0000
0000
0000
,
0000
0000
0030
0310
1000
0000
0000
0000
2200
0000
0000
0000
0000
3300
0000
0010
,
0001
0100
0010
1000
0100
0000
0010
0000
0022
0000
0000
0000
0000
0033
0000
0001
,
0100
0010
1000
0100
0010
0000
0100
0000
0202
0000
0000
0000
0000
0303
0000
0100
,
0010
1000
0010
0100
0010
0000
1000
0000
2020
0000
0000
0000
0000
3030
0000
0010
,
0100
0001
0100
1000
0100
0000
0010
0000
0202
0000
0000
0000
0000
0303
0000
0010
,
1000
0100
0010
0001
0100
0000
0110
0000
2020
0000
0000
0000
0000
3030
0000
0100
,
0010
0001
0100
0010
0100
0000
0001
0000
0011
0000
0100
0000
0010
1000
0100
0010
,
0001
0100
0010
1000
0100
0000
0001
0000
0101
0000
0100
0000
0010
1000
0100
0010
,
0001
0100
0010
0100
0001
0000
0010
0000
2200
0000
0000
0000
0000
0000
0000
0000
,
0000
0000
3300
0001
0100
0000
0010
0000
0202
0000
0000
0000
0000
0000
0000
0000
,
0000
0000
0303
1000
0100
0000
1000
0000
2200
0000
0000
0000
0000
0000
0000
0000
,
0000
0000
3300
0001
0100
0000
0010
0000
0202
0000
0000
0000
0000
0000
0000
0000
,
0000
0000
0303
0100
1020
0000
0030
0000
0000
0000
0000
0000
0021
0000
0030
0000
,
0000
0000
1200
0300
0000
0000
0201
0300
,
0000
0000
0000
0100
0110
0000
0000
0101
0000
0101
0000
0000
1010
0000
0000
0110
,
0000
0110
0000
0000
0110
0000
0100
0001
0000
0001
0010
0000
1000
0001
0100
0010
,
1000
0100
0010
0001
0220
0000
0000
0000
0000
0000
0000
0000
0000
0000
0000
0000
,
0000
0000
0000
0000
,
0000
0330
0000
0000
,
0202
0000
0000
0000
,
0303
0000
0010
1000
0010
1000
0001
0100
,
0001
0100
0010
0100
0010
0100
0000
0000
,
0100
0000
1001
1000
1100
0100
0110
0100
,
1100
0010
1010
1000
1100
0100
0110
0100
,
0011
0001
0101
0100
0110
0010
1010
1000
,
1100
0100
0110
0100
1100
1000
1001
0101
,
0000
0101
0000
0100
0110
0000
1000
0000
0110
0000
0010
0000
1001
0000
0100
0000
,
1001
1000
1010
0100
1010
0010
0101
1000
,
0101
0001
1100
0010
1100
0100
0011
1000
,
0011
0000
0000
0000
0000
0000
0001
0000
0000
0000
0000
0000
2002
0000
0000
3003
0000
0000
2200
0000
0000
3300
0000
0000
0202
0000
0000
0303
0000
0000
1010
0000
0001
0000
0000
0000
1001
0000
0000
0000
0000
0000
0000
0000
0000
0000
0000
0000
,
0101
0000
0001
0101
0000
0010
0110
0000
0010
1010
0000
1000
,
1100
0000
0100
0110
0000
1000
1001
0100
0001
0101
0000
1000
,
1100
0000
0001
0101
0000
0100
0110
0000
0010
1010
0000
0100
,
1010
0000
0100
0011
0001
0100
0110
1000
0100
0110
0000
0100
,
1100
0000
0100
0110
0010
0001
0101
0000
1000
1100
0000
0000
,
1001
0000
0100
0110
0010
1000
1100
0000
1000
0101
0100
0010
,
1010
1000
0100
0011
0100
0010
1010
0000
0010
1001
0000
0101
,
0000
0000
0000
0000
0110
0000
0000
0000
0000
0000
0000
0000
1010
0000
0000
0000
0000
0000
0000
0000
0000
0000
0000
0000
0200
0000
0000
0000
0000
0000
0000
0000
0000
0000
0000
0000
0310
0000
0000
1000
0000
0000
0100
0000
0000
0010
0000
0000
,
0001
0000
0200
0000
0310
1000
0100
0010
0001
0000
0200
0000
0301
0100
1000
0100
,
0001
0000
0020
0000
0130
1000
0001
0100
0010
0000
0200
0000
0301
0010
0100
1000
,
0010
0000
0200
0000
0310
1000
0100
1000
0010
0000
0200
0000
0301
0010
0001
0100
,
0001
0000
0100
0000
0000
1100
0000
1100
0000
0000
1100
0000
0100
0010
0001
0100
,
0001
0000
0020
0000
0130
1000
0100
0010
0001
0000
0100
0000
0010
0100
0001
0010
,
0100
0000
2000
0000
3010
1000
0100
0010
1000
0000
0010
0000
0001
0000
0101
0000
,
0000
0101
0000
0000
0010
0000
1010
0000
0000
1010
0000
0000
0100
0000
0010
0000
,
1000
0000
0001
0000
0010
0100
1000
0001
0100
0010
1000
0001
0220
0000
0000
0000
,
0000
0000
0330
0000
;

//---------------dance-single - by Ducky----------------
#NOTES:
     dance-single:
     by Ducky:
     Challenge:
     13:
     1.000,1.000,1.000,0.289,1.000,821.000,214.000,34.000,0.000,0.000:
1000
0001
1000
0001
1000
0001
1000
0001
1000
0001
1000
0001
1000
0001
1000
0001
1000
0001
1000
0001
1000
0001
1000
0001
1000
0001
1000
0001
1000
0001
1000
0001
,
1001
0000
1000
0000
1100
0000
0010
0001
1100
0000
0010
0001
1100
0000
0010
0001
,
1100
0000
0010
0001
1100
0000
1000
0100
0011
0000
1000
0100
0011
0000
1000
0100
,
0011
0000
1000
0100
0011
0000
1000
0010
0101
0000
1000
0010
0101
0000
1000
0010
,
0101
0000
1000
0010
0101
0000
0001
0100
1010
0000
0001
0100
1010
0000
0001
0100
,
1010
0000
1001
0000
0101
0000
1000
0100
1100
0000
0010
0001
0011
0000
1000
0100
,
1100
0000
0010
0001
0011
0000
0001
1000
1001
0000
0100
0010
0110
0000
1000
0001
,
1001
0000
0010
0100
0110
0000
1000
0010
1010
0000
0100
0001
0101
0000
1000
0010
,
1010
0000
0100
0001
0101
0000
1100
0000
0100
0010
0001
0000
1000
0100
0001
0000
,
1010
0000
0100
0010
1001
0000
0100
0000
1001
0000
0100
0000
1001
0000
0100
0000
,
0110
0001
1010
0100
1010
0100
1010
0001
,
1001
0100
0011
1000
0011
1000
0011
1000
,
1010
0100
1001
0100
0011
1000
0110
1010
,
0000
0101
0000
1000
0011
1000
0100
1000
0010
0100
0001
0010
0100
0010
0001
1000
,
0010
0100
0001
0010
1001
0100
0010
0001
1000
0100
0001
0100
1000
0010
0100
0001
,
1000
0001
1000
0100
0110
0000
1100
0000
0110
0000
1001
0000
1100
0000
0110
0000
,
0011
0001
0100
0010
1001
0100
0000
1001
1100
0000
1001
0100
0011
0000
1100
0000
,
0001
0110
0000
1000
0101
0000
0001
0000
1000
0000
0100
0000
0010
0000
0001
0000
,
1000
1000
2000
0000
3010
0001
1000
1000
,
2000
0000
3010
0001
0100
0100
0200
0000
,
0301
1000
0010
0010
0020
0000
0130
1000
,
0001
0000
0000
0000
0001
0000
0010
0000
2001
0000
0000
0000
0100
0000
0000
3000
0020
0000
0000
0000
0000
0000
0000
0000
0000
0000
0000
0000
0000
0000
0030
0000
,
1000
0001
1000
0001
1000
0001
1000
0001
2000
0000
0000
0000
0000
0000
0000
0000
3020
0000
0000
0000
0000
0000
0000
0000
0000
0000
0000
0000
0000
0000
0030
0000
,
0001
0100
0001
0100
0001
0100
0001
0100
0002
0000
0000
0000
0000
0000
0000
0000
2003
0000
0000
0000
0000
0000
0000
0000
0000
0000
0000
0000
0000
0000
3000
0000
,
0010
0100
0010
0100
0010
0100
0010
0100
0020
0000
0000
0000
0000
0000
0000
0000
0230
0000
0000
0000
0000
0000
0000
0000
0000
0000
0000
0000
0000
0000
0000
0300
,
0001
1000
0001
1000
0001
1000
0001
1000
0001
0000
0000
0000
1000
0000
0100
0000
0010
0000
0000
0000
0001
0000
1000
0000
0100
0000
0010
0000
0001
0000
0000
0000
,
1000
0010
1000
0010
1000
0010
1000
0010
1000
0000
0000
0000
0100
0000
0010
0000
0001
0000
0000
0000
1000
0000
0010
0000
0100
0000
0001
0000
1000
0000
0000
0000
,
0100
0001
0100
0001
0100
0001
0100
0001
0100
0000
0000
0000
0001
0000
0010
0000
0100
0000
0000
0000
1000
0000
0010
0000
1000
0000
0001
0000
0100
0000
0000
0000
,
0100
0001
0100
0001
0100
0001
0100
0001
0100
0000
0000
0000
0010
0000
1000
0000
0100
0000
0000
0000
0010
0000
0001
0000
0100
0000
0010
0000
1000
0000
0000
0000
,
1000
0010
1000
0010
1000
0010
1000
0010
1000
0000
0000
0000
0001
0000
0000
0000
1100
0000
0000
0000
0010
0000
0001
0000
0100
0000
0010
0000
1000
0000
0100
0000
,
0010
0001
0010
0001
0010
0001
0010
0001
0010
0000
0000
0000
0100
0000
0000
0000
0011
0000
0000
0000
1000
0000
0010
0000
0100
0000
0001
0000
0010
0000
1000
0000
,
0010
0100
0010
0100
0010
0100
0010
0100
0010
0000
0000
0000
0001
0000
0000
0000
1010
0000
0000
0000
0100
0000
0010
0000
1000
0000
0100
0000
0010
0000
0100
0000
,
1000
0001
1000
0001
1000
0001
1000
0001
1000
0000
0000
0000
0100
0000
0000
0000
0011
0000
0000
0000
1000
0000
0010
0000
0100
0000
0010
0000
0001
0000
1000
0000
,
0100
0001
0100
0001
0100
0001
0100
0001
0200
0000
0000
0000
0000
0000
0000
0000
0302
0000
0000
0000
0000
0000
0000
0000
0000
0000
0000
0000
0000
0003
0000
0000
,
1000
0010
0100
0001
1000
0100
0010
0001
2000
0000
0000
0000
0000
0000
0000
0000
3020
0000
0000
0000
0000
0000
0000
0000
0000
0000
0000
0000
0000
0000
0030
0000
,
1000
0100
0010
0001
0100
0010
1000
0001
0200
0000
0000
0000
0000
0000
0000
0000
0302
0000
0000
0000
0000
0000
0000
0000
0000
0000
0000
0000
0003
0000
0000
0000
,
1000
0001
0100
0010
1000
0001
0100
0010
2000
0000
0000
0000
0000
0000
0000
0000
3002
0000
0000
0000
0000
0000
0000
0000
0000
0000
0000
0000
0000
0000
0003
0000
,
0001
0010
0100
1000
0001
1000
0100
0010
0001
0000
0000
0000
1000
0100
0010
0001
1000
0000
0100
0000
0010
0000
0000
0000
1001
0000
0000
0000
1000
0010
0100
0001
,
1000
0000
0100
0000
0010
0000
0000
0000
0101
0000
0000
0000
0010
1000
0001
0100
0010
0000
1000
0000
0100
0000
0000
0000
0011
0000
0000
0000
1000
0100
0010
0001
,
1000
0001
0100
0010
1001
0000
0000
0001
1100
0000
0101
0000
0000
1010
0000
0001
,
1010
0000
0000
0000
0101
0000
0000
0000
0000
0000
1001
0000
0000
0000
0011
0000
1100
0000
0000
0000
0100
0000
0001
1000
0100
0010
0001
0000
1000
0000
0010
0000
,
1000
0000
0001
0000
0100
0001
1000
0000
0200
0000
0000
0000
0000
0000
0000
0000
0000
0000
0000
0000
0000
0000
0000
0000
0000
0000
0000
0000
0000
0000
0000
0000
,
0000
0000
0000
0000
,
0000
0000
0000
0300
2002
0000
0000
0000
0000
0000
0000
0000
0000
0000
0000
3003
,
0200
0000
0000
0000
,
0300
0010
0010
0010
0010
0010
0010
0010
,
0010
0000
0010
1000
0001
0100
0010
0000
1000
0000
0001
0000
1010
0000
0000
0000
,
0101
0000
0000
0000
0011
0100
1000
0010
1001
0000
1000
0001
1100
0000
1000
0100
,
0011
0000
0100
0010
1001
0100
0001
0100
1010
0000
0100
0001
1001
0000
0100
0010
,
1001
0000
0001
0100
1010
0001
0100
0010
1001
0000
1000
0001
1100
0000
0010
0001
,
1100
0000
0010
0001
0110
1000
0100
0010
1001
0000
1000
0100
0011
0000
1100
0000
,
0000
0101
0000
0010
1001
0000
1000
0010
0101
0000
1000
0100
0011
0000
0001
1000
,
0110
0001
0100
1000
0101
0000
0010
0001
0110
0000
0010
1000
0101
0000
0010
1000
,
0101
0010
1000
0100
1001
0000
0010
1000
0110
0000
0001
1000
0101
0000
0010
0001
,
1100
0000
0000
0010
0000
0000
0001
0000
0000
0100
0000
0000
2020
0000
0000
3030
0000
0000
0202
0000
0000
0303
0000
0000
2002
0000
0000
3003
0000
0000
0220
0000
0000
0330
0000
0000
1100
0000
0000
0000
0010
0000
0000
0000
0001
0000
0000
0000
,
1100
0010
0001
1100
0010
0001
1001
0100
0010
1001
0100
0010
,
1001
0100
0010
1001
0100
0001
1010
1100
1001
0101
0001
1000
,
0110
0001
0100
1010
0100
0001
0110
0001
1000
0101
0001
0010
,
1001
0100
0001
1100
0110
0101
1010
0110
1001
0011
1000
0100
,
1100
0000
0100
0011
0101
1010
1100
0000
0101
1001
0000
1010
,
0101
0000
0100
1010
0101
1010
1001
0000
0100
0011
1100
1001
,
0101
1010
0110
0101
1010
0110
0101
0000
1000
1100
0000
0110
,
0000
0000
0000
0000
1001
0000
0000
0000
0000
0000
0000
0000
1100
0000
0000
0000
0000
0000
0000
0000
0000
0000
0000
0000
0100
0000
0010
0000
0100
0000
0010
0000
0100
0000
0010
0000
1001
0000
0000
1000
0000
0000
0100
0000
0000
1000
0000
0000
,
0011
0000
1100
0000
0101
0001
0100
0001
1010
0000
0110
0000
1001
0001
1000
0001
,
1100
0000
0101
0001
1010
1000
0001
0100
1001
0000
0011
0000
1100
0010
0001
0100
,
1010
0000
0110
0000
0101
0010
1000
0100
0011
0000
1100
0000
0011
0100
0010
1000
,
0101
0000
0000
0000
0000
0000
0100
0000
0000
1001
0000
0000
0000
0000
0000
0011
0000
0000
0000
0000
0000
1100
0000
0000
0001
0000
0010
0000
0100
0000
1000
0000
0100
0000
0010
0000
1001
0000
0000
1000
0000
0000
0100
0000
0000
1000
0000
0000
,
0011
0000
1100
0000
0011
0100
1000
0010
0101
0000
1000
0001
0101
0010
1000
0100
,
0011
0000
1000
0100
1001
0100
0010
0001
1100
0000
0101
0000
1001
0000
0010
0101
,
0000
0000
1010
0000
0101
0010
0000
1001
0000
0100
1010
0000
0011
0100
1000
0010
,
0101
0010
1000
0100
1001
0010
0001
0100
1010
0100
0001
1000
0220
0000
0000
0000
,
0000
0000
0330
0000
;
