#TITLE:Ando En La FJ;
#SUBTITLE:;
#ARTIST:Nejo;
#TITLETRANSLIT:;
#SUBTITLETRANSLIT:;
#ARTISTTRANSLIT:;
#CREDIT:;
#BANNER:banner.JPG;
#BACKGROUND:;
#LYRICSPATH:;
#CDTITLE:!tizaTitle.png;
#MUSIC:__ejo_-_Ando_En_La_FJ__(Prod_By._Elliot_El_Mago_D-Oz_&_Dj_Blass)__((Still_Broke_Deluxe_Edition)).ogg;
#OFFSET:-0.140;
#SAMPLESTART:74.701;
#SAMPLELENGTH:13.400;
#SELECTABLE:YES;
#BPMS:0.000=359.999,196.000=90.000,197.000=359.999,209.000=89.999,210.000=359.999,222.000=90.000,223.000=359.999,235.000=90.000,236.000=359.999,244.000=180.000,272.000=90.000,274.000=359.999,338.000=180.000,366.000=90.000,368.000=180.000,392.000=90.000,396.000=359.999,452.000=180.000,456.000=90.000,488.000=359.999,556.000=90.000,557.000=359.999,569.000=90.000,570.000=359.999,582.000=90.000,583.000=359.999,595.000=90.000,596.000=359.999,660.000=180.000,664.000=90.000,696.000=359.999;
#STOPS:;
#BGCHANGES:;
// cache tags:
#FIRSTBEAT:32.000;
#LASTBEAT:767.333;
#SONGFILENAME:Songs/Reggaeton and more/Ando En La FJ/andoenlafj.sm;
#HASMUSIC:1;
#HASBANNER:1;
#MUSICLENGTH:187.447;
// end cache tags

//---------------dance-single - ----------------
#NOTES:
     dance-single:
     :
     Challenge:
     12:
     0.812,1.000,0.363,0.085,0.269,982.000,68.000,16.000,0.000,8.000:
0000
0000
0000
0000
,
0000
0000
0000
0000
,
0000
0000
0000
0000
,
0000
0000
0000
0000
,
0000
0000
0000
0000
,
0000
0000
0000
0000
,
0000
0000
0000
0000
,
0000
0000
0000
0000
,
1000
0000
0000
0001
0000
0000
0000
0000
,
0000
0000
1001
0000
,
0010
0000
0000
0100
0000
0000
0000
0000
,
0000
0000
0110
0000
,
1000
0100
0010
0001
,
0010
0100
1000
0001
,
0100
0001
0100
0001
0100
0001
0100
0001
,
1000
0001
1000
0001
0010
0001
0010
0001
,
1000
0010
0100
0001
,
0010
0100
1000
0100
,
0010
0001
0100
0010
,
1000
0000
1001
0000
,
0001
0100
0010
1000
,
0100
0010
0100
1000
,
0001
0100
0010
0100
,
0001
0000
1001
0000
,
1000
0100
1000
0010
,
0100
0001
0010
0001
,
0100
0010
1000
0100
,
0010
0000
1001
0000
,
1000
0100
0001
0100
,
1000
0010
0001
0010
,
1000
0100
0010
0100
,
1000
0000
0101
0000
,
1000
0100
1000
0100
1000
0000
0000
0000
,
0001
0100
0001
0100
0001
0000
0000
0000
,
1000
0010
1000
0010
1000
0000
0000
0000
,
0001
0010
0001
0010
0001
0000
0000
0000
,
1000
0001
1000
0001
1000
0000
0000
0000
,
0010
0100
0010
0100
0010
0000
0000
0000
,
0001
1000
0001
1000
0001
0000
0000
0000
,
0100
0010
0100
0010
0100
0000
0000
0000
,
1000
0100
0010
0100
1000
0000
0000
0000
,
0001
0100
0010
0100
0001
0000
0000
0000
,
1000
0010
0100
0010
1000
0000
0000
0000
,
0001
0010
0100
0010
0001
0000
0000
0000
,
1000
0100
0010
0001
1000
0000
0000
0000
,
1000
0001
0010
0100
1000
0000
0000
0000
,
0001
0100
0010
1000
0001
0000
0000
0000
,
0001
1000
0010
0100
0001
0000
0000
0000
,
1000
0100
0000
0100
0010
0000
0001
0000
,
1001
0000
1000
0010
0000
0010
1000
0000
,
0100
0000
0010
0000
,
0001
0000
1000
0010
0000
0010
0100
0000
,
0001
0000
1001
0000
0001
0100
0000
0100
,
0010
1000
0000
1100
,
0000
0000
0101
0000
0001
0100
0000
0010
,
1000
0000
1100
0000
1001
0000
1000
0100
,
0000
0010
0001
0000
0101
0000
0000
0000
,
1001
0000
0000
0000
1100
0000
1000
0100
,
0000
0010
0001
0000
0110
0000
1100
0000
,
1000
0100
0000
0100
0001
0000
0100
0000
,
0000
1000
0000
0001
,
1001
0000
1000
0100
0010
0000
0011
0000
,
0001
0100
0010
1000
0010
0100
0101
0000
,
1001
0000
1000
0100
0010
0001
0101
0000
,
0001
0010
0100
1000
0100
0010
0001
0000
,
1000
0100
0000
0100
0010
0000
0100
0000
1000
0000
0010
0000
0100
0000
0001
0000
,
0100
0010
0000
1000
0001
0000
0010
0000
1100
0000
0000
0000
1001
0000
0000
0000
,
0001
0010
0000
0010
0001
0000
0100
0000
0010
0000
1000
0000
0100
0000
0010
0000
,
0100
0000
0000
0000
1000
0100
0010
0000
0001
0000
0100
0000
0001
0000
0100
0000
,
0001
0000
0000
0000
1000
0010
1000
0010
,
1000
0000
0000
0000
0100
0001
0100
0001
,
0100
0000
0000
0000
0010
1000
0010
1000
,
0010
0000
0000
0000
1000
0010
0100
0001
,
1000
0000
0000
0000
0001
0010
0100
1000
,
0001
0000
0000
0000
1000
0100
0010
0100
,
1000
0000
0000
0000
0001
0100
0010
0100
,
0001
0000
0000
0000
0001
0010
0100
1000
,
0100
0000
0000
0000
1000
0010
0100
0001
,
0100
0000
0000
0000
1000
0010
0001
0010
,
1000
0000
0000
0000
1000
0100
0001
0100
,
1000
0000
0000
0000
0001
0100
1000
0100
,
0001
0000
0000
0000
0001
0010
1000
0010
,
0001
0000
0000
0000
1000
0100
1000
0100
,
1000
0000
0000
0000
0001
0100
0001
0100
,
0001
0000
0000
0000
0000
0000
0000
0000
1000
0100
0000
0100
0010
0000
0001
0000
,
0010
0000
0100
0000
1000
0000
0010
0000
0001
0010
0000
0010
1000
0000
0100
0000
,
0001
0000
1000
0000
0010
0000
0001
0000
0100
1000
0000
1000
0100
0000
0001
0000
,
0010
0000
0100
0000
0010
0000
0001
0000
1000
0100
0000
0010
0001
0000
1000
0000
,
0010
0000
0100
0000
0001
0000
0010
0000
0100
1000
0000
1000
0100
0000
0010
0000
,
0001
0000
1000
0000
0010
0000
0100
0000
0001
0010
0000
0100
1000
0000
0001
0000
,
0100
0000
0010
0000
1000
0000
0100
0000
0010
0001
0000
0001
1000
0000
0010
0000
,
0100
0000
0001
0000
0010
0000
0100
0000
1001
0000
0000
0000
1000
0001
1000
0000
,
1001
1000
0010
0100
0001
0010
0100
1000
,
0100
0010
0001
0100
1000
0100
0001
0000
,
1000
0100
0010
0001
1000
0010
0100
0001
,
0100
0010
1000
0001
0010
0100
1000
0000
,
1000
0010
0001
1000
0100
0001
0010
1000
,
0001
0100
1000
0010
0100
0001
1001
0000
,
1001
0000
1000
0010
0100
0000
0001
0010
0100
0000
1000
0000
0101
1000
1100
0000
,
1000
0100
1000
0100
1000
0000
0000
0000
,
1000
0100
0010
0001
1000
0000
0000
0000
,
0001
0100
0001
0100
0001
0000
0000
0000
,
0001
0010
0100
1000
0001
0000
0000
0000
,
1000
0010
0100
0001
0100
0000
0000
0000
,
0010
1000
0010
0100
0001
0000
0000
0000
,
1000
0100
0010
0100
1000
0000
0000
0000
,
0001
0100
0010
0100
0001
0000
0000
0000
,
1000
0010
0100
0010
1000
0000
0000
0000
,
1000
0100
0001
0100
1000
0000
0000
0000
,
1000
0010
0100
0001
0100
0000
0000
0000
,
0010
1000
0100
0010
0001
0000
0000
0000
,
0010
0001
0100
0010
1000
0000
0000
0000
,
0010
0100
0010
0100
0010
0000
0000
0000
,
1000
0000
0000
0100
0000
0000
0010
0000
0000
0001
0000
0000
1000
0000
0000
0000
0100
0000
0000
0000
0010
0000
0000
0000
,
0001
0100
0000
0010
1000
0001
0100
0000
0000
0000
0101
0000
0010
1000
0100
0000
,
1100
1000
0000
0100
0010
0001
1000
0000
1001
0001
0100
0010
1010
1000
0100
0010
,
0000
0001
0010
0100
1000
0000
1100
0000
0000
0000
1001
0000
0101
0001
0100
0000
,
0000
1000
0010
0100
0001
0000
1001
0000
1000
0010
0100
0010
1000
0100
0010
0001
,
2000
0000
0000
0002
0000
0000
0010
0000
0000
3003
1100
0000
1000
0010
0100
0000
,
0002
0000
0000
0200
0000
0000
1000
0303
0001
0100
0010
1000
0001
0000
1000
0000
,
0200
0000
0000
2000
0000
0000
0001
0000
3300
0000
1001
0000
1000
0100
1000
0000
,
0200
0000
0000
0020
0000
0000
0001
0330
0100
0010
0001
0010
0100
1000
0010
0100
,
0001
0000
0000
1001
0000
0000
1000
0000
,
0100
0010
0001
0010
,
0100
0000
0000
0110
0000
0000
0010
0000
,
0001
1000
0010
0100
,
0001
0000
0000
0101
0000
0000
0100
0000
,
0010
1000
0100
1000
,
0010
0000
0000
1010
0000
0000
1000
0000
,
0010
0100
0001
1000
,
0100
0000
0000
0110
0000
0000
0010
0000
,
0001
1000
0001
0100
,
0010
0000
0000
1010
0000
0000
1000
0000
,
0010
0100
0001
0010
,
0100
0000
0000
1001
0000
0000
0010
0000
,
0001
0100
0010
1000
,
0100
0000
0000
1001
0000
0000
0100
0000
,
0001
0010
0100
0010
,
0001
0100
0000
0010
1000
0000
0100
0000
,
0010
0000
0100
1000
0000
1000
0010
0000
,
0100
0000
0001
0000
,
1000
0000
0100
0010
0000
0010
0100
0000
,
1000
0000
1001
0000
0001
0010
0000
0010
,
0100
1000
0000
1100
,
0000
0000
0110
0000
0001
0100
0000
0001
,
0010
0000
0100
0000
1100
0000
1000
0100
,
0000
1000
0010
0000
0100
0000
0000
0000
,
0101
0000
0000
0000
1001
0000
1000
0100
,
0000
1000
0001
0000
0010
0000
0011
0000
,
1000
0010
0000
1000
0100
0000
0010
0000
,
0001
1000
0010
0100
,
0101
0001
0010
0100
,
1000
0010
0100
0010
,
1000
0100
0010
0001
,
1001
0000
1100
0000
,
1000
0010
1000
0010
1000
0000
0010
0000
,
0100
0001
0100
0001
0100
0000
0001
0000
,
0010
0100
1000
0100
0010
0000
0001
0000
,
0100
0010
1000
0010
0100
0000
0001
0000
,
1001
1000
0100
0010
,
0001
0100
1000
0001
,
0010
1000
0100
0010
,
0001
0000
1001
0000
,
1000
0010
0100
0001
0010
0000
0100
0000
,
1000
0100
0010
0001
1000
0000
0001
0000
,
1100
0000
0000
0110
0000
0000
0001
0000
0010
0000
0100
0000
,
1000
0100
0010
0001
1000
0100
0010
0001
1000
0100
0010
0001
1000
0000
0001
0000
,
1000
0010
0100
0001
1000
0010
0100
0001
1000
0010
0100
0001
1000
0000
0110
0000
,
0001
0100
0010
1000
0001
0100
0010
1000
0001
0100
0010
1000
0001
0000
1000
0000
,
0001
0010
0100
1000
0001
0010
0100
1000
0001
0010
0100
1000
0001
0000
0110
0000
,
2000
0000
0000
0002
0000
0000
0100
0000
3003
0000
1000
0000
0100
0010
0001
0000
,
0002
0000
0000
2000
0000
0000
0010
3003
1001
0000
0000
0000
0000
0000
0000
0000
,
0200
0000
0000
0020
0000
0000
1000
0000
0330
0000
0110
0000
1000
0001
1000
0000
,
0020
0000
0000
0200
0000
0000
0001
0330
0100
0010
0100
0010
0100
0000
0000
0000
,
0001
0010
0001
0010
0001
0000
0000
0000
,
1000
0010
1000
0010
1000
0000
0000
0000
,
0001
0100
0001
0100
0001
0000
0000
0000
,
1000
0100
1000
0100
1000
0000
0000
0000
,
0001
1000
0001
1000
0001
0000
0000
0000
,
0100
0010
0100
0010
0100
0000
0000
0000
,
1000
0001
1000
0001
1000
0000
0000
0000
,
0010
0100
0010
0100
0010
0000
0000
0000
,
0001
0010
0100
0010
0001
0000
0000
0000
,
1000
0010
0100
0010
1000
0000
0000
0000
,
0001
0100
0010
0100
0001
0000
0000
0000
,
1000
0100
0010
0100
1000
0000
0000
0000
,
0001
0010
0100
1000
0001
0000
0000
0000
,
0001
1000
0100
0010
0001
0000
0000
0000
,
1000
0010
0100
0001
1000
0000
0001
0000
,
1000
0000
0000
0000
0001
0000
0000
0000
1000
0000
0000
0000
,
1001
0000
0000
0000
0000
0000
1000
0000
0100
0000
0010
0000
,
0001
0000
1000
0000
0010
0000
0100
0000
0001
0000
1001
0000
;
