#TITLE:Queen Of Light;
#SUBTITLE:;
#ARTIST:Missing Heart;
#TITLETRANSLIT:;
#SUBTITLETRANSLIT:;
#ARTISTTRANSLIT:;
#CREDIT:;
#BANNER:;
#BACKGROUND:;
#LYRICSPATH:;
#CDTITLE:;
#MUSIC:QueenOfLight_ITG.mp3;
#OFFSET:0.000;
#SAMPLESTART:99.960;
#SAMPLELENGTH:12.000;
#SELECTABLE:YES;
#BPMS:0.000=132.000;
#STOPS:;
#BGCHANGES:0.000=4ce9bf52ddd8070b.jpg=1.000=0=0=1,
99999=-nosongbg-=1.000=0=0=0 // don't automatically add -songbackground-
;
// cache tags:
#FIRSTBEAT:16.500;
#LASTBEAT:264.500;
#SONGFILENAME:Songs/keyboard/QueenOfLight_ITG/QueenOfLight_ITG.sm;
#HASMUSIC:1;
#HASBANNER:0;
#MUSICLENGTH:122.502;
// end cache tags

//---------------dance-single - ----------------
#NOTES:
     dance-single:
     :
     Easy:
     1:
     0.000,0.000,0.000,0.000,0.000,0.000,0.000,0.000,0.000,0.000:
0000
0000
0000
0000
;

//---------------dance-single - Copied from----------------
#NOTES:
     dance-single:
     Copied from:
     Hard:
     1:
     0.676,0.891,0.359,1.000,0.176,374.000,44.000,155.000,0.000,51.000:
0000
0000
0000
0000
,
0000
0000
0000
0000
,
0000
0000
0000
0000
,
0000
0000
0000
0000
,
0000
1000
0000
0001
0100
0000
0000
0001
,
0010
0000
0001
0000
0000
0010
0001
0100
0010
0000
0000
0000
1000
0000
0001
0000
,
1000
0000
0010
0000
0000
0010
1000
0100
0010
0000
0000
0000
0001
0000
1000
0000
,
0001
2000
0000
0200
0000
0002
0000
0020
,
3333
0000
0000
0010
0010
0000
0000
2200
,
0010
0010
0000
0001
3301
0000
0000
2002
,
0000
0010
0000
0010
3013
0000
0000
2000
,
0010
0020
3000
0002
0030
0200
0003
2000
,
0300
0002
0000
0010
3013
0000
0000
0202
,
0010
0010
0000
1000
1303
0000
0000
2200
,
0000
0010
0000
0001
3301
0000
0000
2000
,
0020
3002
0030
0200
0003
2000
0300
0020
,
3000
1030
0100
0001
0100
1000
0010
0002
,
0000
0010
1003
0100
0001
0100
1000
0001
,
0010
0001
0100
0010
1000
0100
1000
0002
,
0000
0000
1000
0003
0010
0000
0001
0000
0010
0000
1000
0000
0100
0000
0100
0000
,
0000
0000
2000
0000
0002
3000
2000
0003
0200
3000
0020
0300
0200
0030
0002
0300
,
0103
0001
0200
0000
2000
0300
0200
3000
1300
0001
2000
0000
0200
3000
2000
0300
,
0020
3000
2000
0030
0020
3000
0200
0030
0020
0300
0002
0030
0020
0003
0002
0030
,
1003
0001
2000
0000
0002
3000
0020
0003
1030
0001
2000
0000
0002
3000
0020
0003
,
2000
0030
0020
3000
0002
0030
0200
0003
2000
0300
0200
3000
0020
0300
2000
0030
,
0200
3000
2000
0300
0020
3000
0002
0030
2000
0003
0200
3000
0020
0300
0002
0030
,
0013
0001
0020
0000
2000
0030
0200
3000
0020
0300
2000
0030
0002
3000
2000
0003
,
0020
3000
0200
0030
0020
0300
0002
0030
2000
0003
0020
3000
1030
0000
1000
0000
,
1000
0000
2000
0000
0200
3000
0002
0300
0200
0003
2000
0300
0020
3000
0002
0030
,
0013
0001
0020
0000
2000
0030
0020
3000
1030
0100
1000
0000
2000
0000
0020
3000
,
0002
0030
2000
0003
0002
3000
0020
0003
2000
0030
0200
3000
0020
0300
2000
0030
,
3010
1000
0020
0000
0200
0030
2000
0300
3020
1000
0200
0030
2000
0300
0020
3000
,
0002
0030
0020
0003
0030
0010
1000
0000
1000
0000
1000
0000
0000
1000
0100
0000
,
0000
0000
2200
0000
0000
0000
0000
0000
0010
0000
0001
0000
0000
0001
3310
0000
,
0000
0000
0202
0000
0000
0000
0000
0000
1000
0000
0010
0000
0000
0010
1303
0000
,
0000
0002
0000
0003
0000
0200
0000
0300
,
0000
2002
0000
3013
0020
0000
0000
0000
,
0000
0200
0000
0000
1000
1330
0000
1001
,
0000
0000
0110
0000
0000
0000
2002
0000
0010
3003
0000
0000
0000
0000
0010
0000
,
0010
1101
0000
0000
0000
1110
0000
0000
,
0000
0000
1111
0000
0000
0000
1001
0000
0220
0000
0000
0330
0000
0000
1010
0000
,
0101
1100
0000
0011
1001
0000
0000
2002
,
0000
0100
0000
0010
3013
0000
0000
0000
,
0000
1101
0000
0000
0000
1011
0000
1011
,
0000
0000
0020
0000
0000
0030
2000
0000
3002
0000
0000
0000
0003
0000
0010
0000
,
0100
2000
3000
0001
0200
0000
0300
2002
,
3003
2020
3030
0011
2020
3030
0000
0101
,
0110
2002
0000
0100
0000
0010
0000
3013
,
0000
0220
0000
1000
1330
0000
0000
2002
,
0010
3013
0000
1010
0101
0000
0000
0110
,
0000
0020
0000
0100
0130
0000
0000
0200
,
0010
0310
0000
2002
0000
0010
0000
3013
,
0000
0000
0010
1000
0200
0000
0000
0000
0000
0000
0000
0000
0300
0000
1010
0000
,
0000
0000
0010
1000
0100
0000
0100
0000
0000
0000
1100
0000
0000
0000
0011
0000
,
0000
0000
0001
1000
0100
0000
1000
0010
0200
0000
0000
0000
0000
0000
0000
0000
,
0300
0000
0001
0100
0010
0000
1000
0000
0000
1000
0100
0000
0000
0000
0110
0000
,
0000
0000
0100
1000
0001
0000
0010
0000
0000
0000
0100
0000
0000
0000
1001
0000
,
0000
0000
0100
1000
0010
0000
1000
0000
0000
0000
0010
0000
0000
0000
0010
0000
,
0000
0000
1000
0100
0010
0000
0010
0001
0200
0000
0000
0000
0000
0000
0000
0000
,
0300
0000
0001
0100
0010
0000
1000
0000
0000
0100
1000
0000
0000
0000
0010
0000
,
0000
0000
0010
0100
0020
0000
0000
0000
0000
0000
0000
0000
0030
0000
0010
0000
,
0000
0000
0010
1000
0001
0000
2002
0000
0000
0000
0010
0000
0000
0000
3013
0000
,
0000
0000
0001
1000
0100
0000
1000
0100
0020
0000
0000
0000
0000
0000
0000
0000
,
0030
0000
0010
0001
0100
0000
0001
0000
0000
1000
1000
0000
0000
0000
0110
0000
,
0000
0000
0010
1000
0100
0000
0010
0001
0100
0000
0010
1000
0100
0000
0010
1000
,
0100
0000
1000
0100
1000
0000
0010
1000
0100
0000
0100
1000
0010
0000
1000
0001
,
0100
0010
0000
0000
0000
0000
0000
0000
;
