#TITLE:Eat This;
#SUBTITLE:;
#ARTIST:Dr. Peacock & Death By Design;
#TITLETRANSLIT:;
#SUBTITLETRANSLIT:;
#ARTISTTRANSLIT:;
#CREDIT:owenviau1;
#BANNER:../BN.png;
#BACKGROUND:;
#LYRICSPATH:;
#CDTITLE:../CDTitleOV1.png;
#MUSIC:Dr.Peacock & Death By Design - Eat This.ogg;
#OFFSET:-0.273;
#SAMPLESTART:114.867;
#SAMPLELENGTH:29.999;
#SELECTABLE:YES;
#BPMS:0.000=200.000;
#STOPS:;
#BGCHANGES:;
// cache tags:
#FIRSTBEAT:0.000;
#LASTBEAT:928.000;
#SONGFILENAME:Songs/owenviau1 Simfiles 07_final/Eat This - [owenviau1 & Braeden] v1.0.0/Eat This.sm;
#HASMUSIC:1;
#HASBANNER:1;
#MUSICLENGTH:285.701;
// end cache tags

//---------------dance-single - owenviau1----------------
#NOTES:
     dance-single:
     owenviau1:
     Challenge:
     18:
     1.000,1.000,0.039,0.413,1.000,2723.000,11.000,118.000,0.000,0.000:
1000
0100
1000
0010
0100
0001
1000
0001
,
0100
0010
0100
0001
1000
0010
1000
0100
,
0010
0001
1000
0100
1000
0010
0100
0001
,
0100
0010
1000
0001
1000
0100
0010
0010
,
0010
0001
1000
0001
0100
0010
0100
0001
,
1000
0010
1000
0001
0100
0010
0100
0001
,
1001
1000
0010
0100
0001
0100
0010
1000
,
0001
0100
0001
1000
0001
0010
0001
0100
,
0001
0010
0100
1000
0100
0010
0001
1000
,
0010
1000
0001
0100
0010
0100
0001
1000
,
0100
1000
0010
0100
0001
1000
0100
1000
,
0010
0000
0200
0000
0301
0000
0020
0000
0031
1000
0001
0100
0010
1000
0010
0100
,
0001
1000
0001
0100
0010
0100
0001
1000
0010
0000
0100
0000
0010
0000
1000
0000
,
0001
0100
0001
0010
0100
1000
0001
0010
,
0001
0100
0010
1000
0001
1000
0100
0010
,
0001
1000
0010
0100
0000
0002
0003
2000
,
3010
0100
0001
1000
0001
0010
0100
1000
,
0001
0010
0001
0100
0010
1000
0001
0100
,
0001
1000
0010
0100
0001
1000
0100
1000
,
0010
0000
0100
0000
0001
0000
1000
0000
0010
0000
0100
0001
0100
0000
0010
1000
,
0001
0100
0010
0100
0001
1000
0010
1000
,
0100
0010
0001
1000
0100
1000
0001
0100
,
0010
1000
0010
0100
0001
1000
0001
0010
,
0100
0000
0000
1000
0000
0000
0001
0000
0000
0100
0000
0000
0001
0000
0000
1000
0000
0000
0010
0000
0000
0100
0001
0100
,
0001
1000
0100
0010
0001
1000
0001
0100
,
0010
0100
0001
1000
0010
1000
0100
0010
,
0001
1000
0001
0100
0010
0100
0001
1000
,
0010
1000
0100
0010
0001
1000
0100
1000
,
0001
0010
0100
1000
0001
0100
0001
1000
0010
0100
0010
1000
0001
0100
0001
1000
,
0100
0010
0001
1000
0100
1000
0010
0100
0001
0100
0010
1000
0001
1000
0100
0010
,
0001
1000
0100
1000
0010
0100
0010
1000
0001
0100
0001
0010
0100
1000
0001
0010
,
0001
0001
1000
1000
0010
0010
0100
0100
,
0001
1000
0001
0100
0010
1000
0010
0100
0001
1000
0001
0010
0100
1000
0001
0010
,
0001
0100
0010
0100
0001
1000
0010
1000
0100
0010
0001
1000
0100
1000
0001
0010
,
0001
0100
0010
1000
0001
0100
0001
1000
0100
0010
0001
1000
0100
1000
0010
0100
,
0001
0000
0001
0000
0010
0000
0100
0000
2000
0000
3020
0000
0130
0001
1000
0001
,
0100
0000
0000
0010
0000
0000
1000
0000
0000
0010
0000
0000
0100
0000
0000
0001
0000
0000
0100
0000
0000
0010
0000
0000
1000
0000
0001
0000
1000
0000
0001
0000
0000
0100
0000
0000
0010
0000
1000
0000
0010
0000
1000
0000
0000
0001
0000
0000
,
0100
0010
1000
0001
0100
0010
0100
0001
1000
0010
1000
0001
0010
0100
1000
0001
,
0100
0000
0000
0010
0000
0000
1000
0000
0001
0000
1000
0000
0001
0000
0000
0010
0000
0000
0100
0000
0000
1000
0000
0000
0001
0000
0000
0100
0000
0000
0001
0000
0000
1000
0000
0000
0020
0000
0000
0000
0000
0000
0000
0000
0000
0000
0000
0000
,
0130
0100
0001
0001
1000
1000
0020
0000
,
0130
0000
0001
0000
1000
0100
0010
0001
1000
0100
1000
0010
0100
0001
0100
0010
,
1000
0001
1000
0100
0010
0001
0100
0001
1000
0010
0100
0001
0100
0010
1000
0001
,
1000
0000
0000
0100
0000
0000
0010
0000
0000
0001
0000
0000
1000
0000
0000
0100
0000
0000
1000
0000
0000
0001
0000
0000
0010
0000
0000
0001
0000
0000
0100
0000
0000
0010
0000
0000
1000
0000
0001
0000
1000
0000
0001
0000
1000
0000
0001
0000
,
1000
0000
0040
0000
0000
0000
0000
0000
0000
0000
0000
0000
0000
0000
0000
0030
,
2000
0000
3001
0000
0100
0000
0010
0000
1000
0001
1000
0100
0010
0001
1000
0010
,
2000
0000
3001
0000
0400
0000
0000
0000
0320
0000
1030
0000
0001
0100
0002
0000
,
2003
3000
0020
0030
0200
0300
0002
0003
2000
3000
0200
0300
0020
0030
0002
0003
,
1000
1000
0010
0010
0100
0100
0001
0001
,
1000
0100
0010
0001
1000
0001
0100
0010
0100
0001
1000
0010
1000
0001
0100
0001
,
0010
0100
1000
0001
0010
0001
0100
0010
0100
0001
1000
0010
1000
0100
0010
0001
,
1000
0100
1000
0001
0100
0010
0100
0001
1000
0010
1000
0001
0100
0001
0010
0100
,
2000
0000
3002
0000
0203
0300
0200
0300
0200
0000
0320
0000
2030
0000
0000
0000
,
3001
0010
0001
0100
0010
1000
0010
0100
0001
1000
0001
0100
0010
0100
0001
1000
,
0010
1000
0100
0010
0001
1000
0100
1000
0010
0100
0001
0100
0010
1000
0001
1000
,
0100
0040
0000
0000
0000
0000
0031
1000
,
0001
0010
0100
1000
0001
0100
0010
1000
,
0001
0010
0100
1000
0001
0100
0001
1000
0010
0100
0010
1000
0001
0100
0001
1000
,
0100
0010
0001
1000
0100
1000
0010
0100
0010
1000
0001
0100
0001
0010
0100
1000
,
0001
0010
0001
0100
0010
1000
0010
0100
0001
1000
0001
0010
0100
1000
0001
1000
,
0010
0200
0301
2000
3100
0010
0001
2000
,
3010
0000
0100
0000
0001
1000
0001
0100
0010
1000
0010
0100
0001
1000
0001
0010
,
0100
1000
0001
0010
0001
0100
0010
0100
0001
1000
0100
1000
0010
0100
0001
1000
,
0100
0010
0001
1000
0100
1000
0001
0010
0001
0100
0010
1000
0001
0000
0100
0000
,
0020
0030
0020
0030
0000
2000
3000
0000
0002
0003
0000
0200
0000
0000
0300
0000
,
0010
0000
0000
0000
,
0000
0000
0000
0000
,
0000
0000
0000
0000
,
0000
0000
0000
0000
,
1000
0000
0100
0010
0000
0001
1000
0010
,
0100
0000
0001
1000
0000
0010
0100
0010
,
1000
0000
0001
0100
0001
0000
0010
0000
,
0100
0000
0000
0000
,
1000
0000
0100
0010
0000
0001
1000
0010
,
1000
0000
0100
0010
0000
0001
1000
0001
,
0100
0000
0010
1000
0010
0000
0100
0000
,
0001
0000
0000
0000
2000
0000
0000
0000
3200
0000
0000
0310
0001
0000
1000
0000
,
0001
0010
0100
1000
0001
0100
0001
1000
,
0010
0100
0001
0100
0010
1000
0001
1000
,
0100
0010
0001
1000
0100
1000
0010
0100
,
0001
0000
0000
0000
0200
0000
0000
0000
0320
0000
0000
1030
0001
0000
0010
0000
,
0100
0000
0000
1000
0100
0000
0000
0010
,
0001
1000
0001
0100
0010
1000
0010
0100
,
0001
0000
0000
1000
0100
0000
0000
0010
,
0001
1000
0001
0100
0010
0100
0001
1000
,
0010
0000
0000
0100
0001
0000
0000
1000
,
0100
0010
0001
1000
0001
0100
0010
1000
,
0020
0000
0130
0001
2000
0000
3200
0000
,
0320
0030
0002
0003
2000
3000
0020
0130
,
0001
1000
0010
1000
0100
0010
0001
1000
,
0001
0100
0010
0100
0001
1000
0010
1000
,
0100
0010
0001
1000
0100
1000
0001
0010
,
0001
0100
0010
1000
0010
0100
0001
1000
,
0001
0010
0100
1000
0001
0100
0001
1000
0010
0100
0010
1000
0001
0100
0001
1000
,
0010
0100
0010
1000
0001
0100
0001
1000
0100
0010
0001
1000
0100
1000
0010
0100
,
0001
1000
0001
0100
0010
1000
0010
0100
0001
1000
0001
0010
0100
1000
0001
0010
0001
0100
0010
1000
0010
0100
0001
1000
,
0001
0000
0000
0000
0000
0000
0000
0000
0000
0000
0000
0000
2000
0000
0000
3000
0000
0000
0200
0000
0000
0000
0300
0000
,
0010
0001
1000
0001
0100
0010
1000
0010
0100
0001
1000
0001
0100
0010
0100
0001
,
1000
0010
1000
0100
0010
0001
1000
0100
1000
0010
0100
0001
0100
0010
1000
0001
,
1000
0100
0010
0001
1000
0100
1000
0010
0100
0001
0100
0010
1000
0010
0100
0001
,
1000
0100
0010
0001
1000
1000
1000
0010
,
0100
0000
0000
0001
0000
0000
1000
0000
0000
0001
0000
0000
0100
0000
0000
0010
0000
0000
1000
0000
0000
0010
0000
0000
0100
0000
0000
0001
0000
0000
0100
0000
0000
0010
0000
0000
1000
0000
0000
0001
0000
0000
0100
0000
0010
0000
0100
0000
,
0010
1000
0001
0100
0010
1000
0010
0100
0001
1000
0001
0100
0010
1000
0010
1000
,
0010
0100
0001
1000
0010
0000
0010
0000
0100
0001
1000
0001
0100
0010
0100
0001
,
1000
0000
1000
0000
0010
0000
0010
0000
0100
0001
1000
0001
0100
0000
0100
0000
,
0010
1000
0001
0100
0001
0010
0100
1000
0001
0010
0001
0100
0010
1000
0010
0100
,
0001
1000
0001
0100
0010
0100
0001
1000
0010
1000
0100
0010
0001
1000
0100
1000
,
0001
0010
0001
0100
0010
0100
0001
1000
0100
1000
0010
0100
0001
1000
0100
0010
,
0001
1000
0010
0100
0040
0000
0130
0001
,
1000
0000
0000
0010
0000
0000
0100
0000
0001
0000
0100
0000
0001
0000
0000
1000
0000
0000
0010
0000
0100
0000
0010
0000
0100
0000
0000
0001
0000
0000
1000
0000
0000
0001
0000
0000
0100
0000
0000
0010
0000
0000
1000
0000
0000
0010
0000
0000
,
0100
0001
0100
0010
1000
0001
1000
0100
0010
0001
1000
0100
1000
0010
0100
0001
,
1000
0400
0000
0000
0000
0000
0000
0000
,
0310
0000
0000
0000
0002
0003
0002
0003
2000
0000
3010
0100
0010
1000
0001
0100
,
0001
0010
0100
1000
0001
0100
0001
1000
0010
0100
0010
1000
0001
0100
0001
1000
,
0100
0010
0001
1000
0100
1000
0010
0100
0001
0100
0010
1000
0001
1000
0100
0010
,
0001
1000
0100
1000
0010
0100
0010
1000
0001
0100
0001
0010
0100
1000
0001
0010
,
0001
0000
0000
0100
0000
0000
0010
0000
0000
0010
0000
0000
1000
0000
0000
0001
0100
0001
0100
0000
0000
0010
1000
0010
,
1000
0001
0100
0001
1000
0010
0100
0001
0100
0010
1000
0001
1000
0100
0010
0001
,
1000
0100
1000
0010
0100
0001
0100
0010
1000
0001
1000
0100
0010
0001
0100
0001
,
2000
3000
0020
0030
0200
0300
0002
0003
,
2000
0000
3200
0000
0310
0001
1000
0001
0100
0010
1000
0010
0100
0001
0100
0010
,
2000
0000
0000
0000
0000
0000
3002
0000
0000
0000
0000
0000
0103
0000
0010
0000
0100
0000
0010
0000
0100
0000
0010
0000
0100
0000
0000
0001
0000
0000
1000
0000
0000
0100
0000
0000
1000
0000
0000
0010
0000
0000
0100
0000
0000
0001
0000
0000
,
1000
0000
0010
0100
0001
1000
0001
0100
0010
0100
0001
1000
0010
1000
0100
0010
,
0001
1000
0100
1000
0001
0010
0001
0100
0010
1000
0010
0100
0001
1000
0001
0100
,
0010
0100
0001
1000
0010
0000
0010
0000
0100
0000
0001
0000
1000
0000
0010
0100
,
0002
1003
0100
2000
3020
0130
0001
2000
,
3002
0203
0320
2030
3040
0430
0302
4003
,
3002
0003
0010
0100
2000
3001
2000
3010
,
2000
3100
0020
0031
2000
3010
0200
0300
,
0001
1000
0001
0100
0010
1000
0010
0100
0001
1000
0001
0100
0010
0100
0001
1000
,
0010
1000
0100
0010
0001
1000
0100
1000
0001
0010
0001
0100
0010
1000
0010
0100
,
0001
1000
0001
0100
0010
1000
0010
0100
0001
1000
0001
0010
0100
1000
0001
0010
,
0001
0100
0010
1000
0001
0100
0001
1000
0100
0010
0001
1000
0100
1000
0010
0100
,
0001
1000
0001
0100
0010
0100
0001
1000
0010
1000
0100
0010
0001
1000
0100
1000
,
0001
0010
0001
0100
0010
1000
0010
0100
0001
1000
0001
0100
0010
1000
0010
0100
,
0001
1000
0001
0010
0100
1000
0100
0010
0001
1000
0100
1000
0001
0010
0100
1000
,
0020
0000
0000
0100
0030
0000
0002
0000
0000
1000
0003
0000
0200
0000
0000
0000
0300
0000
0020
0000
0000
0000
0030
0000
,
0001
1000
0001
0100
0010
1000
0010
0100
0001
1000
0001
0010
0100
1000
0001
0010
,
0001
0100
0010
1000
0010
0100
0001
1000
0001
0100
0010
0100
0001
1000
0100
1000
,
0010
0100
0010
1000
0001
0100
0001
0010
0100
1000
0001
0010
0001
0100
0010
1000
,
0001
0000
0000
0000
0000
0000
0100
0000
0000
0000
0000
0000
0010
0000
0000
0000
0000
0000
1000
0000
0000
0100
0000
0000
1000
0000
0000
0000
0000
0000
0001
0000
0100
0000
0001
0000
0100
0000
0000
0000
0000
0000
0010
0000
0000
0000
0000
0000
,
1000
0100
0010
0001
1000
0001
0100
0010
0100
0001
1000
0100
1000
0001
0010
0001
,
0100
0010
1000
0001
0100
0001
1000
0100
0010
0001
1000
0010
1000
0001
0100
0001
,
1000
0010
0100
0001
0100
0010
1000
0001
1000
0100
0010
0001
1000
0100
1000
0001
,
0010
0100
1000
0001
0100
0000
0100
0000
0010
1000
0010
0100
0001
1000
0001
0100
,
0010
0000
1000
0000
0010
0000
1000
0000
0000
0001
0000
0000
0100
0000
0000
0010
0000
0000
0100
0000
0000
0001
0000
0000
1000
0000
0000
0010
0000
0000
1000
0000
0000
0100
0000
0000
0010
0000
0000
0001
0000
0000
1000
0000
0000
0100
0000
0000
,
1000
0001
0100
0010
0100
0001
1000
0010
1000
0100
0010
0001
1000
0100
1000
0001
,
0010
0001
0100
0010
0100
0001
1000
0010
1000
0001
0100
0001
1000
0100
0010
0001
,
1000
0000
0000
0000
0000
0000
0010
0000
0000
0000
0000
0000
0100
0000
0000
0000
0000
0000
0001
0000
0000
1000
0000
0000
0001
0000
0000
0000
0000
0000
0100
0000
0010
0000
0100
0000
0020
0000
0000
0000
0000
0000
0000
0000
0000
0000
0000
0000
,
1030
0001
0100
0001
1000
0010
0100
0001
0100
0010
1000
0001
1000
0100
0010
0001
,
1000
0100
1000
0001
0010
0001
0100
0010
1000
0010
0100
0001
0010
0001
1000
0010
,
0200
0000
0000
0300
0001
0000
1000
0000
0020
0000
0000
0030
0200
0000
0000
0000
,
0301
0000
1000
1000
0100
0010
0001
0001
,
1000
0100
0010
0001
1000
0010
0100
0010
,
1000
0001
0100
0001
1000
0100
0010
0001
,
1000
0100
1000
0010
0100
0001
0100
0010
,
1000
0000
0000
0001
0000
0000
1000
0000
0000
0100
0000
0000
0010
0000
0000
0001
1000
0001
4000
0000
0000
3100
0000
0000
,
1000
0010
0100
0001
1000
0001
0100
0010
,
0100
0001
1000
0010
1000
0100
0010
0001
,
1000
0010
0100
0010
1000
0001
0100
0001
,
1000
0000
0100
0000
0010
0000
0001
0000
1000
0000
0010
0100
0001
0100
0010
1000
,
0001
0100
0010
0100
0001
1000
0010
1000
,
0100
0010
0001
1000
0100
1000
0001
0100
,
0010
0100
0001
1000
0001
0100
0001
0010
,
0100
0000
1000
0000
0001
0000
0100
0000
0010
1000
0010
0000
0100
0000
0001
0000
,
1000
0100
0010
0001
1000
0001
0100
0010
0100
0001
1000
0100
1000
0001
0010
0001
,
1000
0010
1000
0100
0010
0001
0100
0001
1000
0010
0100
0001
0100
0010
1000
0001
,
1000
0100
0010
0001
1000
0001
0100
0010
1000
0010
0100
0001
1000
0001
0010
0100
1000
0001
0010
0001
0100
0010
1000
0001
,
1000
1000
0100
0010
0001
1000
0010
0100
,
0001
0010
0001
1000
0100
1000
0010
0100
0001
1000
0001
0010
0100
1000
0001
0010
,
0001
0100
0010
0100
0001
1000
0010
1000
0100
0010
0001
1000
0100
1000
0001
0010
,
0001
0100
0010
1000
0001
0100
0001
1000
0100
0010
0001
1000
0100
1000
0010
0100
,
0001
0000
0001
0000
0010
0000
0100
0000
2000
0000
3020
0000
0130
0001
1000
0001
,
0100
0000
0000
0010
0000
0000
1000
0000
0000
0010
0000
0000
0100
0000
0000
0001
0000
0000
0100
0000
0000
0010
0000
0000
1000
0000
0001
0000
1000
0000
0001
0000
0000
0100
0000
0000
0010
0000
1000
0000
0010
0000
1000
0000
0000
0001
0000
0000
,
0100
0010
1000
0001
0100
0010
0100
0001
1000
0010
1000
0001
0010
0100
1000
0001
,
0100
0020
1030
0001
0100
0001
1000
0010
,
0100
0001
1000
0001
0100
0010
1000
0001
0010
0001
0100
0010
1000
0001
1000
0010
,
0100
0001
1000
0001
0100
0010
0100
0001
1000
0100
1000
0010
0100
0001
1000
0100
,
1000
0001
0010
0001
0100
0010
1000
0010
0100
0001
1000
0001
0010
0000
0100
1000
,
0001
0000
0000
1000
0000
0000
0010
0000
0000
0100
0000
0000
0001
0000
0000
0100
0000
0000
0010
0000
0000
1000
0000
0000
0010
0000
0000
0100
0000
0000
0001
0000
0000
1000
0000
0000
0010
0000
0100
0000
0010
0000
0100
0000
0010
0000
0100
0000
,
0010
1000
0001
0010
0100
1000
0001
1000
,
0010
0100
0001
1000
0100
1000
0010
0100
0001
1000
0001
0100
0010
1000
0010
0100
,
0001
1000
0010
0100
0001
0010
0001
0010
0001
0100
0010
1000
0001
0010
0100
1000
,
0002
0003
0200
0300
0020
0030
0200
0300
0002
0003
2000
3000
0020
0030
2000
3000
,
0002
0003
0002
0003
0002
0003
0002
0003
0100
0000
0010
0000
1000
0000
0001
0000
,
1000
0100
0010
0001
0100
0001
1000
0010
0100
0001
0100
0010
1000
0001
1000
0100
,
0010
0001
1000
0100
1000
0001
0010
0001
0100
0010
0100
0001
1000
0010
1000
0001
,
0100
0010
0100
0001
1000
0100
1000
0010
0100
0001
1000
0100
0010
0001
1000
0100
,
1000
0010
0100
0001
1000
0000
0010
0000
0400
0000
0301
0000
1000
0000
0100
0000
,
0010
0001
1000
0001
0100
0010
0100
0001
1000
0010
1000
0100
0010
0001
1000
0100
,
1000
0010
0100
0001
0100
0010
1000
0001
1000
0100
0010
0001
1000
0100
1000
0010
,
0100
0001
0100
0010
1000
0001
1000
0100
0010
0001
0100
0010
0100
0001
1000
0010
,
2000
3000
0200
0300
0020
0030
0002
0003
2000
3000
0020
0030
0200
0300
0002
0003
,
1000
0100
0010
0001
0100
0001
1000
0010
0100
0001
1000
0100
1000
0010
0100
0001
,
1000
0100
0010
0001
1000
0100
1000
0001
0010
0001
0100
0010
1000
0001
0100
0001
,
1000
0010
0100
0001
0100
0010
1000
0001
1000
0100
0010
0001
1000
0100
1000
0001
,
0010
0001
0100
0010
1000
0010
0100
0001
1000
0001
0010
0100
1000
0000
0010
0000
,
0100
0001
1000
0001
0100
0010
0100
0001
1000
0100
1000
0010
0100
0001
1000
0100
,
0010
0001
1000
0100
1000
0001
0010
0001
0100
0010
1000
0010
0100
0001
1000
0001
,
0100
0040
0000
0000
0000
0000
0000
0000
,
2030
3000
0200
0300
0020
0030
0002
0003
0200
0300
0020
0030
2000
3000
0002
0003
,
1000
0100
0010
0001
0100
0010
0100
0001
1000
0001
0100
0010
1000
0010
0100
0001
,
1000
0001
0100
0010
0100
0001
1000
0001
0010
0100
1000
0001
0010
0001
0100
0010
,
0100
0001
1000
0010
1000
0100
0010
0001
1000
0100
1000
0001
0010
0001
0100
0010
,
1000
0010
0100
0001
1000
0000
0010
0000
1000
0000
0010
0000
2000
0000
0000
0000
,
3100
0010
0001
1000
0001
0100
0010
0100
0001
1000
0010
1000
0100
0010
0001
1000
,
0100
1000
0010
0100
0001
0100
0010
1000
0001
0100
0001
0010
0100
1000
0001
0010
,
0001
0100
0010
1000
0001
0100
0001
1000
0010
0100
0010
1000
0001
0100
0001
1000
,
0010
0100
0001
1000
0001
0100
0010
1000
,
0001
0010
0100
1000
0001
0100
0001
1000
0010
0100
0001
0100
0010
1000
0001
1000
,
0100
0010
0001
1000
0100
1000
0010
0100
0001
0100
0010
1000
0001
1000
0100
0010
,
0001
0100
0010
1000
0010
0100
0001
1000
0001
0010
0100
1000
0001
0010
0001
1000
,
0100
0010
0100
1000
0001
0100
0010
1000
0010
0100
0001
1000
0002
0000
0000
0000
,
0103
0010
1000
0010
0100
0001
1000
0001
0100
0010
0100
0001
1000
0100
1000
0010
,
0100
0001
1000
0100
0010
0001
1000
0100
1000
0001
0010
0001
0100
0010
1000
0010
,
0100
0001
1000
0001
0100
0010
0100
0001
1000
0100
1000
0010
0100
0001
1000
0100
,
0010
0001
1000
0100
1000
0010
0100
0001
1000
0001
0100
0010
1000
0010
0100
0001
,
1000
0100
0010
0100
1000
0001
0100
0010
0100
0001
1000
0010
0100
0010
1000
0001
,
0100
0001
0010
0100
1000
0001
0010
0001
0100
0010
1000
0010
0100
0001
1000
0001
,
0100
0010
0100
0001
1000
0100
1000
0010
0100
0001
1000
0100
1000
0001
0010
0001
,
0100
0010
1000
0010
0100
0001
1000
0001
0100
0010
0100
0001
1000
0100
1000
0010
,
0100
0001
1000
0100
0010
0001
1000
0100
1000
0001
0010
0001
0100
0010
1000
0010
,
0100
0001
1000
0001
0100
0010
1000
0010
0100
0001
1000
0001
0100
0010
0100
0001
,
1000
0100
1000
0010
0100
0001
1000
0100
0010
0001
1000
0100
1000
0001
0010
0001
,
0100
0010
1000
0010
0100
0001
1000
0001
0100
0010
0100
0001
1000
0100
1000
0010
,
0100
0001
1000
0100
0010
0001
1000
0100
1000
0010
0100
0001
1000
0001
0100
0010
,
1000
0010
0100
0001
1000
0100
0010
0100
1000
0001
0100
0010
0100
0001
1000
0010
,
0100
0010
1000
0001
0100
0001
0010
0100
1000
0001
0010
0001
0100
0010
1000
0010
,
0100
0001
1000
0001
0100
0010
0100
0001
1000
0100
1000
0010
0100
0001
1000
0100
,
1000
0001
0010
0001
0100
0010
1000
0010
0100
0001
1000
0001
0100
0010
0100
0001
,
1000
0100
1000
0010
0100
0001
1000
0100
0010
0000
0001
0000
1000
0000
0001
0000
,
0100
0010
0100
0001
1000
0010
1000
0100
,
0010
0000
0000
0000
0000
0000
0001
0000
0000
0000
0000
0000
1000
0000
0000
0000
0000
0000
0001
0000
0000
0000
0000
0000
0200
0000
0000
0000
0000
0000
0000
0000
0300
0000
0000
0000
0020
0000
0000
0000
0000
0000
0000
0000
0000
0030
0000
0000
,
1001
0000
0000
0000
,
0000
0000
0000
0000
,
0000
0000
0000
0000
,
0000
0000
0000
0000
,
0000
0000
0000
0000
,
0000
0000
0000
0000
;

//---------------dance-single - ----------------
#NOTES:
     dance-single:
     :
     Hard:
     11:
     0.783,1.000,0.270,0.067,0.245,1458.000,77.000,19.000,0.000,0.000:

0000
0000
0000
0000
,
0000
0000
0000
0000
,
0000
0000
0000
0000
,
0000
0000
0000
0000
,
1000
1000
1000
1000
,
0010
0010
0010
0010
,
0100
0100
0100
0100
,
0001
0010
0001
0010
0100
1000
0100
1000
,
0001
0100
0010
1000
,
0100
0010
0100
1000
,
0001
0100
0010
1000
,
0001
1000
0100
1000
0001
0100
0010
1000
,
0100
0010
0001
0100
,
0010
1000
0001
0100
,
0010
1000
0100
0010
,
0100
0000
1000
0000
0000
0001
0000
0100
,
0010
1010
0100
0001
,
0100
0110
0010
1000
,
0010
1010
0100
0001
,
0100
0000
0000
0000
1010
0000
0000
0000
1000
0000
0000
0000
0001
0000
1000
0001
,
0100
0010
1000
0100
1000
0001
0100
0010
,
1000
0100
0010
0100
1000
0001
0100
0010
,
1000
0010
1000
0000
0001
0100
0001
0000
,
2002
0000
0000
3003
,
1000
0010
0100
0001
1000
0100
0010
0100
,
1000
0001
0100
0010
1000
0100
0010
0100
,
1000
0010
0100
0001
1000
0100
0010
0100
,
1000
0001
0100
0010
1000
0100
0010
0100
,
1000
0001
0100
0010
1000
0100
0010
0100
1000
0001
0100
0010
1000
0100
0010
0100
,
1000
0001
0010
0100
0010
0100
1000
0100
0010
0100
1000
0001
0100
0010
1000
0100
,
4000
0000
0000
0000
,
3001
0100
0010
1000
0100
0010
0100
1000
,
0001
0100
0010
1000
0100
0010
0100
1000
,
0001
0010
0100
1000
0100
0010
0100
1000
,
0001
0100
0010
1000
0100
1000
0001
0100
,
0010
1000
0100
1000
0001
0000
0100
0010
,
1000
0100
1000
0001
0010
0100
1000
0100
,
0010
0100
1000
0001
0100
0010
1000
0100
,
0010
0001
0100
0010
0100
0001
0010
1000
,
0010
0010
1000
1000
0001
0100
0010
1000
,
0001
0100
0010
1000
0100
0010
0100
1000
,
0001
0100
0010
1000
0100
0010
0100
1000
,
0001
0100
0010
1000
0100
0010
0002
0000
,
1003
0010
0100
0000
0000
0000
0000
0000
,
1001
0001
0040
0030
0110
0100
4000
3000
,
1001
0001
0400
0300
0110
0010
2000
3000
,
0001
0010
0100
1000
0100
0010
0100
1000
,
0001
0000
0000
0000
,
1000
0001
0200
0310
2000
3100
0020
0031
,
0100
0010
2000
3100
0020
0031
0200
0310
,
1000
0100
0020
0031
0200
0310
2000
3100
,
0040
0000
0000
0030
,
0001
0100
0010
1000
0010
0100
0010
1000
,
0100
0010
0001
1000
0001
0100
0001
0100
,
0010
1000
0100
0010
0100
0001
0100
0010
,
0001
0100
0010
1000
0100
0010
0100
1000
,
0001
0001
0100
0010
1000
0100
0010
0001
,
1000
0100
0001
0100
1000
0001
0100
0010
,
1000
0100
0001
0100
1000
0001
0010
0100
,
1000
0001
0010
1000
0010
0001
0100
0010
,
1000
0010
0400
0000
0304
0003
0400
0000
,
0310
1000
0400
0000
0340
0000
0034
0000
,
0103
0010
4000
0000
3004
0000
0403
0000
,
0310
0000
0000
0000
,
0000
0000
0000
0000
,
0000
0000
0000
0000
,
0000
0000
0000
0000
,
1000
0000
0001
0000
,
0100
0010
1000
0010
,
0100
0000
0010
1000
0010
0000
0100
0000
,
0001
0000
0010
0001
0010
0000
1000
0000
,
0110
0001
0100
0010
,
1010
0000
0100
0001
0100
0000
0010
0000
,
1000
0000
0100
1000
0000
1000
0100
1000
,
0010
0000
0100
0001
0000
0001
0100
0000
,
0100
0010
1000
0010
,
1010
0000
1000
0010
0000
0010
0100
0000
,
0101
0000
0001
0100
0000
0100
0010
0000
,
0110
0000
0010
1000
0010
0000
0100
0000
,
0110
0010
1000
0010
,
1010
0000
1000
0010
0100
0000
0001
0010
,
0001
0100
0001
1000
0001
0010
0001
1000
,
0001
0000
0100
0010
1000
0000
0010
0100
,
0010
1000
0001
0010
0100
1000
0100
0010
,
0100
0000
0001
0100
0001
0000
1000
0010
,
1000
0010
0100
0001
0010
0001
1000
0001
,
0010
0100
1000
0010
,
0100
0001
0010
0001
,
0100
0010
1000
0100
0010
0100
1000
0001
0100
0010
1000
0100
0010
0001
0010
0100
,
1000
0001
0100
0010
1000
0100
0010
0100
1000
0001
0010
0100
1000
0100
0010
0100
,
1000
0001
0100
0010
1000
0100
0010
0100
1000
0001
0010
0100
1000
0100
0010
0100
,
1000
0001
0100
0010
1000
0100
0010
0100
1000
0001
0100
0010
1000
0100
0010
0100
,
1000
0001
0100
0010
1000
0001
0010
0100
1000
0100
0010
0100
1000
0001
0100
0010
,
1000
0001
0010
0100
1000
0100
0010
0001
0100
0010
1000
0100
0010
0100
1000
0001
,
0100
0010
1000
0100
0010
0100
1000
0001
,
0100
0000
0000
0000
,
1001
0000
0101
0001
0100
0000
0010
1000
,
0010
0100
0001
0010
0001
0100
0001
0010
,
0011
0000
0001
0100
0001
0000
1000
0010
,
0100
0010
1000
0010
0100
0010
1000
0000
,
0101
0000
0010
1000
0010
0000
0100
0010
,
1000
0010
0100
0001
0010
0100
1000
0100
,
1100
0000
0001
0010
0001
0000
1001
0000
,
0000
0000
0000
0000
,
1010
0000
0101
0010
1000
0000
1010
0100
,
0001
0100
0010
1000
0100
0010
0001
1000
,
0001
0000
0010
1000
0010
0000
0001
0100
,
0010
1000
0100
0001
0100
1000
0001
0010
,
0100
0000
1000
0001
1000
0000
0020
0000
0031
0000
0010
0000
1000
0000
0010
0000
,
0100
0000
0001
0000
0100
0000
0010
1000
0010
0000
0100
0000
0001
0000
0100
0000
,
0010
0000
1000
0010
0100
0000
0001
0000
,
0100
0000
0000
0000
,
1000
0001
0100
0000
0010
0000
1000
0000
0100
0000
0000
0000
0010
0000
0100
0000
,
0010
0100
0001
0100
0010
1000
0001
1000
,
0100
0000
1000
0010
1000
0000
0100
1000
,
0010
1000
0001
0100
0010
0100
0001
1000
,
1010
0000
0100
0001
0100
0000
0010
1000
,
0100
0010
0100
1000
0001
0100
0010
1000
,
0100
0100
0010
0010
,
0001
0100
0010
1000
,
0001
0000
0400
0310
1000
0000
0001
0100
,
0010
1000
0010
0100
0001
1000
0100
0010
,
0100
0000
1000
0001
0100
0000
0010
1000
,
0010
0100
0001
0010
0001
0100
0001
0010
,
0011
0000
0010
0100
0010
0000
1000
0001
,
1000
0010
0100
0010
1000
0001
0010
0001
,
1001
0000
0010
0100
0010
0000
1000
0000
,
0002
0203
0310
1000
,
0001
0100
0010
1000
0001
0010
0100
1000
0100
0010
0100
1000
0001
0100
0010
1000
,
0100
0010
0001
0010
0100
1000
0001
0100
0010
0001
0100
0010
0100
0001
0010
0100
,
1000
0001
0100
0010
1000
0100
0010
0100
1000
0001
0100
0010
1000
0001
0100
0010
,
1000
0100
0010
0100
1000
0001
0100
0010
1000
0001
0010
0100
1000
0100
0010
0100
,
1000
0001
0100
0010
1000
0100
0010
0100
1000
0001
0100
0010
1000
0100
0010
0001
,
0010
0100
1000
0001
0100
0010
1000
0100
0010
0100
1000
0001
0100
0010
1000
0100
,
0040
0000
0000
0000
,
0030
0000
0000
0000
,
1001
0000
0001
0100
0010
0000
1000
0100
,
0010
0100
1000
0001
0100
0010
1000
0100
,
0010
0000
0001
0100
0010
0000
1000
0010
,
0100
0001
0100
0010
,
1000
0000
0001
0100
0010
0000
1000
0100
,
0010
0100
1000
0001
0100
0010
1000
0100
,
0010
0001
1000
0100
,
1000
0000
0010
0000
0100
0000
0001
0000
0100
0010
1000
0100
0010
0000
0100
0000
,
0010
0001
0100
0010
1000
0000
0100
0010
,
0100
1000
0001
0100
0010
1000
0100
0010
,
0001
0000
1000
0010
0100
0000
0001
0100
,
0010
1000
0100
0010
0100
1000
0001
0100
,
0010
0000
1000
0010
0100
0000
0001
0100
,
0010
1000
0100
0010
0100
1000
0001
0100
,
0010
0000
1000
0000
0001
0100
0010
0000
,
1000
0100
0010
0100
,
1000
0000
0001
0100
0010
0000
0001
0010
,
0100
1000
0100
0010
0001
0100
0010
1000
,
0100
0000
0010
0001
0100
0000
0010
1000
,
0010
0100
0001
0100
0010
1000
0001
0010
,
0100
0000
0001
0100
0010
0000
1000
0100
,
0010
0001
0100
0010
1000
0001
0100
0010
,
1000
0000
0100
0010
0100
0000
0010
0001
,
0010
0100
1000
0001
0100
0010
1000
0000
,
1010
0000
0010
0100
0001
0000
0100
0010
,
1000
0001
0010
0100
0010
0001
0100
0010
,
1000
0000
0001
0100
0010
0000
1000
0001
,
0010
0001
1000
0010
0100
0001
1000
0100
,
0010
0001
0100
0010
1000
0100
0010
0100
1000
0001
0010
0100
1000
0100
0010
0100
,
1000
0001
0100
0010
1000
0100
0010
0100
1000
0001
0010
0100
1000
0100
0010
0001
,
2000
0000
0000
0000
,
3000
0000
0000
0000
,
1001
0001
0100
0010
1000
0010
0100
0010
,
1010
1000
0010
0100
0010
1000
0010
0100
,
0110
0010
1000
0010
0100
0010
1000
0010
,
0001
0010
0001
0010
2000
0000
3020
0000
,
0130
0001
0100
0001
1001
0000
0110
0000
,
1000
0010
0100
0010
1000
0010
0100
0010
,
1000
0010
0100
0001
0010
0001
0100
0001
,
0010
0001
0100
0010
0100
0001
1000
0010
1000
0000
0001
0000
0100
0000
0010
0000
,
1010
0101
0011
1001
,
1000
0010
0100
0000
0101
0000
1010
0000
,
0001
0000
0100
0000
0010
0000
0000
0000
1010
0000
0000
0000
1000
0001
1000
0001
,
0100
0010
1000
0100
0010
0000
0001
0000
,
0010
0100
1000
0000
1001
0000
0000
0000
,
1100
1000
0100
0000
0011
0001
0001
0000
,
0001
1000
0001
1000
0001
0100
0001
0010
,
0011
1000
0000
0000
,
1000
0100
0011
0000
0101
0000
1010
0000
,
0010
0100
1001
0000
1100
0000
0011
0000
,
1000
0100
0011
0000
0011
0000
0011
0000
,
0101
0100
0010
0000
1010
0010
1000
0000
,
0001
0100
0010
0000
0101
0000
0011
0000
,
0001
0100
0010
0000
0101
0000
0011
0000
,
0001
0100
0010
0000
0101
0000
0011
0000
,
0001
0100
0010
1000
0010
0100
0001
0010
,
0001
1000
0110
0000
0010
0000
1010
0000
,
0001
0100
1010
0000
0001
0000
0011
0000
,
0001
0100
1010
0000
0100
0000
1001
0000
,
0001
0100
0001
1000
0001
0010
0001
1000
,
0001
1000
1001
0000
0110
0000
0001
0000
,
0001
0010
0001
0000
0001
0000
1000
0000
,
0001
0100
0001
1000
0001
0100
0001
0010
,
0001
0100
0010
1000
0010
0100
0010
1000
,
0010
0001
0001
0001
,
0010
0100
0100
0100
,
1000
0001
1000
0000
0010
0000
0010
0000
,
1000
0100
1000
0100
0010
0001
1000
0001
,
0100
0010
1000
0000
0010
0000
0100
0000
,
0010
1000
0010
0000
0100
0000
0001
0000
,
0010
0100
1000
0000
0100
0000
0010
0000
,
0001
0100
0001
1000
0001
0010
0001
1000
,
0001
0100
0001
0000
0100
0000
0010
0000
,
1000
0010
0100
0000
0001
0000
1000
0000
,
0010
0100
0010
0000
1000
0000
0001
0000
,
0100
0010
1000
0010
0100
0001
0010
0001
,
0100
0001
0010
0000
0001
0000
0100
0000
,
0001
0010
0001
0000
0100
0000
0010
0000
,
1000
0010
1000
0000
0010
0000
0100
0000
,
0001
0010
0001
0100
0001
0010
0001
0100
,
0001
0010
0001
0000
0100
0000
0010
0000
,
1000
0010
1000
0000
0010
0000
0100
0000
,
0010
1000
0001
0010
,
0100
1000
0001
0100
,
0010
1000
0001
0100
,
0010
1000
0100
0010
,
0001
0100
0010
1000
,
0010
1000
0001
1001
,
0010
0100
0001
1000
,
0100
0010
0100
1000
,
0001
0100
0010
1000
,
0001
0100
0010
1000
,
0001
0100
0010
1000
,
0100
0010
0100
1000
,
0001
0100
0010
1000
,
0100
0010
0100
1000
,
0001
0000
0000
0000
;
