#TITLE:SEDUCTION;
#SUBTITLE:(Vocal Remix);
#ARTIST:NC feat. NRG Factory;
#TITLETRANSLIT:seduction;
#SUBTITLETRANSLIT:(vocal remix);
#ARTISTTRANSLIT:nc feat. nrg factory;
#CREDIT:;
#BANNER:;
#BACKGROUND:;
#LYRICSPATH:;
#CDTITLE:;
#MUSIC:Dance Dance Revolution SuperNOVA - SEDUCTION(Vocal Remix).mp3;
#OFFSET:-3.800;
#SAMPLESTART:51.699;
#SAMPLELENGTH:12.000;
#SELECTABLE:YES;
#BPMS:0.000=190.000;
#STOPS:;
#BGCHANGES:;
// cache tags:
#FIRSTBEAT:8.000;
#LASTBEAT:283.000;
#SONGFILENAME:Songs/cedric step/SEDUCTION(Vocal Remix)/SEDUCTION(Vocal Remix).sm;
#HASMUSIC:1;
#HASBANNER:0;
#MUSICLENGTH:93.604;
// end cache tags

//---------------dance-single - ----------------
#NOTES:
     dance-single:
     :
     Hard:
     8:
     0.649,0.642,0.502,0.021,0.000,376.000,47.000,2.000,0.000,0.000:
0000
0000
0000
0000
,
0000
0000
0000
0000
,
0100
0000
1000
0001
0000
0100
0000
0001
,
0000
0010
0000
0001
1000
0000
0010
0000
,
0100
0000
0001
0010
0000
0100
0000
1000
,
0000
0010
0000
1000
0100
0000
0010
0000
,
0100
0000
0000
0001
0100
0000
0000
0001
,
0010
0001
0100
0000
,
0010
0000
0000
0001
1000
0000
0000
0010
,
0100
1000
0100
0001
,
0010
0000
0000
0100
1000
0000
0000
0001
,
0100
0010
0100
0000
,
0010
0000
0000
1000
0001
0000
0000
0010
,
0001
1000
0010
0100
,
0001
0000
0010
1000
0000
0010
0000
0001
,
0000
1000
0000
0100
0010
0000
0100
0000
,
1000
0000
0010
1000
0000
0001
0000
0010
,
0000
0100
0000
1000
0100
0000
0001
0100
,
0000
0010
0001
0100
0000
0010
1000
0100
,
0000
0010
0100
1000
0000
0010
0100
0001
,
1000
0100
0010
0100
1000
0100
0010
0100
,
1000
0000
0001
0100
0010
1000
0100
0000
,
1000
0001
0100
1000
0000
0100
0000
0001
,
0000
0010
0000
0001
1000
0010
0100
0001
,
0000
1000
0100
0010
0000
0100
0000
1000
,
0000
0001
0000
0100
0010
0100
0001
1000
,
0000
0010
1000
0001
0000
0010
0000
0100
,
0000
0001
0000
0100
1000
0001
0100
0010
,
0000
1000
0100
0010
0000
0001
0000
0100
,
0000
0001
0000
0010
0001
1000
0010
0000
,
0100
0001
0010
0001
0000
1100
0000
0101
,
0000
0011
0000
1000
0010
0100
0010
1000
,
0000
0001
0010
1000
0000
0011
0000
1001
,
0000
0101
0000
1000
0100
0010
0100
1000
,
0000
0001
1000
0010
0000
0101
0000
0011
,
0000
1100
0000
0010
0100
0001
0100
0010
,
0000
1000
0001
0100
0000
0001
1000
0100
,
0000
0010
0001
0100
0010
1000
0001
0000
,
0001
1000
0100
0001
0000
1100
0000
1001
,
0000
0110
0000
1000
0001
0010
0100
1000
,
0000
0001
0100
0010
0000
0101
0000
1001
,
0000
0011
0000
0100
0010
0100
1000
0001
,
0000
0010
0001
1000
0000
0110
0000
0101
,
0000
1010
0000
0100
0001
1000
0100
0010
,
0000
0001
0100
0010
0000
1100
0000
0101
,
0000
1001
0000
0010
1000
0001
0010
0100
,
0000
1000
0010
1000
0000
0101
0000
1100
,
0000
1010
0000
0001
0010
0100
0010
0001
,
0000
1000
0010
0100
0000
1010
0000
1001
,
0000
1100
0000
0001
0100
0010
0100
0001
,
0000
1000
0001
0010
0000
1100
0000
1010
,
0000
0101
0000
0010
0100
1000
0100
0010
,
0000
0001
1000
0100
0000
1000
0001
0100
,
0000
0010
1000
0100
0010
0001
1000
0000
,
0110
0000
1001
0000
0100
1000
0010
0000
,
0101
0000
1100
0000
0010
0001
0100
0000
,
0011
0000
1100
0000
0001
1000
0010
0000
,
0101
0000
1010
0000
0100
1000
0010
0000
,
1000
0100
1000
0100
0001
0100
0001
0100
,
0010
0100
0010
0100
1000
0100
1000
0100
,
0010
0001
0100
0010
1000
0100
0010
0001
,
0100
0010
1000
0100
0001
0100
1000
0000
,
0110
0000
1001
0000
0010
1000
0100
0000
,
0011
0000
1010
0000
0100
0001
0010
0000
,
0101
0000
1010
0000
0001
1000
0100
0000
,
0011
0000
1100
0000
0010
1000
0100
0000
,
1000
0010
1000
0010
0100
0010
0100
0010
,
0001
0010
0001
0010
1000
0010
1000
0010
,
0001
1000
0100
0001
1000
0010
0001
0010
,
0100
0001
0010
0001
0100
0010
1000
0000
,
2002
0000
0000
3003
;
