#TITLE:Metalshit;
#SUBTITLE:;
#ARTIST:Terrorbunny;
#TITLETRANSLIT:;
#SUBTITLETRANSLIT:;
#ARTISTTRANSLIT:;
#CREDIT:The Cosmic Pope;
#BANNER:Bn-Metal.png;
#BACKGROUND:Bg-Metal.png;
#LYRICSPATH:;
#CDTITLE:;
#MUSIC:Metalshit.ogg;
#OFFSET:-0.427;
#SAMPLESTART:29.474;
#SAMPLELENGTH:15.600;
#SELECTABLE:YES;
#BPMS:0.000=231.000;
#STOPS:203.500=1.039
;
#BGCHANGES:;
// cache tags:
#FIRSTBEAT:44.000;
#LASTBEAT:733.063;
#SONGFILENAME:Songs/SPEEEDCOOOORE/Metalshit - [Cosmic Pope]/Metalshit.sm;
#HASMUSIC:1;
#HASBANNER:1;
#MUSICLENGTH:192.892;
// end cache tags

//---------------dance-single - B. Abear----------------
#NOTES:
     dance-single:
     B. Abear:
     Challenge:
     15:
     1.000,1.000,0.747,0.389,0.614,1460.000,144.000,75.000,24.000,4.000:

0000
0000
0000
0000
,
0000
0000
0000
0000
,
0000
0000
0000
0000
,
0000
0000
0000
0000
,
0000
0000
0000
0000
,
0000
0000
0000
0000
,
0000
0000
0000
0000
,
0000
0000
0000
0000
,
0000
0000
0000
0000
,
0000
0000
0000
0000
,
0000
0000
0000
0000
,
1000
0000
0100
0000
1000
0000
0001
0100
0001
0100
0001
0000
1000
0100
1000
0100
,
0010
0001
1000
0001
1000
0001
0001
1000
,
0010
0000
0100
0000
0001
0000
1000
0010
1000
0010
1000
0000
0001
0100
0001
0100
,
0010
0000
0000
0000
1000
0000
0000
0000
0001
0000
0000
0000
0010
0000
0000
0000
0200
0000
0000
0000
4000
0000
0000
0000
0000
0000
0000
0000
0300
0000
0000
3000
,
1001
0000
0001
0000
0100
0000
0010
0000
1010
0000
1000
0000
0001
1000
0001
0000
,
0011
0010
0100
1000
0100
1000
1000
0001
,
0101
0000
0100
0000
0010
0000
1000
0001
1000
0001
1000
0000
0001
0010
0001
0010
,
0100
1000
0001
1000
1010
0010
0110
0100
,
0101
0000
0001
0000
1000
0000
0001
1000
0001
1000
0200
0000
0000
0000
0000
0000
,
0300
0000
0000
0000
,
1100
0000
0100
0000
0010
0000
0001
1000
0100
1000
0001
0000
0100
0001
0100
0001
,
1000
0000
0100
0000
0010
0000
0001
0010
0100
0000
1000
0000
1001
0000
0001
0000
,
0101
0000
0100
0000
0010
0000
1000
0001
0100
0001
1000
0000
0001
0100
0001
0100
,
0020
1030
0002
1003
0100
0010
0001
0001
,
2002
0000
3003
0000
1000
0000
0001
0000
2002
0000
3003
0000
00M0
00M0
00M0
00M0
,
0MM0
0000
0000
0000
0000
0M00
0000
0000
0000
0000
0000
0000
0M00
0000
0000
0000
,
0000
0000
0000
00M0
0000
0000
0000
0000
0000
0M00
0000
0000
0000
0000
0000
0000
,
1000
1000
0001
0100
0100
0010
1000
0001
,
1000
0001
1000
0001
0100
0000
0010
0000
0010
0000
0100
0000
0001
0000
0001
0000
,
1000
1000
0001
1000
1000
0100
0010
0001
,
0010
0000
0001
0000
0010
0000
0001
0000
1000
0000
1000
0000
0001
1000
0001
1000
,
0001
0100
0001
0001
1000
0001
0010
0001
,
1000
0001
1000
0001
1000
0000
0100
0000
0100
0000
0010
0000
0001
0000
0001
0000
,
1000
1000
0001
0100
0100
0010
0100
0010
,
0100
0010
1000
1000
0001
1000
2000
3000
,
0001
0001
1000
0001
0001
1000
0010
1000
,
0001
1000
0001
1000
0001
0000
0010
0000
0010
0000
0001
0000
1000
0000
1000
0000
,
0010
0010
0100
0001
0001
1000
0010
1000
,
0001
0000
1000
0000
0100
0000
1000
0000
0001
0000
0100
0000
0100
0001
0100
0001
,
0100
0001
1000
0010
0010
1000
0001
1000
,
0001
1000
0001
1000
0100
0000
0010
0000
0010
0000
0001
0000
1000
0000
1000
0000
,
0010
0010
0100
0001
0001
1000
0001
0010
,
0100
0010
0001
1000
0001
0010
0010
0100
,
1000
1000
0001
1000
1000
0010
0100
0010
,
1000
0001
1000
0001
1000
0000
0100
0000
0100
0000
0010
0000
0001
0000
0001
0000
,
1000
1000
0010
0100
0100
0001
1000
0010
,
0100
0000
0010
0000
1000
0000
0010
0000
0100
0000
0001
0000
0001
1000
0001
1000
,
0001
0010
0100
1000
1000
0001
0010
0001
,
1000
0010
1000
0010
1000
0000
0001
0000
0001
0000
1000
0000
0100
0000
0100
0000
,
0010
0010
0001
1000
1000
0100
1000
0M1M
,
1001
0001
1000
1100
0100
0010
0001
0100
,
0010
0000
0100
0000
0001
0000
1000
0000
0100
0000
0010
0000
0100
1000
0100
1000
,
0100
1000
1001
0001
0100
0101
0001
0010
,
0100
1000
0100
1000
0100
0000
0010
0000
0001
0000
0001
0000
1000
0001
1000
0001
,
1000
0010
0110
0100
0001
1001
1000
0001
,
1000
0000
0001
0000
0100
0000
0001
0000
1000
0000
0100
0000
1000
0010
1000
0010
,
1000
0001
0011
0010
0100
1100
1000
0001
,
0100
0000
0001
0000
1000
0000
0001
0000
0010
0000
0010
0000
0001
1000
0001
1000
,
0001
0100
0101
0001
1000
1010
0010
1000
,
0010
0000
0100
0000
0010
0000
1000
0000
0001
0000
0001
0000
1000
0010
1000
0010
,
1000
0001
1001
1000
0100
0110
0010
0001
,
1M00
0000
01M0
0000
M01M
0000
0M01
0000
0001
0000
0M00
0000
1000
0001
1000
0001
,
0100
0010
1010
1000
0001
0011
0010
0100
,
1100
1000
1001
0001
0100
0110
0010
1000
,
1001
0001
0011
0010
0100
1100
1000
0001
,
0100
0001
0100
0001
0100
0000
0010
0000
1000
0000
1001
0000
0001
0100
0001
0100
,
0001
1000
1001
0001
0010
0110
0100
1000
,
1001
0001
0101
0100
0010
1010
1000
0001
,
0011
0010
0110
0100
1000
1001
0001
0100
,
0010
1000
0010
1000
0010
0000
0100
0000
0001
0000
1000
0000
1001
0000
0001
0000
,
1001
0001
0100
0110
0010
1000
1001
0001
,
0011
0010
0100
1100
1000
0001
1001
1000
,
1010
0010
0100
0101
0001
1000
1001
0001
,
1000
0100
1000
0100
1000
0000
0001
0000
1001
0000
1000
0000
0001
1000
0001
1000
,
0000
0000
0000
0000
,
0000
0000
0000
0000
,
1001
0000
0001
0000
0010
0000
0110
0000
0100
0000
1000
0000
0001
1000
0001
1000
,
0010
0000
0100
0000
0001
0000
1001
0000
1000
0000
0001
0000
0010
0100
0010
0100
,
0010
0000
0001
0000
1000
0000
1001
0000
0001
0000
1000
0000
0001
1000
0001
1000
,
0010
0000
0010
0000
0100
0000
0010
0000
0010
0000
0000
0000
1000
0001
1000
0001
,
0010
0000
0001
0000
1000
0000
1010
0000
0010
0000
0100
0000
0010
1000
0010
1000
,
0010
0000
0100
0000
0001
0000
1001
0000
1000
0000
0001
0000
1000
0100
1000
0100
,
1000
0000
0001
0000
0010
0000
0011
0000
0001
0000
1000
0000
0001
0100
0001
0100
,
0010
0000
0010
0000
0100
0000
0010
0000
0010
0000
0000
0000
1000
0001
1000
0001
,
0010
0100
1100
1000
0001
0001
1000
1000
,
1001
0000
0001
0000
1000
0000
1000
0000
0001
0000
0010
0000
0100
1000
0100
1000
,
0100
0010
0011
0001
1000
1000
0001
0001
,
1001
0000
1000
0001
0000
1000
0001
0000
,
0011
0001
1001
1000
0010
0010
1000
1000
,
1010
0000
0010
0000
0100
0000
0100
0000
0001
0000
1000
0000
0001
0010
0001
0010
,
0001
1000
1010
0010
0100
0100
0001
0001
,
0011
0000
0010
0000
0100
0000
0100
0000
1000
0000
0001
0000
1000
0001
1000
0001
,
2000
3100
0020
0031
2000
3010
0200
0301
,
0020
0130
2000
3001
0200
0310
2000
3001
,
0020
0130
2000
3001
0020
0031
2000
3010
,
0200
0301
0101
0100
0020
1030
1010
0010
,
2000
3001
0020
0130
2000
3001
0020
0130
,
2000
3001
0200
0310
0200
0301
2000
3001
,
0020
0130
2000
3001
0200
0301
2000
3001
,
0020
0130
1100
1000
0002
0103
0101
0001
,
2000
0000
3001
0000
0200
0000
0301
0000
0101
0000
0100
0000
0001
1000
0001
1000
,
0000
0000
0000
0000
,
0000
0000
0000
0000
,
0001
0001
1000
0100
0100
0010
0110
0100
,
0010
0010
0001
1000
1000
0010
1010
1000
,
0010
0010
0100
0001
0001
1000
1001
0001
,
1000
0001
1000
0001
1000
0000
0100
0000
0100
0000
0010
0000
0001
0000
0001
0000
,
1000
1000
0001
0100
0100
0010
0110
0100
,
0010
0010
1000
0001
0001
0010
0011
0001
,
0100
0100
0010
1000
1000
0001
1001
1000
,
1001
0000
0001
0000
0011
0000
0010
0000
0110
0000
1001
0000
1000
0001
1000
0001
,
0010
0100
1100
1000
0001
0101
0100
0010
,
1010
1000
0001
0011
0010
0100
1100
1000
,
1001
0001
0100
0110
0010
1000
1001
0001
,
0010
0001
0010
0001
1000
0000
0010
0000
0100
0000
0101
0000
0001
1000
0001
1000
,
0001
0010
0011
0001
1000
1001
0001
0100
,
0001
0010
0110
0100
1000
1001
0001
0010
,
0100
1000
1001
0001
0100
0101
0001
1000
,
0010
0000
0100
0000
0010
0000
1000
0000
0001
0000
1000
0000
0001
1000
0001
1000
,
0100
0010
0100
1000
0001
1000
0010
1000
,
0001
0000
0000
0000
0000
0000
0001
0000
0000
0000
0000
0000
1000
0000
0000
0000
0000
0000
0001
0000
1000
0000
0004
0000
4000
0000
0000
0000
0000
0000
0000
0000
0000
0000
0000
0000
0000
0000
0000
0000
0000
0000
0000
0000
0000
3000
0003
0000
,
1001
1000
0100
1000
0010
0100
0010
0100
,
0101
0000
0001
0000
1000
0000
0001
0000
0011
0000
0010
0000
0001
1000
0001
1000
,
0010
0100
0001
0100
0010
1000
0010
1000
,
0001
0000
0000
0001
0000
0000
1000
0000
0000
0001
1000
0004
4000
0000
0000
0000
0000
0000
0000
0000
0000
0000
0000
3003
,
1001
0001
0010
0001
0100
0010
0100
0010
,
2020
0000
3030
0000
0001
0000
1000
0000
2020
0000
3M30
0M00
0M00
0M00
0M00
0M00
,
0000
0000
0000
0000
,
0000
0000
0000
0000
,
1001
1000
0001
0010
0110
0010
0001
1000
,
1001
0001
0100
0010
0110
0010
1000
0001
,
1001
1000
0100
0010
0110
0010
0001
1000
,
0010
0000
0100
0000
0010
0000
0100
0000
0010
0000
0010
0000
0100
0010
0100
0010
,
1000
0001
0010
0100
1100
1000
0001
0100
,
0101
0001
1000
0100
1100
1000
0001
0010
,
0011
0001
1000
0010
1010
1000
0001
0100
,
0001
0001
1000
0001
0001
4000
0000
0000
,
3001
0100
0001
1000
0010
0100
0001
1000
0001
1000
0100
1000
0001
0000
1000
0000
,
0010
0000
0100
0000
0010
0000
0100
0000
0001
1000
0001
1000
0001
1000
0001
1000
,
0001
0010
0100
1000
0001
0010
0001
1000
0001
0100
0010
1000
0001
0000
1000
0000
,
0010
0000
0100
0000
0110
0000
0010
0100
0001
0000
1000
0000
0010
0100
0001
0000
,
1002
0000
1003
0100
1200
0000
1300
0001
,
0401
0000
0310
1000
1000
0000
0001
0001
,
2001
0000
3001
0010
0120
0000
0130
1000
,
0001
0000
0001
0000
1000
0000
0001
0000
0001
0000
0100
0000
0001
0100
0001
0100
,
0002
0000
1003
0001
0012
0000
0013
0100
,
1000
0001
1000
0001
0100
0000
0010
0000
0010
0000
0100
0000
0001
0000
0001
0000
,
1002
0000
0103
0010
1020
0000
1030
0001
,
1000
0000
1000
0000
0001
0000
1000
0000
1000
0000
0100
0000
1000
0001
1000
0001
,
0100
0100
0010
0100
0010
0100
0100
0010
,
1001
0000
1001
1001
0000
1001
1001
1001
,
0001
0100
0010
1000
0001
0100
0010
1000
0001
1000
0100
0010
0002
0000
2003
0000
,
3100
0010
0001
1000
0001
1000
0010
0100
0001
1000
0001
1000
0200
0000
2300
0000
,
3001
0100
0010
0100
0001
1000
0010
0100
0001
1000
0001
1000
0020
0000
0230
0000
,
0301
1000
0001
1000
0100
0010
0001
1000
0001
0010
0001
1000
0010
0100
0010
0100
,
0001
1000
0001
1000
0100
0010
0001
1000
0001
0100
0010
1000
0002
0000
2003
0000
,
3100
0010
0001
1000
0001
0100
0010
1000
0001
0100
0001
1000
0200
0000
2300
0000
,
3001
0010
0100
1000
0001
0010
0001
1000
0010
0100
0001
1000
0002
0000
0203
0000
,
0310
1000
0010
1000
0001
0100
0010
1000
0001
1000
0001
0010
0200
0000
2300
0000
,
3001
0100
0001
1000
0001
0010
0100
1000
0001
1000
0010
0100
0002
0000
2003
0000
,
3001
0100
0010
1000
0001
0100
0010
0100
0001
1000
0100
0010
0002
0000
2003
0000
,
3100
0010
0001
0010
0100
1000
0001
0100
0001
1000
0010
0100
0002
0000
2003
0000
,
3001
0100
0001
0100
0010
1000
0001
1000
0100
0010
0001
1000
0010
0100
0010
0100
,
0001
0001
1000
0001
0100
0010
0100
0001
,
1000
0000
1000
0000
0001
0000
1000
0000
1000
0000
0100
0000
1000
0001
1000
0001
,
0100
0100
0010
1000
0010
0100
0001
1000
,
0001
1000
0001
1000
0100
0000
0010
0000
0010
0000
0001
0000
1000
0000
1000
0000
,
0001
0100
0010
1000
0010
0100
0001
1000
,
0001
0000
0001
0000
1000
0000
0001
0000
0001
0000
0010
0000
0100
1000
0100
1000
,
0001
0001
0100
0010
0100
0001
1000
0100
,
1000
0000
0001
0000
1000
0000
0001
0000
0100
0000
0100
0000
0001
1000
0001
1000
,
0001
0010
0100
0010
0001
1000
0010
0100
,
0201
0301
1000
0100
1200
1300
0001
0100
,
0110
0010
1000
0001
0100
0010
0100
0001
,
1000
0001
1000
0001
1000
0000
0100
0000
1000
0000
1000
0000
0001
0000
0100
0000
,
0010
1000
0010
0100
0001
1000
0001
0010
,
0021
0031
1000
0010
0120
0130
0001
1000
,
1001
0001
0010
0001
0100
0010
0100
0001
,
1001
0000
0000
0000
1000
0000
0001
1000
0001
1000
0001
1000
0001
1000
0001
4000
,
0004
0000
0000
0000
0000
0000
0000
0000
0000
0000
0000
3003
0000
0000
0000
0000
,
0000
0000
0000
0000
0000
0000
1111
0000
0000
0000
0000
0000
0000
0000
0000
0000
0000
0000
0000
0000
0000
0000
0000
0000
0000
0000
0000
0000
0000
0000
0000
0000
0000
0000
0000
0000
0000
0000
0000
0000
0000
0000
0000
0000
0000
0000
0000
0000
0000
0000
0000
0000
0000
0000
0000
0000
0000
0000
0000
0000
0000
0000
0000
0000
0000
0000
0000
0000
0000
0000
0000
0000
0000
0000
0000
0000
0000
0000
0000
0000
0000
0000
0000
0000
0000
0000
0000
0000
0000
0000
0000
0000
0000
0000
0000
0000
0000
0000
0000
0000
0000
0000
0000
0000
0000
0000
0000
0000
0000
0000
0000
0000
0000
0000
0000
0000
0000
0000
0000
0000
0000
0000
0000
0000
0000
0000
0000
0000
0000
0000
0000
0000
0000
0000
0000
0000
0000
0000
0000
0000
0000
0000
0000
0000
0000
0000
1111
0000
0000
0000
0000
0000
0000
0000
0000
0000
0000
0000
0000
0000
0000
0000
0000
0000
0000
0000
0000
0000
0000
0000
0000
0000
0000
0000
0000
0000
0000
0000
0000
0000
0000
0000
0000
0000
0000
0000
0000
0000
0000
0000
0000
0000
,
0000
0000
0000
0000
0000
0000
0000
0000
0000
0000
0000
0000
0000
0000
0000
0000
0000
0000
0000
0000
0000
0000
0000
0000
0000
0000
0000
0000
0000
0000
0000
0000
0000
0000
0000
0000
0000
0000
0000
0000
0000
0000
0000
0000
0000
0000
0000
0000
0000
0000
0000
0000
0000
0000
0000
0000
0000
0000
0000
0000
0000
0000
0000
0000
0000
0000
0000
0000
0000
0000
0000
0000
0000
0000
0000
0000
0000
0000
0000
0000
0000
0000
0000
0000
0000
0000
0000
0000
0000
0000
0000
0000
0000
0000
0000
0000
0000
0000
1111
0000
0000
0000
0000
0000
0000
0000
0000
0000
0000
0000
0000
0000
0000
0000
0000
0000
0000
0000
0000
0000
0000
0000
0000
0000
0000
0000
0000
0000
0000
0000
0000
0000
0000
0000
0000
0000
0000
0000
0000
0000
0000
0000
0000
0000
0000
0000
0000
0000
0000
0000
0000
0000
0000
0000
0000
0000
0000
0000
0000
0000
0000
0000
0000
0000
0000
0000
0000
0000
0000
0000
0000
0000
0000
0000
0000
0000
0000
0000
0000
0000
0000
0000
0000
0000
0000
0000
0000
0000
0000
0000
0000
0000
,
0000
0000
0000
0000
0000
0000
0000
0000
0000
0000
0000
0000
0000
0000
0000
0000
0000
1111
0000
0000
0000
0000
0000
0000
0000
0000
0000
0000
0000
0000
0000
0000
0000
0000
0000
0000
0000
0000
0000
0000
0000
0000
0000
0000
0000
0000
0000
0000
0000
0000
0000
0000
0000
0000
0000
0000
0000
0000
0000
0000
0000
0000
0000
0000
;
