#TITLE:Explosive;
#SUBTITLE:;
#ARTIST:Bond;
#TITLETRANSLIT:;
#SUBTITLETRANSLIT:;
#ARTISTTRANSLIT:;
#CREDIT:;
#BANNER:explosive-bn.png;
#BACKGROUND:explosive.png;
#LYRICSPATH:;
#CDTITLE:KOMBO.png;
#MUSIC:Explosive 300! by Kombo.mp3;
#OFFSET:1.535;
#SAMPLESTART:54.730;
#SAMPLELENGTH:14.000;
#SELECTABLE:YES;
#BPMS:0.000=115.000;
#STOPS:;
#BGCHANGES:;
// cache tags:
#FIRSTBEAT:3.000;
#LASTBEAT:200.250;
#SONGFILENAME:Songs/Definitive Keyboard Megapack/Explosive  [KOMBO]/explosive.sm;
#HASMUSIC:1;
#HASBANNER:1;
#MUSICLENGTH:83.282;
// end cache tags

//---------------dance-solo - ----------------
#NOTES:
     dance-solo:
     :
     Challenge:
     15:
     1.000,1.000,1.000,0.552,1.000,614.000,347.000,46.000,0.000,102.000:
000000
000000
000000
000000
000000
000000
000000
000000
000000
000000
000000
000000
100000
010000
001000
010000
,
200000
000000
000000
302000
000000
000000
203000
000000
,
320000
000000
000000
032000
000000
000000
023000
000000
,
230000
000000
000000
000000
,
300000
000000
000000
000000
000000
000000
000000
000000
000000
000000
000000
000000
100001
010010
001100
010010
,
200002
000000
000000
302203
000000
000000
203302
000000
,
320023
000000
000000
032230
000000
000000
023320
000000
,
230032
000000
000000
300003
,
000011
000011
000000
001100
001100
000000
110000
110000
000000
001100
001100
000000
110011
000000
010000
000010
,
101101
000100
000100
000100
001000
000000
100100
000100
100100
010100
100000
000001
001000
000000
000000
000000
,
100010
000010
000010
000010
001000
000000
100010
000010
010010
100010
010000
000100
001000
000000
000000
000000
,
100101
000100
000100
000100
001000
000000
100100
000100
010100
100100
010000
000010
001000
000000
000000
000000
,
100010
000000
000000
000000
000000
000000
000000
000000
000000
000000
000000
000000
000010
000000
000000
000000
000000
000000
000000
000000
000000
000000
000000
000000
000010
000000
000000
000000
000000
000000
000000
000000
000000
000000
000000
000000
000010
000000
000000
000000
000000
000000
000000
000000
000000
000000
000000
000000
001000
000000
000000
000000
000000
000000
000000
000000
000000
000000
000000
000000
000000
000000
000000
000000
000000
000000
000000
000000
000000
000000
000000
000000
100010
000000
000000
000000
000000
000000
000000
000000
010000
000000
000000
000000
000010
000000
000000
000000
001000
000000
000000
000000
000000
000000
000000
000000
000111
000000
000000
000000
000000
000000
000000
000000
000000
000000
000000
000000
001010
000000
000000
000000
000000
000000
000000
000000
000000
000000
000000
000000
010000
000000
000000
000000
000000
000000
000000
000000
000000
000000
000000
000000
001000
000000
000000
000000
000000
000000
000000
000000
000000
000000
000000
000000
100111
000000
000000
000000
000000
000000
000000
000000
000000
000000
000000
000000
010000
000000
000000
000000
000000
000000
000000
000000
000000
000000
000000
000000
001000
000000
000000
000000
000000
000000
000000
000000
000000
000000
000000
000000
000010
000000
000000
000000
000000
000000
001000
000000
000000
000000
000000
000000
,
110102
000100
000100
000100
001003
000000
000120
000100
100100
000100
100030
000000
021000
000000
000000
030000
,
100012
000010
000010
000010
001003
000000
000210
000010
100010
000010
100000
000000
021301
000000
000000
030000
,
100112
000000
000000
000100
000000
000000
000100
000000
000000
000100
000000
000000
001003
000000
000000
000000
000000
000000
100100
000000
010000
000100
001000
000000
100111
000000
000000
000100
000000
000000
100000
000000
000000
000000
000000
000000
001000
000000
000000
000000
000000
000000
000000
000000
000000
000000
000000
000000
,
100010
000000
000000
000010
000000
000000
000010
000000
000000
000010
000000
000000
001000
000000
000000
000000
000000
000000
010010
000000
001000
000010
000100
000000
110011
000000
000000
000010
000000
000000
100000
000000
000000
000000
000000
000000
101100
000000
000000
010000
000000
000000
000100
000000
000000
000010
000000
000000
,
101102
000100
000100
000100
001003
000000
000120
000100
100100
000100
100030
000000
021000
000000
000000
030000
,
100012
000010
000010
000010
001003
000000
000210
000010
100010
000010
100300
000000
000111
000000
000000
000000
,
100110
001000
000100
000010
000101
000000
001000
010000
100000
001000
100100
000010
010101
101000
001000
010000
,
100010
000000
000100
000000
000100
000000
001000
000000
001001
000000
010000
000000
010000
000000
100000
000000
110000
000000
001000
000000
100100
000000
000010
000000
000101
000010
100100
000000
001000
000000
010000
000000
,
100010
000000
000100
000000
000100
000000
001000
000000
001001
000000
010000
000000
010000
000000
100000
000000
100000
000000
010000
000000
100100
000000
000010
000000
000101
000010
100100
000000
001000
000000
010000
000000
,
100000
000000
001000
000000
000100
000000
000010
000000
000101
000000
000000
000000
001000
000000
010000
000000
110000
000000
001000
000000
100100
000000
000010
000000
100101
000010
010100
000000
101000
000000
010000
000000
,
101000
000000
010100
000000
001010
000000
000101
000000
001010
000000
000000
000000
010100
000000
101000
000000
101000
000000
010100
000000
001010
000000
000101
000000
001010
000101
001010
000000
010100
000000
101000
000000
,
101000
000000
010100
000000
001010
000000
000101
000000
001010
000000
000000
000000
010100
000000
101000
000000
101000
000000
010100
000000
001010
000000
000101
000000
001010
000101
001010
000000
010100
000000
101000
000000
,
101000
000000
010100
000000
001010
000000
000101
000000
001010
000000
000000
000000
010100
000000
101000
000000
101000
000000
010100
000000
001010
000000
000101
000000
001010
000101
001010
000000
010100
000000
101000
000000
,
010000
000101
000000
010101
001000
000000
010101
001000
110000
001101
100000
000101
011011
000000
000100
000000
,
110001
000100
000010
100001
010010
000000
000100
101000
110000
000100
100010
000001
010010
100100
000100
001000
,
100001
000000
000010
000000
000010
000000
100100
000000
010100
000000
001000
000000
001000
000000
110000
000000
110000
000000
000100
000000
100010
000000
000001
000000
010010
000001
100010
000000
000100
000000
001000
000000
,
100001
000000
000010
000000
000010
000000
100100
000000
010100
000000
001000
000000
001000
000000
110000
000000
110000
000000
001000
000000
100010
000000
000001
000000
010010
000001
100010
000000
000100
000000
001000
000000
,
110000
000000
000100
000000
000010
000000
100001
000000
010010
000000
000000
000000
000100
000000
101000
000000
101000
000000
000100
000000
100010
000000
000001
000000
010010
000001
100010
000000
010100
000000
001010
000000
,
110001
000100
000010
100001
010010
000000
000100
101000
110000
000100
100010
000001
010010
100100
000100
001000
,
100001
000000
000010
000000
000010
000000
100100
000000
010100
000000
001000
000000
001000
000000
110000
000000
110000
000000
000100
000000
100010
000000
000001
000000
010010
000001
100010
000000
000100
000000
001000
000000
,
100001
000000
000010
000000
000010
000000
100100
000000
010100
000000
001000
000000
001000
000000
110000
000000
110000
000000
001000
000000
100010
000000
000001
000000
010010
000001
100010
000000
000100
000000
001000
000000
,
110000
000100
000010
100001
010010
000000
000100
101000
100100
000000
100100
000010
011001
100010
001001
100010
,
010100
001010
000101
101000
000101
000000
001010
010100
010100
001010
000101
101000
000101
001010
001010
010100
,
010100
001010
000101
101000
000101
000000
001010
010100
010100
001010
000101
101000
000101
001010
001010
010100
,
010100
001010
000101
101000
000101
000000
001010
010100
010100
001010
000101
101000
000101
001010
001010
010100
,
100000
001101
100000
001101
010000
001000
010101
001000
100000
010101
001000
000101
111010
000000
000000
000000
,
100111
010100
001100
010100
100001
000000
100110
010100
001110
010100
100010
000000
001001
000000
000100
000000
,
110010
001010
000110
001010
010001
000000
110010
001010
100110
001010
110000
000000
100101
001010
100100
010010
,
101102
010000
001000
010000
101003
000000
100020
010000
101000
010000
100130
000000
021000
000000
030100
000000
,
110002
001000
000100
001000
010103
000000
010020
001000
100100
001000
110000
000030
021001
000000
000010
030000
,
101102
000000
000000
010000
000000
000000
001000
000000
000000
010000
000000
000000
101003
000000
000000
000000
000000
000000
100101
000000
000010
010000
000100
000000
101011
000000
000000
010000
000000
000000
101000
000000
000000
000000
000000
000000
001000
000000
000000
000000
000000
000000
000100
000000
000000
000000
000000
000000
,
110010
000000
000000
001000
000000
000000
000100
000000
000000
001000
000000
000000
010100
000000
000000
000000
000000
000000
010001
000000
000010
001000
000100
000000
110011
000000
000000
001000
000000
000000
110000
000000
000000
000000
000000
000000
100100
000000
000000
010000
000000
000000
000100
000000
000000
000010
000000
000000
,
101002
000000
010000
000000
001000
000000
010000
000000
101003
000000
000000
000000
100020
000000
010000
000000
101000
000000
010000
000000
100130
000000
000000
000000
021000
000000
000000
000000
030100
000000
000010
000100
,
110002
001000
000100
001000
010103
000000
010020
001000
100100
001000
110000
000030
021101
000000
000010
030000
,
100111
010101
001000
010101
100101
000000
100111
010011
001000
010011
100011
000000
011010
000000
100101
000000
,
010111
001011
000100
001011
010011
000000
001111
100101
001000
010101
100101
000000
101100
000000
010011
000000
,
100111
001110
010000
001110
100110
000000
001011
010011
100000
010011
001011
000000
000111
000000
111000
000000
,
101101
000000
000000
000000
;

//---------------dance-solo - ----------------
#NOTES:
     dance-solo:
     :
     Hard:
     12:
     1.000,1.000,1.000,0.264,1.000,591.000,176.000,22.000,0.000,35.000:
000000
000000
000000
000000
000000
000000
000000
000000
000000
000000
000000
000000
100000
001000
000100
001000
,
200000
000000
000000
300200
000000
000300
002000
000000
,
003020
000000
000000
002030
000000
000000
023000
000000
,
230000
000000
000000
000000
,
300000
000000
000000
000000
000000
000000
000000
000000
000000
000000
000000
000000
110000
001100
000011
001100
,
200002
000000
000000
320023
000000
000000
032230
000000
,
023320
000000
000000
032230
000000
000000
023320
000000
,
230032
000000
000000
300003
,
110000
000011
000000
110000
000011
000000
010010
001100
000000
010010
001100
000000
011110
000000
010000
000100
,
010011
000100
000010
000100
001000
000000
100010
000100
100010
000100
100000
000000
001100
000000
000000
000000
,
100001
000100
000001
000100
001000
000000
100001
000100
100001
000100
100000
000000
001100
000000
000000
000000
,
100011
000100
000010
000100
001000
000000
100010
000100
100010
000100
100000
000000
001100
000000
000000
000000
,
100001
000000
000000
000100
000000
000000
000001
000000
000000
000100
000000
000000
001000
000000
000000
000000
000000
000000
100001
000000
010000
000000
001000
000000
000111
000000
000000
000000
000000
000000
010000
000000
000000
000000
000000
000000
110011
000000
000000
001000
000000
000000
000100
000000
000000
000001
000000
000000
,
110010
000100
000010
000100
001000
000000
000010
000100
100010
000100
100000
000000
011000
000000
000000
000000
,
100001
000100
000001
000100
001000
000000
100001
000100
100001
000100
100000
000000
011001
000000
000000
000000
,
110010
000000
000000
000100
000000
000000
000010
000000
000000
000100
000000
000000
001000
000000
000000
000000
000000
000000
100010
000000
010000
000000
001000
000000
000111
000000
000000
000000
000000
000000
100000
000000
000000
000000
000000
000000
001000
000000
000000
000000
000000
000000
000000
000000
000000
000000
000000
000000
,
100001
000000
000000
000100
000000
000000
000001
000000
000000
000100
000000
000000
001000
000000
000000
000000
000000
000000
010001
000000
001000
000000
000100
000000
010011
000000
000000
000000
000000
000000
100000
000000
000000
000000
000000
000000
011100
000000
000000
100000
000000
000000
000100
000000
000000
000001
000000
000000
,
011010
000100
000010
000100
001000
000000
100010
000100
100010
000100
100000
000000
011000
000000
000000
000000
,
100001
000100
000001
000100
001000
000000
100001
000100
100001
000100
100000
000000
000111
000000
000000
000000
,
100000
000000
001000
000000
000100
000000
000010
000000
000100
000000
000000
000000
001000
000000
010000
000000
010000
000000
001000
000000
000100
000000
000010
000000
000100
000010
000100
000000
001000
000000
010000
000000
,
000010
000000
000100
000000
000100
000000
001000
000000
001000
000000
010000
000000
010000
000000
100000
000000
100000
000000
001000
000000
000100
000000
000010
000000
000100
000010
000100
000000
001000
000000
010000
000000
,
000010
000000
000100
000000
000100
000000
001000
000000
001000
000000
010000
000000
010000
000000
100000
000000
100000
000000
001000
000000
000100
000000
000010
000000
000100
000010
000100
000000
001000
000000
010000
000000
,
010000
000000
001000
000000
000100
000000
000010
000000
000100
000000
000000
000000
001000
000000
010000
000000
010000
000000
001000
000000
000100
000000
000010
000000
000100
000010
000100
000000
001000
000000
100000
000000
,
001010
000000
000100
000000
001010
000000
000001
000000
001010
000000
000000
000000
010100
000000
001000
000000
101000
000000
000100
000000
100010
000000
000001
000000
100010
000001
000010
000000
100100
000000
001000
000000
,
001010
000000
000100
000000
001010
000000
000001
000000
001010
000000
000000
000000
010100
000000
001000
000000
101000
000000
000100
000000
100010
000000
000001
000000
100010
000001
000010
000000
100100
000000
001000
000000
,
001010
000000
000100
000000
001010
000000
000001
000000
001010
000000
000000
000000
010100
000000
001000
000000
101000
000000
000100
000000
100010
000000
000001
000000
100010
000001
000010
000000
100100
000000
001000
000000
,
100000
000001
000000
000001
001000
000000
100001
001000
100000
001001
100000
000001
011110
000000
001000
000000
,
111000
000000
000100
000000
000010
000000
000001
000000
000010
000000
000000
000000
000100
000000
001000
000000
001000
000000
000100
000000
000010
000000
000001
000000
000010
000001
000010
000000
000100
000000
001000
000000
,
000001
000000
000010
000000
000010
000000
000100
000000
000100
000000
001000
000000
001000
000000
010000
000000
010000
000000
000100
000000
000010
000000
000001
000000
000010
000001
000010
000000
000100
000000
001000
000000
,
000001
000000
000010
000000
000010
000000
000100
000000
000100
000000
001000
000000
001000
000000
010000
000000
010000
000000
000100
000000
000010
000000
000001
000000
000010
000001
000010
000000
000100
000000
001000
000000
,
001000
000000
000100
000000
000010
000000
000001
000000
000010
000000
000000
000000
000100
000000
001000
000000
001000
000000
000100
000000
000010
000000
000001
000000
000010
000001
000010
000000
000100
000000
010000
000000
,
010000
000000
000100
000000
000010
000000
000001
000000
000010
000000
000000
000000
000100
000000
001000
000000
001000
000000
000100
000000
000010
000000
000001
000000
000010
000001
000010
000000
000100
000000
001000
000000
,
000001
000000
000010
000000
000010
000000
000100
000000
000100
000000
001000
000000
001000
000000
010000
000000
010000
000000
000100
000000
000010
000000
000001
000000
000010
000001
000010
000000
000100
000000
001000
000000
,
000001
000000
000010
000000
000010
000000
000100
000000
000100
000000
001000
000000
001000
000000
010000
000000
010000
000000
000100
000000
000010
000000
000001
000000
000010
000001
000010
000000
000100
000000
001000
000000
,
001000
000100
000010
000001
000010
000000
000100
001000
000100
000000
000100
000010
000002
000000
000000
000000
,
101003
000100
001010
000001
100010
000000
010100
001000
101000
000100
001010
000001
100010
000100
010100
001000
,
101000
000100
000010
000001
100010
000000
010100
001000
101000
000100
000010
000001
100010
000100
010100
001000
,
101000
000100
000010
000001
100010
000000
010100
001000
101000
000100
000010
000001
100010
000100
010100
001000
,
010000
000001
010000
000001
001000
010000
100001
001000
010000
000001
010000
000001
001110
000000
000000
000000
,
100010
010100
001010
010100
100000
000000
100010
010100
001010
010100
100000
000000
001000
000000
000100
000000
,
010001
001100
100001
001100
010000
000000
010001
001100
100001
001100
010000
000000
100000
010000
001000
000001
,
100110
001000
000010
001000
100000
000000
100000
001000
100010
001000
100000
000000
011000
000000
000100
000000
,
110000
000100
000001
000100
001000
000000
110000
000100
100001
000100
100000
000000
011001
000000
000100
000000
,
100011
000000
000000
001000
000000
000000
000010
000000
000000
001000
000000
000000
100000
000000
000000
000000
000000
000000
100010
000000
010000
000000
001000
000000
000111
000000
000000
000000
000000
000000
100000
000000
000000
000000
000000
000000
001000
000000
000000
000000
000000
000000
000100
000000
000000
000000
000000
000000
,
110000
000000
000000
000100
000000
000000
000001
000000
000000
000100
000000
000000
001000
000000
000000
000000
000000
000000
010001
000000
001000
000000
000100
000000
010011
000000
000000
000000
000000
000000
100000
000000
000000
000000
000000
000000
001100
000000
000000
100000
000000
000000
000100
000000
000000
000001
000000
000000
,
000110
001000
000010
001000
100000
000000
100000
001000
100010
001000
100000
000000
011000
000000
000100
000000
,
110000
000100
000001
000100
001000
000000
110000
000100
100001
000100
100000
000000
011001
000000
000100
000000
,
101010
001010
000000
001010
001010
000000
010110
000110
000000
000110
000110
000000
000110
000000
000110
000000
,
011011
011000
000000
011000
011000
000000
001011
000011
000000
000011
000011
000000
000011
000000
000011
000000
,
010101
010100
000000
010100
010100
000000
010100
010100
000000
010100
010100
000000
000011
000000
001100
000000
,
111100
000000
000000
000000
;

//---------------dance-single - KOMBO - Spread jump ----------------
#NOTES:
     dance-single:
     KOMBO - Spread jump :
     Beginner:
     13:
     1.000,1.000,1.000,1.000,1.000,605.000,566.000,176.000,0.000,238.000:
0000
0000
0000
0000
0000
0000
0000
0000
0000
0000
0000
0000
0011
0010
0100
1000
,
0002
0000
0000
0203
0000
0000
0302
0000
,
0203
0000
0000
2300
0000
0000
3002
0000
,
2003
0000
0000
0000
,
3000
0000
0000
0000
0000
0000
0000
0000
0000
0000
0000
0000
1100
1000
0010
0001
,
2000
0000
0000
3020
0000
0000
0032
0000
,
0203
0000
0000
2300
0000
0000
3020
0000
,
2032
0000
0000
3003
,
1111
0110
0000
0110
1111
0000
1111
0110
0000
0110
1111
0000
1211
0000
0311
1100
,
0011
0110
0011
1010
0110
0000
0101
0011
0110
1010
0110
0000
1001
0000
0000
0000
,
0011
0110
0011
1010
0110
0000
0101
0011
0110
1010
0110
0000
1001
0000
0000
0000
,
0011
0110
0011
1010
0110
0000
0101
0011
0110
1010
0110
0000
1001
0000
0000
0000
,
0011
0110
0011
1010
0110
0000
0101
0011
0110
1010
0110
0101
1010
0111
1110
0111
,
1112
1100
1100
1100
1103
0000
2111
0011
0011
0011
3011
0000
1102
0000
0000
0000
,
1213
0000
0011
0000
0011
0000
0011
0000
0311
0000
0000
0000
1121
0000
1100
0000
1100
0000
1100
0000
1100
0000
0000
0000
2232
3300
0000
0000
0000
0000
0000
0000
,
2113
0000
0000
0110
0000
0000
0110
0000
0000
0110
0000
0000
3110
0000
0000
0000
0000
0000
0011
0000
0000
0110
0000
0000
2222
0000
3333
0011
0000
0000
1100
0000
0000
0000
0000
0000
1001
0000
0000
0000
0000
0000
0000
0000
0000
0000
0000
0000
,
0110
0000
0000
0110
0000
0000
0110
0000
0000
0110
0000
0000
1111
0000
0000
0000
0000
0000
1100
0000
0000
1010
0000
0000
2222
0000
3333
0110
0000
0000
1001
0000
0000
0000
0000
0000
1010
0000
0000
0111
0000
0000
1110
0000
0000
0111
0000
0000
,
1112
1100
1100
1100
1103
0000
2111
0011
0011
0011
3011
0000
1102
0000
0000
0000
,
1213
0000
0011
0000
0011
0000
0011
0000
0311
0000
0000
0000
1121
0000
1100
0000
1100
0000
1100
0000
1100
0000
0000
0000
2232
3300
0000
0000
0000
0000
0000
0000
,
1113
0000
0110
0000
1100
0000
0101
0000
0021
0000
0000
0000
1131
0000
0011
0000
0110
0000
0011
0000
0110
0000
1100
0000
1110
0001
1100
0000
0101
0000
0011
0000
,
0110
0000
1100
0000
0110
0000
0011
0000
0110
0000
0011
0000
0110
0000
0011
0000
1010
0000
0110
0000
1001
0000
0011
0000
1110
0001
1010
0000
1100
0000
0110
0000
,
1001
0000
0011
0000
0110
0000
1100
0000
1011
0000
1100
0000
1010
0000
0110
0000
0011
0000
0110
0000
0011
0000
1001
0000
1110
0001
0110
0000
1100
0000
0110
0000
,
0011
0000
0101
0000
0011
0000
1001
0000
1022
0000
0000
0000
1133
0000
0101
0000
0110
0000
1100
0000
0011
0000
0110
0000
0011
0110
1100
0000
0011
0000
1010
0000
,
1001
0000
0000
1100
0000
0000
0101
0000
0000
1010
0000
0000
0022
0000
0000
0000
0000
0000
1133
0000
0000
0101
0000
0000
1001
0000
0000
1010
0000
0000
0110
0000
0000
1100
0000
0000
1001
0100
0010
1001
0000
0000
1100
0000
0000
0101
0000
0000
,
1010
0000
0000
1100
0000
0000
0011
0000
0000
0101
0000
0000
0022
0000
0000
0000
0000
0000
1133
0000
0000
0101
0000
0000
0011
0000
0000
1100
0000
0000
0011
0000
0000
0110
0000
0000
1001
0100
0010
1001
0000
0000
0011
0000
0000
1001
0000
0000
,
0110
0000
0000
1100
0000
0000
0011
0000
0000
0110
0000
0000
0022
0000
0000
0000
0000
0000
1133
0000
0000
0101
0000
0000
0011
0000
0000
1010
0000
0000
0011
0000
0000
0101
0000
0000
1001
0100
0010
1001
0000
0000
1100
0000
0000
0110
0000
0000
,
2222
0000
0000
0000
0000
0000
3333
0000
0000
0000
0000
0000
0222
0000
0000
0000
0000
0000
0333
0000
0000
0000
0000
0000
1000
0000
0000
0000
0000
0000
0000
0000
0000
0000
0000
0000
0111
0000
0000
0000
0000
0000
0000
0000
0000
0000
0000
0000
1111
0000
0000
0000
0000
0000
0000
0000
0000
0000
0000
0000
0010
0000
0000
0000
0000
0000
0000
0000
0000
0000
0000
0000
2220
0000
0000
0000
0000
0000
3330
0000
0000
0000
0000
0000
1011
0000
0000
0000
0000
0000
0000
0000
0000
0000
0000
0000
2202
0000
0000
0000
0000
0000
3303
0000
0000
0000
0000
0000
1111
0000
0000
0000
0000
0000
0000
0000
0000
0000
0000
0000
0222
0000
0000
0000
0000
0000
0333
0000
0000
0000
0000
0000
1110
0000
0000
0000
0000
0000
0000
0000
0000
0000
0000
0000
2222
0000
0000
0000
3333
0000
0000
0000
0000
0000
0000
0000
0000
0000
0000
0000
0000
0000
0000
0000
0000
0000
0000
0000
1111
0000
0000
0000
0000
0000
0000
0000
0000
0000
0000
0000
0000
0000
0000
0000
0000
0000
0000
0000
0000
0000
0000
0000
,
1100
0000
0101
0000
1010
0000
0101
0000
1101
0000
0000
0000
1100
0000
0011
0000
0110
0000
0011
0000
0110
0000
1100
0000
1110
0001
1100
0000
0101
0000
0011
0000
,
1001
0000
0011
0000
0110
0000
1010
0000
1101
0000
0011
0000
0110
0000
0011
0000
1100
0000
1001
0000
0110
0000
1010
0000
1101
0010
1100
0000
0101
0000
0011
0000
,
1001
0000
0011
0000
1100
0000
0110
0000
1101
0000
0011
0000
1010
0000
0110
0000
0011
0000
0110
0000
0011
0000
1001
0000
1110
0001
0110
0000
1100
0000
0110
0000
,
0011
0000
0101
0000
0011
0000
1001
0000
1022
0000
0000
0000
1133
0000
0101
0000
0110
0000
1100
0000
0011
0000
0110
0000
0011
0110
1100
0000
0011
0000
1010
0000
,
1001
0000
1100
0000
0101
0000
0110
0000
1022
0000
0000
0000
1133
0000
0101
0000
1001
0000
1010
0000
0110
0000
1100
0000
1011
0100
1001
0000
1100
0000
0101
0000
,
1010
0000
1100
0000
0011
0000
0101
0000
1110
0000
0011
0000
1100
0000
0101
0000
0011
0000
1010
0000
0011
0000
0110
0000
1110
0001
1010
0000
0011
0000
1001
0000
,
0110
0000
1100
0000
0011
0000
0110
0000
1110
0000
0011
0000
1100
0000
0101
0000
0011
0000
1010
0000
0011
0000
1010
0000
1110
0001
1100
0000
0110
0000
0011
0000
,
1001
0011
0110
1100
1022
0000
1133
0011
0101
0011
1001
1100
1111
1111
1111
1111
,
0110
0000
0011
0000
0110
0000
1001
0000
2220
0000
0000
0030
3311
0000
1011
0000
0011
0000
0101
0000
0110
0000
1100
0000
0110
1000
0101
0000
0011
0000
0110
0000
,
1101
0000
0011
0000
0110
0000
1001
0000
2220
0000
0000
0030
3311
0000
1011
0000
0011
0000
0101
0000
0110
0000
1100
0000
0110
1000
0101
0000
0011
0000
0110
0000
,
1101
0000
0011
0000
0110
0000
1001
0000
2220
0000
0000
0030
3311
0000
1011
0000
0011
0000
0101
0000
0110
0000
1100
0000
0110
1000
0101
0000
0011
0000
0110
0000
,
2202
3303
0000
0000
0022
0033
0000
0000
0220
0330
0000
0000
2200
3300
0000
0000
2002
3003
0000
0000
0022
0033
0000
0000
0220
0330
0000
0000
2020
3030
0000
0000
0022
0033
0000
0000
0222
0333
0000
0000
2200
3300
0000
0000
0220
0330
0000
0000
2222
3333
0000
0000
0000
0000
0000
0000
0000
0000
0000
0000
0000
0000
0000
0000
,
2111
0000
0000
0111
0000
0000
0111
0000
0000
0111
0000
0000
3111
0000
0000
0000
0000
0000
1112
0000
0000
1110
0000
0000
1110
0000
0000
1110
0000
0000
1113
0000
0000
0000
0000
0000
2202
0000
3303
0000
0000
0000
2022
0000
3033
0000
0000
0000
,
1121
1101
1101
1101
1131
0000
1211
1011
1011
1011
1311
0000
1010
0111
1110
0111
,
1112
1100
1100
1100
1103
0000
2111
0011
0011
0011
3011
0000
1102
0000
0000
0000
,
1213
0000
0011
0000
0011
0000
0011
0000
0311
0000
0000
0000
1121
0000
1100
0000
1100
0000
1100
0000
1100
0000
0000
0000
2232
3300
0000
0000
0000
0000
0000
0000
,
2113
0000
0000
0110
0000
0000
0110
0000
0000
0110
0000
0000
3110
0000
0000
0000
0000
0000
0011
0000
0000
0110
0000
0000
2222
0000
3333
0011
0000
0000
1100
0000
0000
0000
0000
0000
1001
0000
0000
0000
0000
0000
0000
0000
0000
0000
0000
0000
,
0110
0000
0000
0110
0000
0000
0110
0000
0000
0110
0000
0000
1111
0000
0000
0000
0000
0000
1100
0000
0000
1010
0000
0000
2222
0000
3333
0110
0000
0000
1001
0000
0000
0000
0000
0000
1010
0000
0000
0111
0000
0000
1110
0000
0000
0111
0000
0000
,
1112
1100
1100
1100
1103
0000
2111
0011
0011
0011
3011
0000
1102
0000
0000
0000
,
1213
0000
0011
0000
0011
0000
0011
0000
0311
0000
0000
0000
1121
0000
1100
0000
1100
0000
1100
0000
1100
0000
0000
0000
2232
3300
0000
0000
0000
0000
0000
0000
,
2223
3330
0000
0111
0000
0000
1110
0000
0000
0111
0000
0000
1110
0000
0000
0000
0000
0000
0222
0333
0000
1110
0000
0000
0111
0000
0000
1110
0000
0000
0111
0000
0000
0000
0000
0000
1111
0000
0000
0000
0000
0000
1111
0000
0000
0000
0000
0000
,
0222
0333
0000
1110
0000
0000
0111
0000
0000
1110
0000
0000
0111
0000
0000
0000
0000
0000
2220
3330
0000
0111
0000
0000
1110
0000
0000
0111
0000
0000
1110
0000
0000
0000
0000
0000
1111
0000
0000
0000
0000
0000
1111
0000
0000
0000
0000
0000
,
2022
0000
0000
0000
3033
0000
0000
0000
0000
0000
0000
0000
1101
0000
0000
0000
0000
0000
0000
0000
0000
0000
0000
0000
1011
0000
0000
0000
0000
0000
0000
0000
0000
0000
0000
0000
1101
0000
0000
0000
0000
0000
0000
0000
0000
0000
0000
0000
1011
0000
0000
0000
0000
0000
0000
0000
0000
0000
0000
0000
0000
0000
0000
0000
0000
0000
0000
0000
0000
0000
0000
0000
2202
0000
0000
0000
3303
0000
0000
0000
0000
0000
0000
0000
1011
0000
0000
0000
0000
0000
0000
0000
0000
0000
0000
0000
1101
0000
0000
0000
0000
0000
0000
0000
0000
0000
0000
0000
1011
0000
0000
0000
0000
0000
0000
0000
0000
0000
0000
0000
1101
0000
0000
0000
0000
0000
0000
0000
0000
0000
0000
0000
0000
0000
0000
0000
0000
0000
0000
0000
0000
0000
0000
0000
2002
0000
0000
0000
0000
0000
3003
0000
0000
0000
0000
0000
0000
0000
0000
0000
0000
0000
0000
0000
0000
0000
0000
0000
0220
0000
0000
0000
0000
0000
0330
0000
0000
0000
0000
0000
0000
0000
0000
0000
0000
0000
0000
0000
0000
0000
0000
0000
,
2222
3333
0000
0000
0000
0000
0000
0000
0000
0000
0000
0000
0000
0000
0000
0000
;

//---------------dance-single - KOMBO----------------
#NOTES:
     dance-single:
     KOMBO:
     Hard:
     10:
     0.986,1.000,0.300,0.600,1.000,500.000,25.000,50.000,0.000,1.000:
0000
0000
0000
0000
0000
0000
0000
0000
0000
0000
0000
0000
0001
0010
0100
1000
,
0002
0000
0000
0203
0000
0000
0302
0000
,
0203
0000
0000
2300
0000
0000
3002
0000
,
0203
0000
0000
0000
,
0300
0000
0000
0000
0000
0000
0000
0000
0000
0000
0000
0000
0110
1000
0001
1000
,
0200
0000
0000
0320
0000
0000
0032
0000
,
0203
0000
0000
2300
0000
0000
3020
0000
,
2032
0000
0000
3003
,
0001
0001
0000
1000
1000
0000
0010
0010
0000
0100
0100
0000
1001
0000
0010
0000
,
0001
1000
0001
1000
0011
0000
1000
0001
1000
0001
0000
0000
1001
0000
0000
0000
,
0001
0100
0001
0100
1001
0000
0100
0010
0100
0010
0000
0000
1001
0000
0000
0000
,
1000
0010
1000
0010
1001
0000
0100
0010
0100
0010
0000
0000
1001
0000
0000
0000
,
0001
0100
0010
1000
0011
0000
1000
0010
0100
0001
0000
0000
0001
0010
0100
1000
,
0200
0000
0300
0002
0000
0003
0020
0030
,
0200
0000
0300
0020
0000
0000
0030
0000
,
0010
0010
0010
0010
0010
0000
0100
0100
0110
0100
0000
0000
1001
0000
0000
0000
,
0010
0010
0010
0010
0010
0000
0100
0100
0110
0100
0000
0000
0100
0001
1000
0010
,
2000
0000
3000
0200
0000
0300
0002
0003
,
2000
0000
3000
0002
0000
0000
0003
0000
,
0001
0010
0100
1000
0020
0030
1000
0001
1000
0001
0010
0100
0010
0001
1000
0001
,
1000
0100
0010
0001
0010
0100
0010
0001
1000
0001
1000
0010
0100
0010
0100
0010
,
1000
0100
0010
0001
0010
0001
0100
0010
1000
0001
0100
0010
1000
0001
1000
0001
,
1000
0010
1000
0010
2000
3000
0001
0010
0100
1000
0100
0010
0001
1000
0001
1000
,
0001
0000
0010
0000
0100
0000
1000
0000
0011
0000
0000
0000
1000
0000
0001
0000
0100
0000
0010
0000
1000
0000
0001
0000
0100
0010
0001
0000
1000
0000
0100
0000
,
0001
0000
0010
0000
0100
0000
1000
0000
0011
0000
0000
0000
1000
0000
0001
0000
1000
0000
0010
0000
0100
0000
0001
0000
0010
0100
1000
0000
0001
0000
0100
0000
,
0001
0000
0010
0000
0100
0000
1000
0000
0011
0000
0000
0000
1000
0000
0001
0000
0100
0000
0010
0000
1000
0000
0001
0000
0100
0010
0001
0000
0100
0000
0010
0000
,
1000
0001
0000
1000
0001
0000
1000
0001
0000
1000
0001
1000
0022
0033
0000
0000
,
1000
0100
0010
0001
0200
0300
0001
1000
0001
1000
0100
0010
0100
1000
0001
1000
,
0001
0010
0100
1000
0100
0010
0100
1000
0001
1000
0001
0100
0010
0100
0010
0100
,
0001
0010
0100
1000
0100
1000
0010
0100
0001
1000
0010
0100
0001
1000
0001
1000
,
0001
0100
0001
0100
0002
0003
1000
0100
0010
0001
0010
0100
1000
0001
1000
0001
,
1000
0100
0010
0001
1100
0000
0001
1000
0010
0100
0001
1000
0010
1000
0001
0010
,
1000
0100
0010
0001
0010
0100
0001
1000
0001
0100
0010
1000
0100
0010
1000
0010
,
1000
0100
0010
0001
0010
0100
0001
1000
0010
0100
0001
1000
0010
1000
0010
0100
,
0001
0010
0100
1000
0011
0000
0001
0010
0100
0010
0001
1000
0010
0010
0010
0010
,
0001
0010
0100
1000
0002
0003
0010
0010
1000
0100
0010
0001
0010
0100
1000
0100
,
0001
0010
0100
1000
0002
0003
0010
0010
1000
0100
0010
0001
0010
0100
1000
0100
,
0001
0010
0100
1000
0002
0003
0010
0010
1000
0100
0010
0001
0010
0100
1000
0100
,
0010
0100
0000
0010
0100
0000
0010
0100
0000
0010
0100
0010
1001
0000
0000
0000
,
1000
0100
0010
0100
1000
0000
0001
0010
0100
0010
0001
0000
0000
0000
0000
0000
,
1000
0100
0010
0100
1000
0000
0001
0010
0100
0010
0001
0000
0001
0010
0100
1000
,
0200
0000
0300
0002
0000
0003
0020
0030
,
0200
0000
0300
0020
0000
0000
0030
0000
,
0010
0010
0010
0010
0010
0000
0100
0100
0110
0100
0000
0000
0000
0000
0000
0000
,
0010
0010
0010
0010
0010
0000
0100
0100
0110
0100
0000
0000
1000
0100
0010
0001
,
0020
0000
0030
2000
0000
3000
0200
0300
,
0020
0000
0030
0200
0000
0000
0300
0000
,
0010
0010
0100
0100
0002
0003
1000
1000
0010
0010
2000
3000
0010
0000
0100
0000
,
1000
1000
0001
0001
0200
0300
0010
0010
0100
0100
0002
0003
0100
0000
0010
0000
,
1000
1000
1000
1000
0002
0003
0010
0010
0010
0010
0200
0300
0011
0000
1100
0000
,
1001
0000
0000
0000
;

//---------------dance-single - KOMBO----------------
#NOTES:
     dance-single:
     KOMBO:
     Challenge:
     12:
     1.000,1.000,1.000,0.744,1.000,588.000,206.000,62.000,0.000,8.000:

0000
0000
0000
0000
0000
0000
0000
0000
0000
0000
0000
0000
0001
0010
0100
1000
,
0002
0000
0000
0203
0000
0000
0302
0000
,
0203
0000
0000
2300
0000
0000
3002
0000
,
0203
0000
0000
0000
,
0300
0000
0000
0000
0000
0000
0000
0000
0000
0000
0000
0000
0110
1000
0001
1000
,
0200
0000
0000
0320
0000
0000
0032
0000
,
0203
0000
0000
2300
0000
0000
3020
0000
,
2032
0000
0000
3003
,
0001
0011
0000
1000
1100
0000
0010
0110
0000
0100
0110
0000
2002
3003
1001
0000
,
1001
0001
0101
0001
0011
0000
1001
1000
1010
1000
1100
0000
1001
0000
0000
0000
,
0110
0010
0011
0010
1010
0000
0110
0100
1100
0100
0101
0000
0110
0000
0000
0000
,
0110
0100
1100
0100
0101
0000
0110
0010
0011
0010
1010
0000
0110
0000
0000
0000
,
0101
0100
1100
0100
0110
0000
0101
0001
0011
0001
1001
0000
0101
0010
0101
1010
,
0200
0001
0001
0001
0301
0000
0002
1000
1000
1000
1003
0000
0120
0000
0030
0000
,
0200
0010
0010
0010
0310
0000
0020
0100
0100
0100
0130
0000
2002
3003
0000
0000
,
0100
0010
0100
0010
0110
0000
0100
0010
1001
0010
0110
0000
1001
0000
0000
0000
,
0001
0100
0001
0100
0101
0000
1000
0010
1001
0010
1010
0000
0101
0010
1100
0011
,
2000
0010
0010
0010
3010
0000
0200
0001
0001
0001
0301
0000
0102
0000
0003
0000
,
2000
0010
0010
0010
3010
0000
0002
0100
0100
0100
0103
0000
2002
3003
0000
0000
,
0101
0010
0101
1000
0020
0000
1130
0001
1100
0001
0010
0100
0010
0001
1000
0001
,
1010
0100
1010
0001
0010
0100
1010
0001
1010
0001
1000
0010
0100
0010
0100
0010
,
1001
0000
0100
0000
1001
0000
0100
0000
0010
0000
0001
0000
1100
0000
0010
0000
1100
0000
0001
0000
0100
0000
0010
0000
1000
0010
0001
0000
1000
0000
0001
0000
,
1010
0000
0100
0000
1010
0000
0001
0000
2000
0000
0000
0000
3101
0000
0010
0000
0101
0000
1000
0000
0100
0000
0010
0000
1001
0100
0001
0000
0101
0000
0001
0000
,
0111
0000
1000
0000
0100
0000
1000
0000
0011
0000
0100
0000
1000
0000
0001
0000
1100
0000
0010
0000
1000
0000
0001
0000
0100
0010
0001
0000
1000
0000
0100
0000
,
1001
0000
0010
0000
0100
0000
1000
0000
0011
0000
0100
0000
1000
0000
0001
0000
1100
0000
0010
0000
0100
0000
0001
0000
0010
0100
1000
0000
0001
0000
0100
0000
,
1001
0000
0010
0000
0100
0000
1000
0000
0011
0000
0100
0000
1000
0000
0001
0000
1100
0000
0010
0000
1000
0000
0001
0000
0100
0010
0001
0000
0100
0000
0010
0000
,
1100
0010
0000
0010
1100
0000
0001
0110
0000
1010
0101
1010
2002
3003
0000
0000
,
1010
0100
1010
0001
0200
0310
0001
1000
0011
1000
0100
0010
0101
1000
0001
1000
,
0101
0010
0100
1000
0110
0001
0100
1000
0011
1000
0001
0100
1010
0100
0010
0100
,
1001
0010
0100
1000
0110
1000
0010
0100
0011
1000
0010
1000
0110
1000
0001
1000
,
0011
0100
0001
0100
2002
3003
1000
0100
1010
0001
0010
0100
1010
0001
1000
0001
,
1010
0100
0010
0001
1100
0000
0001
1000
0011
0100
0001
1000
0110
1000
0001
0010
,
1001
0100
0010
0001
1010
0100
0001
1000
0011
0100
0010
1000
0101
0010
1000
0010
,
1001
0100
0010
0001
1010
0100
0001
1000
0011
0100
0001
1000
0110
1000
0010
0100
,
1001
0010
0100
1000
0011
0000
0001
0010
1100
0010
0001
1000
0010
0010
0010
0010
,
0101
0010
0101
0010
1101
0010
1100
0001
0110
1000
0101
0010
1100
0010
0101
0010
,
0101
1000
0011
0100
1011
0100
0011
0100
1010
0100
1010
0001
0110
0001
1100
0010
,
1100
0010
0101
0010
1101
0010
1100
0010
0101
0010
0101
1000
0110
0001
0110
1000
,
0011
0100
0011
1000
0101
0010
1100
0010
0101
1000
0011
0100
2022
3033
0000
0000
,
1010
0100
1010
0001
0001
0000
0101
0010
0101
1000
1000
0000
0000
0000
0000
0000
,
1010
0100
0011
0100
0100
0000
0101
0010
1100
0010
0010
0000
0001
0010
0100
1000
,
0200
0010
0010
0010
0310
0000
0002
1000
1000
1000
1003
0000
0021
0000
0030
0000
,
0200
0001
0001
0001
0301
0000
0020
1000
1000
1000
1030
0000
2002
3003
0000
0000
,
1001
0001
0101
0001
0011
0000
1001
1000
1010
1000
1100
0000
0000
0000
0000
0000
,
0101
0100
1100
0100
0110
0000
0110
0010
0011
0010
1010
0000
1000
0100
0010
0001
,
0020
0100
0100
0100
0130
0000
2000
0001
0001
0001
3001
0000
0210
0000
0300
0000
,
0020
0100
0100
0100
0130
0000
0200
0001
0001
0001
0301
0000
2002
3003
0000
0000
,
0011
0110
1100
0110
0012
0003
1100
0110
0011
0110
1100
0000
0010
0000
0010
0000
,
1010
1100
0101
0011
0110
0000
1010
0011
0110
1100
0110
0000
1010
0000
0010
0000
,
1001
1001
1001
1001
2002
3003
0110
0110
0110
0110
0220
0330
1010
0000
0101
0000
,
2002
3003
0000
0000
0000
0000
0000
0000
0000
0000
0000
0000
0000
0000
0000
0000
;
