#TITLE:Farewell;
#SUBTITLE:Epica (2003);
#ARTIST:Kamelot;
#TITLETRANSLIT:;
#SUBTITLETRANSLIT:;
#ARTISTTRANSLIT:;
#CREDIT:;
#BANNER:farewell-bn.PNG;
#BACKGROUND:farewell-bg.PNG;
#LYRICSPATH:;
#CDTITLE:!TEEXcdtitle.png;
#MUSIC:Kamelot - Epica - 03 - Farewell.mp3;
#OFFSET:-0.252;
#SAMPLESTART:62.371;
#SAMPLELENGTH:12.000;
#SELECTABLE:YES;
#BPMS:0.000=170.000,40.000=85.000,64.000=170.000,116.000=85.000,128.000=170.000,280.000=85.000,285.000=170.000;
#STOPS:;
#BGCHANGES:;
// cache tags:
#FIRSTBEAT:0.000;
#LASTBEAT:585.000;
#SONGFILENAME:Songs/Astronomic Metal Collection/Farewell [TEEX]/Farewell.sm;
#HASMUSIC:1;
#HASBANNER:1;
#MUSICLENGTH:221.520;
// end cache tags

//---------------dance-single - ----------------
#NOTES:
     dance-single:
     :
     Hard:
     11:
     1.000,1.000,1.000,0.542,1.000,1663.000,284.000,120.000,0.000,1.000:
1001
0100
0010
0001
1000
0100
1000
0100
0010
0100
1000
0001
0010
0001
0010
0001
,
0100
0010
1000
0100
1000
0010
0100
0001
0010
0001
0100
0010
1000
0100
1000
0010
,
0100
0001
1000
0001
0010
0100
0010
0001
1000
0100
0010
0100
0010
0001
1000
0010
,
0100
0001
0010
0001
0100
0010
1000
0010
1000
0001
0100
0001
0010
0100
0010
0001
,
0100
0010
1000
0100
0010
0100
1000
0001
0011
0000
1001
0000
0101
0000
1010
0000
,
0110
0001
0010
0100
1000
0001
1000
0010
1000
0100
0010
0001
0100
0001
0100
0010
,
1000
0001
0010
0100
1000
0001
0010
0001
0010
0100
1000
0001
1000
0010
1000
0010
,
0100
0010
1000
0001
1000
0100
0010
0001
1000
0001
0100
0001
0010
0100
0010
0001
,
1000
0100
0010
0100
1000
0001
0100
0010
1000
0010
0100
0001
1000
0010
1000
0010
,
0100
0010
1000
0001
0010
0100
1000
0010
0101
0000
0110
0000
1100
0000
0110
0000
,
0202
0000
0000
0303
2000
0000
3200
0000
0302
0000
0203
0000
1300
0000
0001
0000
0100
0000
0110
0000
0001
0000
1000
0000
0101
0000
1000
0000
0110
0000
0001
0000
,
0100
0110
1000
0010
0001
0010
1000
0100
0010
0001
0011
0001
0100
0101
0010
1000
,
0001
1000
0100
1000
0010
0100
1010
1000
0001
0101
0100
0001
1000
0001
0010
0001
,
0010
0100
0011
0001
0100
0101
1000
0110
0001
0110
1000
0001
1001
0010
1000
0100
,
1100
0010
0101
0001
1000
0110
1000
0100
0110
1000
0011
1000
0001
0110
0100
1000
,
0011
0010
0110
0100
1000
1100
1000
0001
0110
0001
1001
1000
0110
0002
0000
0000
,
0103
0010
0100
0000
0001
0000
0010
0000
0001
0000
1000
0000
0110
0000
0000
0000
,
0101
0010
1000
0100
1000
0100
0010
0001
1000
0010
1000
0001
0100
0001
0010
0100
,
0010
0001
0010
0001
1000
0010
0100
0001
0010
0100
1000
0001
0010
0001
1000
0001
,
0100
0001
0010
0100
0010
0001
1000
0100
0010
0100
1000
0001
1000
0010
1000
0001
,
1000
0001
0100
0010
2002
0000
3000
0000
0200
0000
0303
0000
2200
0000
0300
0000
,
0020
0000
3030
0000
0110
1000
0001
0100
0001
0010
0100
1000
0001
1000
0100
0010
,
0001
1000
0100
0010
0100
0010
0001
0010
0100
0010
0100
1000
0002
0000
0003
0000
,
0110
1000
0001
0010
0001
1000
0001
1000
0100
1000
0010
0100
0001
0010
0001
1000
,
0010
1000
0100
0010
0001
0100
0001
0010
0100
1000
0010
1000
0100
0010
0001
0100
,
0001
0100
0010
1000
0100
0010
0001
0100
0001
0100
0010
1000
0010
1000
0001
1000
,
0001
1000
0100
1000
0100
1000
0100
0010
1002
0000
0000
0000
0103
0000
0000
0000
,
2002
0000
3003
0000
1010
0100
1000
0001
0100
0010
0100
0001
0010
0001
1000
0010
,
0100
0001
0010
0001
0100
0010
0100
0001
1000
0010
1000
0000
2002
0000
0000
0000
,
3003
1100
0000
0101
0011
0010
1100
0010
0101
1001
1010
0010
0011
1100
0000
1100
,
1001
0010
0101
0010
0110
1000
0101
0001
1000
0110
0001
0101
0110
0010
0100
1000
,
0001
0000
1100
0000
1100
0000
0010
0000
1010
0000
0101
0000
0001
0000
1000
0100
1000
0000
0010
0000
0100
0000
0000
0000
0110
0000
0000
0000
0101
0000
0000
0000
,
1001
0000
0000
0000
,
0000
0110
0110
0000
,
1000
0100
1000
0010
0100
0010
0100
0001
0010
0001
0010
0100
1000
0010
0100
0001
,
0100
0010
1000
0001
1000
0010
1000
0010
0100
0001
0100
0001
0010
0100
0010
0100
,
2000
0000
3002
0000
1003
0010
0100
0001
1000
0010
0100
0001
1000
0100
0010
0001
,
1100
0000
1000
0000
0110
0000
0001
0000
0011
0000
0100
0000
1001
0010
0100
0010
,
0100
0001
0010
0001
0010
0100
1000
0001
1010
0000
0001
0000
0101
0000
1000
0000
,
0110
0000
0001
0000
0101
0010
1000
0010
1000
0100
1000
0001
0100
0001
0010
0001
,
1000
0010
1000
0001
0100
0001
0010
0100
0010
0001
1000
0100
1000
0001
0010
0001
,
0110
1000
1100
1000
1010
0001
0110
0001
,
0011
0000
0100
0000
1001
0100
0001
1000
0001
1000
0001
1000
0010
1000
0100
0010
,
1001
0010
1010
0100
0001
1000
0011
0101
,
1000
0000
0001
1000
0001
0010
0100
1000
0001
0010
0001
0010
0100
1000
0001
0100
,
0010
1000
0010
1000
0110
0000
1000
0000
1100
0000
0010
0000
0110
0000
0001
0000
,
0202
0000
0300
0000
2000
0000
3000
0000
0020
0000
0033
0000
1001
0100
1000
0010
,
0100
0010
0100
0010
1000
0001
0010
0001
0010
0001
0100
0010
0100
0010
0100
0001
,
1000
0001
1000
0010
1000
0100
0010
0100
1000
0001
0010
0100
1000
0100
1000
0001
,
1000
0001
0010
0001
0010
0100
1000
0001
0100
0010
1000
0100
0010
0001
0100
0010
,
1000
0100
0010
0001
0100
0010
0100
0001
0010
0001
1000
0010
0100
0001
1000
0001
,
0100
0010
1000
0001
1000
0100
0010
0100
1000
0010
0100
0001
0010
0001
1000
0010
,
0100
0001
1000
0001
0100
0010
1000
0010
0100
0001
0100
0010
1000
0001
0010
0100
,
1000
0001
0100
0001
0010
0100
1000
0001
0100
0010
1000
0001
0010
0001
0100
0001
,
0010
0001
1000
0010
0100
0001
0100
0010
1000
0001
1000
0100
1000
0010
0100
0001
,
0100
0010
1000
0001
0010
0001
0100
0010
1000
0001
0010
0001
0100
0010
1000
0001
,
0100
0001
1000
0001
1010
0000
0110
0000
1010
0000
0011
0000
0220
0000
0330
0000
,
0011
0110
0011
1010
0202
0300
1003
0000
,
1010
0000
1100
0100
1001
0010
1001
0100
,
0101
1000
1010
0010
0110
0100
0101
0001
,
0011
1000
1100
1000
0011
1000
0011
0001
,
1100
0100
1100
0001
0101
1010
1001
0010
,
0101
0010
1001
1000
1100
1000
0110
0001
,
1001
0101
0011
0010
0110
0100
0110
0010
,
0101
1000
1010
0000
2020
3000
0200
0300
,
0002
0003
0200
0330
0011
0110
1010
0010
,
0101
0001
0101
1000
1100
0010
1010
1000
,
0101
1000
0110
0001
1001
0001
0101
0001
,
0011
0001
0101
0010
1100
0010
0101
0001
,
1010
1000
0011
0100
0101
0100
0110
0010
,
2002
3003
0220
0300
0200
0330
0000
0000
0000
0000
0000
0000
0000
0000
2002
0003
,
0002
3003
0000
0000
1000
0010
1000
0010
1000
0001
1000
0001
0010
0001
0010
0001
,
0010
0100
0010
0100
1000
0010
0100
0001
0010
0100
1000
0100
0010
0001
1000
0010
,
0100
0001
0100
0010
2000
0000
3002
0000
0013
0001
0010
0100
1000
0100
0010
0001
,
1000
0010
1000
0001
1010
0000
0100
0000
1100
0000
0001
0000
0011
0000
1000
0000
,
1001
0100
0001
0010
0100
1000
0100
0010
0001
1000
0001
0010
1100
0000
0001
0000
,
1010
0000
0001
0000
0110
0000
1000
0000
0011
0100
0001
1000
0100
0010
0100
1000
,
0001
0010
0100
1000
0010
1000
0010
1000
0001
0100
0010
0100
0001
0010
0100
0010
,
0001
0100
0001
0100
1001
0000
0010
0000
1100
0000
1000
0000
0101
0000
0001
0000
,
0011
0000
0100
0000
1002
0000
0023
0000
0031
1000
0010
1000
0001
1000
0100
0010
,
0100
1000
0001
0010
1001
0000
1000
0000
1001
0000
0001
0000
1001
0000
1000
0000
,
1010
0100
1000
0001
0100
0001
0010
0001
0010
0100
1000
0100
0010
0001
1000
0100
,
0010
0001
0010
0001
1000
0010
1000
0010
0100
0001
1000
0100
0010
0001
0100
0010
,
1001
0100
0001
1100
0010
1000
1010
1000
,
1001
0100
0001
0011
0100
0001
0011
0100
,
0101
1000
0000
0000
1010
0000
0011
0001
,
0000
0000
0110
0000
,
1001
1000
0000
0000
1010
0000
1100
1000
,
0000
0000
0101
0000
,
0011
0001
0000
0000
0101
0000
0110
0001
,
0000
0000
0110
0000
,
1001
1000
0000
0000
0110
0000
1100
0200
,
0000
0000
2300
0000
3020
0230
0302
0103
,
2001
0002
3003
0000
0110
0000
1000
1100
,
0020
0000
0230
0000
2300
0000
3002
0013
,
0011
0001
0100
0010
0110
1000
1100
0011
,
0002
0000
2000
3003
,
0110
0110
1000
0001
1100
0010
1000
0001
,
0101
0010
0100
0010
0011
0010
0001
0100
,
1001
0000
1000
0010
1010
0000
0100
0010
,
0110
0000
0001
0000
0022
0000
0033
0000
1000
0100
0010
0001
1000
0010
0100
0001
,
1000
0010
1000
0010
1000
0010
1000
0010
0100
0001
0100
0001
0100
0001
0100
0001
,
0010
0001
0010
0001
0010
0001
0010
0001
0010
0100
0010
0100
0010
0100
0010
0100
,
1000
0100
1000
0010
2000
0000
3001
0000
0101
0000
0010
0000
0101
0000
1000
0000
,
0012
0000
0023
0230
2300
0000
3020
0230
,
0302
0000
0203
0000
0320
2030
3020
2030
3002
2003
3002
2003
3200
2300
3200
2300
,
3200
0320
0032
0203
0320
2030
3200
0320
0032
2003
3002
2003
3002
0023
0032
0023
,
2230
0000
3300
0000
0100
1000
0100
1000
0100
0010
0100
0010
0001
0100
0001
0100
,
0001
0010
0001
0010
0100
0010
0100
0010
0100
1000
0010
1000
0010
0100
0010
1000
,
0001
1000
1001
1000
0101
0001
0110
1000
,
1100
0011
0110
1000
0100
0020
0230
2300
,
3020
0000
2030
0000
3002
0000
0023
0000
0032
0000
2003
0000
3100
1000
0010
0000
,
1001
0000
0100
0000
1001
0000
0010
0000
0001
0010
0100
1000
0001
0100
0010
1000
,
0202
0303
1010
0100
0011
0100
0101
0010
,
0011
1000
1100
0010
0110
0001
1001
1000
,
1010
0110
0101
0001
0011
0010
0011
0001
,
0210
0000
0000
0000
0310
0100
1000
0100
0010
0001
0010
0001
0010
0100
1000
0010
,
0100
0010
1000
0010
2000
0000
3002
0000
1003
0100
1000
0001
1000
0001
0100
0001
,
0010
0100
0010
0001
1100
0000
0010
0000
0110
0000
0001
0000
1001
0000
0100
0000
,
0011
1000
0101
0110
1100
1000
1001
0001
,
0011
0000
1000
0000
0101
0000
1000
0000
0001
0100
0010
1000
0100
0010
0001
0100
,
0010
1000
0100
0010
0001
0100
0010
1000
0010
0100
0001
0010
0100
1000
0001
0010
,
0001
1000
0001
1000
0100
0010
0001
1000
0010
0100
0001
1000
0010
0100
0001
0100
,
0010
1000
0100
0010
0002
0000
0203
0000
0310
1000
0100
1000
0010
1000
0100
0010
,
0100
1000
0001
0010
1100
0000
0001
0000
0110
0000
1000
0000
0101
0000
0010
0000
,
1001
0100
0010
0100
1000
0001
0010
0001
0100
0001
1000
0100
0010
0100
1000
0001
,
0010
0001
0100
0010
1000
0100
0010
0001
0100
0001
0010
0100
1000
0001
1000
0001
,
0100
0010
0100
0010
1000
0100
1000
0100
0010
0001
0010
0001
0200
0000
0320
0000
,
1030
0100
0010
0100
1000
0010
0100
0010
1000
0001
1000
0001
0110
0000
0100
0000
,
0101
0001
0011
0010
0110
0100
1000
1001
,
0100
0001
0011
0100
1100
1000
0110
1010
,
1001
0010
0100
0010
0001
0100
0010
0100
0001
0010
0100
1000
0010
0100
0001
0100
,
0010
1000
0010
0100
0010
1000
0001
0100
0010
1000
0100
1000
0001
0010
0001
0010
,
0001
0100
0001
0100
0010
1000
0010
1000
0010
0100
0010
0100
0002
0000
2003
0000
,
3001
0010
0100
1000
0001
0100
0001
1000
0010
0100
0001
1000
0110
0000
0001
0000
,
1100
0010
0101
1000
0011
0001
1010
1001
,
0011
0100
0001
1000
0100
0010
0001
1000
0010
1000
0001
1000
0010
0100
0001
0010
,
0100
0010
0001
1000
0100
0010
0001
1000
0010
0100
0001
0100
0010
1000
0001
0100
,
0010
1000
0001
0100
0001
1000
0001
1000
0110
0000
0010
0000
1000
0000
0001
0000
,
0110
0010
0001
1000
0101
1000
0100
1000
,
0011
0100
1000
0010
0110
0100
0001
1000
,
1001
0100
0010
0100
1100
0010
1000
0001
,
0010
0100
0010
0100
1000
0001
1000
0001
0110
0000
1000
0000
0001
0000
0110
0000
,
1000
0001
0110
1000
0001
0110
1000
0001
,
0101
1000
0010
0101
1000
0010
0101
1000
,
0010
1100
0001
0010
1100
0001
0010
1100
,
0001
0010
0100
0000
0000
0000
0000
0000
;
