#TITLE:Caramelldansen;
#SUBTITLE:(WiKKed Remix);
#ARTIST:Renard;
#TITLETRANSLIT:;
#SUBTITLETRANSLIT:;
#ARTISTTRANSLIT:;
#CREDIT:owenviau1;
#BANNER:../owenviau1 Simfiles 5-bn.png;
#BACKGROUND:../owenviau1 Simfiles 5-bg.png;
#LYRICSPATH:;
#CDTITLE:../ov1_title.png;
#MUSIC:Caramelldansen (Wikked Remix).mp3;
#OFFSET:-0.028;
#SAMPLESTART:69.821;
#SAMPLELENGTH:29.999;
#SELECTABLE:YES;
#DISPLAYBPM:175.000;
#BPMS:0.000=175.000,277.000=174.988,278.000=175.000;
#STOPS:;
#BGCHANGES:;
// cache tags:
#FIRSTBEAT:32.000;
#LASTBEAT:655.500;
#SONGFILENAME:Songs/owenviau1 Simfiles 5/Caramelldansen (WiKKed Remix) - [owenviau1] v1.5/Caramelldansen.sm;
#HASMUSIC:1;
#HASBANNER:1;
#MUSICLENGTH:230.452;
// end cache tags

//---------------dance-single - ----------------
#NOTES:
     dance-single:
     :
     Hard:
     10:
     0.792,0.711,0.139,0.026,0.174,1239.000,32.000,6.000,6.000,0.000:
0000
0000
0000
0000
,
0000
0000
0000
0000
,
0000
0000
0000
0000
,
0000
0000
0000
0000
,
0000
0000
0000
0000
,
0000
0000
0000
0000
,
0000
0000
0000
0000
,
0000
0000
0000
0000
,
1MM1
0000
1000
0000
0010
0000
0100
0000
0010
0000
1000
0000
0001
0000
1000
0100
,
1000
0000
0100
0000
0001
0000
1000
0000
0001
0100
0001
0000
0010
0000
0100
0000
,
1000
0000
0001
0000
0100
0000
0010
0000
1000
0100
1000
0000
0001
0000
0100
0000
,
0010
1000
0001
0010
0001
0100
0010
1000
,
0100
0000
0001
0000
0100
0000
0010
0000
1000
0000
0001
0000
0010
0000
0100
0010
,
0100
0000
0001
0000
1000
0000
0010
0000
0100
0000
1000
0100
1000
0000
0001
0000
,
0100
0000
0010
0000
1000
0000
0100
0000
0001
0010
0001
0000
0100
0000
0010
0000
,
1000
0001
0100
0001
1000
0010
1000
0100
,
2001
3000
2000
3200
0320
0030
0002
0003
,
4000
0000
0000
0000
0000
0000
0000
0000
3001
1000
0001
0000
1001
0000
0000
0000
,
1100
0000
0100
0000
0010
0000
0001
0000
0010
0000
1000
0100
0010
0000
0001
0000
,
1000
0000
0010
0000
0100
0000
0001
0000
1000
0000
0001
0100
0010
0000
1000
0000
,
0001
0000
0100
0000
0010
0000
1000
0000
0100
0000
0010
0100
0001
0000
0010
0000
,
0100
0000
1000
0000
0001
0000
0010
0000
0100
0000
1000
0001
0100
0000
0010
0000
,
1000
0000
0100
0000
0010
0000
0001
0000
1000
0000
0001
1000
0100
0000
0010
0000
,
0001
0000
1000
0000
0001
0000
0100
0000
0010
0000
1000
0001
0100
0000
0010
0000
,
1000
0000
0100
0000
0010
0000
0001
0000
0100
0000
0010
1000
0001
0000
0010
0000
,
0100
0000
1000
0000
0001
0000
0010
0000
0100
0000
1000
0001
0010
0000
0001
0000
,
1001
0000
0100
0000
0010
0000
0001
0000
0010
0000
1000
0100
1000
0000
0001
0000
,
0100
0000
0010
0000
1000
0000
0100
0000
0010
0000
0001
0100
0001
0000
1000
0000
,
0100
0000
1000
0000
0010
0000
0100
0000
0001
0000
0100
0010
0100
0000
0001
0000
,
1000
0000
0010
0000
0100
0000
0010
0000
1000
0000
0001
1000
0001
0000
0100
0000
,
0010
0000
0001
0000
0010
0000
0100
0000
1000
0000
0001
0100
0010
0000
0100
0000
,
1000
0000
0001
0000
0100
0000
0001
0000
1000
0000
0001
0100
0001
0000
0010
0000
,
0100
0000
1000
0000
0001
0000
0100
0000
0010
0000
1000
0010
1000
0000
0001
0000
,
1000
0000
0000
0100
0000
0000
0010
0000
0000
0001
1000
0001
1000
0000
0000
0000
,
1001
1000
0001
0010
0100
1000
0001
0100
,
0010
1000
0001
0010
0001
1000
0010
0100
,
0001
1000
0001
0100
0010
0100
0001
0010
,
0100
1000
0010
1000
0100
0010
0001
0100
,
0001
1000
0001
0100
0010
1000
0100
1000
,
0001
0100
0001
1000
0010
0100
0001
0010
,
0100
1000
0001
1000
0010
0100
0001
0100
,
0010
1000
0100
1000
0001
0100
0010
1000
,
1001
0001
0010
0100
1000
0010
0100
0001
,
1000
0001
0100
0001
0010
0100
1000
0010
,
1000
0001
0010
0100
1000
0010
0100
0001
,
0100
0010
1000
0100
0010
0001
0100
0001
,
1000
0010
0100
0010
1000
0100
0010
0001
,
1000
0001
0100
0010
0100
0001
1000
0100
,
0010
0001
0100
0001
1000
0010
0100
0001
,
1000
0000
0000
0100
0000
0000
0010
0000
0000
0001
0100
0001
0100
0000
0000
0000
,
1001
0001
1000
0100
0010
0001
0010
0100
,
1000
0010
0100
0001
0010
0100
1000
0010
,
1000
0001
1000
0100
0010
1000
0001
1000
,
0010
0100
0001
0100
0010
1000
0100
0010
,
0001
1000
0010
0100
0001
0010
0100
1000
,
0010
0100
0001
0010
0001
1000
0001
0100
,
0010
1000
0100
1000
0010
0100
0001
0010
,
0001
0100
0010
1000
0001
0100
0001
1000
,
1100
0100
0010
0001
1000
0001
0100
0010
,
1000
0010
0100
0001
0100
0010
1000
0100
,
0010
0001
1000
0001
0010
0100
1000
0010
,
1000
0001
0100
0010
1000
0010
0100
0010
,
1000
0001
0100
0010
0100
0001
0100
0010
,
1000
0100
0010
0001
0100
0001
1000
0010
,
1000
0100
0010
1000
0001
0100
0010
1000
,
0010
0000
0000
0100
0000
0000
1000
0000
0000
0001
0010
0001
0010
0000
0000
0000
,
1001
0001
1000
0000
0100
0010
0001
0000
,
0100
0001
1000
0000
0010
1000
0001
0000
,
0010
0100
1000
0000
0001
0100
0010
0000
,
1000
0100
0010
0000
0001
0100
0010
0000
,
1000
0001
0100
0000
0010
1000
0001
0000
,
1000
0100
0010
0000
0001
0100
0010
0000
,
1000
0010
0100
0000
0001
1000
0001
0000
,
0100
0001
0100
0000
0010
1000
0100
0000
,
0101
0001
0010
0000
0100
1000
0001
0000
,
0100
0001
0010
0000
0100
1000
0010
0000
,
1000
0001
1000
0000
0010
0100
0010
0000
,
1000
0001
0100
0000
0010
1000
0001
0000
,
0010
0001
0010
0000
1000
0001
1000
0000
,
0001
0100
0001
0000
0100
0010
0100
0000
,
0010
1000
0100
0000
0010
0001
1000
0000
,
0040
0000
0000
0000
0000
0000
0000
0000
0130
0001
0100
0000
0101
0000
0000
0000
,
1010
1000
0001
0010
0100
1000
0001
0100
,
0010
1000
0001
0010
0001
1000
0010
0100
,
0001
1000
0001
0100
0010
0100
0001
0010
,
0100
1000
0010
1000
0100
0010
0001
0100
,
0001
1000
0001
0100
0010
1000
0100
1000
,
0001
0100
0001
1000
0010
0100
0001
0010
,
0100
1000
0001
1000
0010
0100
0001
1000
,
0010
1000
0100
1000
0001
0100
0010
1000
,
1001
0001
0010
0100
1000
0010
0100
0001
,
1000
0001
0100
0001
0010
0100
1000
0010
,
1000
0001
0010
0100
1000
0010
0100
0001
,
0100
0010
1000
0100
0010
0001
0100
0001
,
1000
0010
0100
0010
1000
0100
0010
0001
,
1000
0001
0100
0010
0100
0001
1000
0100
,
0010
0001
0100
0001
1000
0010
0100
0001
,
1000
0000
0000
0100
0000
0000
0010
0000
0000
0001
1000
0001
1000
0000
0000
0000
,
1001
0001
0100
0010
1000
0100
0010
0001
,
0100
0001
1000
0001
0010
0100
1000
0010
,
1000
0100
0010
0001
0100
0001
1000
0010
,
0100
0000
0001
0000
0010
0000
0100
0000
1000
0000
0000
0010
0000
0000
0100
0000
,
0001
1000
0001
0010
0100
1000
0010
1000
,
0001
0010
0001
0100
0010
1000
0001
0100
,
0001
1000
0100
1000
0010
0100
0001
0010
,
0001
0000
1000
0000
0001
0000
0100
0000
0010
0000
0000
1000
0000
0000
0001
0000
,
0100
1000
0001
1000
0010
1000
0001
0100
,
0001
0010
0100
1000
0010
0100
0001
0010
,
0100
1000
0010
0100
0001
1000
0001
0010
,
0001
0000
0100
0000
0010
0000
1000
0000
0001
0000
0000
0010
0000
0000
0100
0000
,
1000
0001
1000
0010
0100
0001
1000
0001
,
0100
0010
1000
0010
0100
0001
1000
0100
,
0010
0001
0100
0001
0010
0100
1000
0001
,
1100
0000
0000
0110
0000
0000
0011
0000
0000
1100
0000
0000
1001
0000
0000
0000
,
M1M1
0000
0001
0000
1000
0000
0001
0000
0010
0000
1000
0100
0010
0000
0001
0000
,
1000
0000
0010
0000
0100
0000
0001
0000
1000
0000
0001
0100
0010
0000
1000
0000
,
0001
0000
0100
0000
0010
0000
1000
0000
0100
0000
0010
0100
0001
0000
0010
0000
,
0100
0000
1000
0000
0001
0000
0010
0000
0100
0000
1000
0001
0100
0000
0010
0000
,
1000
0000
0100
0000
0010
0000
0001
0000
1000
0000
0001
1000
0100
0000
0010
0000
,
0001
0000
1000
0000
0001
0000
0100
0000
0010
0000
1000
0001
0100
0000
0010
0000
,
1000
0000
0100
0000
0010
0000
0001
0000
0100
0000
0010
1000
0001
0000
0010
0000
,
0100
0000
1000
0000
0001
0000
0010
0000
0100
0000
1000
0001
0010
0000
0001
0000
,
1001
0000
0100
0000
0010
0000
0001
0000
0010
0000
1000
0100
1000
0000
0001
0000
,
0100
0000
0010
0000
1000
0000
0100
0000
0010
0000
0001
0100
0001
0000
1000
0000
,
0100
0000
1000
0000
0010
0000
0100
0000
0001
0000
0100
0010
0100
0000
0001
0000
,
1000
0000
0010
0000
0100
0000
0010
0000
1000
0000
0001
1000
0001
0000
0100
0000
,
0010
0000
0001
0000
0010
0000
0100
0000
1000
0000
0001
0100
0010
0000
0100
0000
,
1000
0000
0001
0000
0100
0000
0001
0000
1000
0000
0001
0100
0001
0000
0010
0000
,
0100
0000
1000
0000
0001
0000
0100
0000
0010
0000
1000
0010
1000
0000
0001
0000
,
1000
0000
0000
0100
0000
0000
0010
0000
0000
0001
1000
0001
1000
0000
0000
0000
,
0001
0000
0000
0000
0100
0000
0000
0000
0001
1000
0001
0000
1000
0000
0000
0000
,
1100
0110
0011
0101
,
1001
1000
0001
0010
0100
1000
0001
0100
,
0010
1000
0001
0010
0001
1000
0010
0100
,
0001
1000
0001
0100
0010
0100
0001
0010
,
0100
1000
0010
1000
0100
0010
0001
0100
,
0001
1000
0001
0100
0010
1000
0100
1000
,
0001
0100
0001
1000
0010
0100
0001
0010
,
0100
1000
0001
1000
0010
0100
0001
0100
,
0010
1000
0100
1000
0001
0100
0010
1000
,
1001
0001
0010
0100
1000
0010
0100
0001
,
1000
0001
0100
0001
0010
0100
1000
0010
,
1000
0001
0010
0100
1000
0010
0100
0001
,
0100
0010
1000
0100
0010
0001
0100
0001
,
1000
0010
0100
0010
1000
0100
0010
0001
,
1000
0001
0100
0010
0100
0001
1000
0100
,
0010
0001
0100
0001
1000
0010
0100
0001
,
1000
0000
0000
0100
0000
0000
0010
0000
0000
0001
0100
0001
0100
0000
0000
0000
,
1MM1
0000
0001
0000
0010
0000
0100
0000
1000
0000
0001
0100
0010
0000
1000
0000
,
0001
0000
0010
0000
0100
0000
0001
0000
1000
0000
0001
0100
0010
0000
1000
0000
,
0001
0000
0100
0000
0010
0000
1000
0000
0100
0000
0010
0100
0001
0000
0010
0000
,
0100
0000
1000
0000
0001
0000
0010
0000
0100
0000
1000
0001
0100
0000
0010
0000
,
1000
0000
0100
0000
0010
0000
0001
0000
1000
0000
0001
1000
0100
0000
0010
0000
,
0001
0000
1000
0000
0001
0000
0100
0000
0010
0000
1000
0001
0100
0000
0010
0000
,
1000
0000
0100
0000
0010
0000
0001
0000
0100
0000
0010
1000
0001
0000
0010
0000
,
0100
0000
1000
0000
0001
0000
0010
0000
0100
0000
1000
0001
0010
0000
0001
0000
,
1001
0000
0100
0000
0010
0000
0001
0000
0010
0000
1000
0100
1000
0000
0001
0000
,
0100
0000
0010
0000
1000
0000
0100
0000
0010
0000
0001
0100
0001
0000
1000
0000
,
0100
0000
1000
0000
0010
0000
0100
0000
0001
0000
0100
0010
0100
0000
0001
0000
,
1000
0000
0010
0000
0100
0000
0010
0000
1000
0000
0001
1000
0001
0000
0100
0000
,
0010
0000
0001
0000
0010
0000
0100
0000
1000
0000
0001
0100
0010
0000
0100
0000
,
1000
0000
0001
0000
0100
0000
0001
0000
1000
0000
0001
0100
0001
0000
0010
0000
,
0100
0000
1000
0000
0001
0000
0100
0000
0010
0000
1000
0010
1000
0000
0001
0000
,
1000
0000
0000
0100
0000
0000
0010
0000
0000
0001
1000
0001
2000
0000
3000
0000
,
0000
0000
0000
0000
,
0000
0000
0000
0000
,
0000
0000
0000
0000
,
0000
0000
0000
0000
,
0000
0000
0000
0000
;

//---------------dance-single - ----------------
#NOTES:
     dance-single:
     :
     Challenge:
     13:
     1.000,1.000,1.000,0.030,0.694,1469.000,406.000,7.000,46.000,0.000:
0000
0000
0000
0000
,
0000
0000
0000
0000
,
0000
0000
0000
0000
,
0000
0000
0000
0000
,
0000
0000
0000
0000
,
0000
0000
0000
0000
,
0000
0000
0000
0000
,
0000
0000
0000
0000
,
1001
0000
0100
0000
0011
0000
1000
0000
0101
0000
0010
1000
0001
1000
0100
0010
,
0001
0000
1000
0000
0110
0000
0001
1000
0010
0000
0100
1000
0100
0010
0001
0000
,
1010
0000
0100
0000
0011
0000
1000
0100
0010
0000
0001
0000
1001
0000
0100
0000
,
0001
1000
0010
0000
0101
0000
1000
0000
0101
0000
0010
0000
1001
0000
1000
0000
,
0110
0000
0001
0000
1010
0000
0110
0000
0101
0000
1010
0000
1001
0000
0100
0010
,
0001
0000
0100
0000
1001
0000
0010
0100
0001
0000
0010
0100
1000
0001
0100
0000
,
1001
0000
0010
0000
0101
0000
1000
0100
0010
0000
0001
0000
1010
0000
0100
0000
,
1001
0100
0110
0001
1100
0010
0101
0010
,
2001
3000
2000
3200
0320
0030
0002
0003
,
1000
0000
0001
0000
1000
0000
0001
0000
1000
0000
0001
0000
1000
0000
0001
0000
1000
0000
0001
0000
1000
0000
0001
0000
1000
0000
0000
0001
0000
0000
1000
0000
0000
0000
0000
0000
1001
0000
0000
0000
0000
0000
MMMM
0000
0000
0000
0000
0000
,
1010
0000
0001
0000
0101
0000
0010
0000
1100
0000
0001
1000
0010
0000
0100
0000
,
1001
0000
0100
0000
1010
0000
0001
0000
0101
0000
1000
0010
0100
0000
0001
0000
,
1100
0000
0001
0000
0110
0000
1000
0000
0011
0000
1000
0010
0100
0000
0010
0000
,
1001
0000
1000
0000
0110
0000
0001
0000
1010
0000
1000
0001
0100
0000
1000
0000
,
0011
0000
0001
0000
1100
0000
0100
0000
0011
0000
1000
0100
0010
0000
1000
0000
,
0101
0000
0001
0000
1010
0000
0100
0000
1001
0000
0001
1000
0010
0000
1000
0000
,
0101
0000
0001
0000
0110
0000
0001
0000
1100
0000
0010
1000
0001
0000
0100
0000
,
1001
0000
0001
0000
0110
0000
1000
0000
0101
0000
1000
0100
0010
0000
0100
0000
,
1MM1
0000
0010
0000
0101
0000
0010
0000
1100
0000
0001
1000
0010
0000
0100
0000
,
1001
0000
0010
0000
0101
0000
0010
0000
1100
0000
0001
1000
0010
0000
0100
0000
,
1001
0000
0100
0000
1010
0000
0001
0000
0101
0000
1000
0010
0100
0000
0001
0000
,
1100
0000
0001
0000
0110
0000
1000
0000
0011
0000
1000
0010
0100
0000
0010
0000
,
1001
0000
1000
0000
0110
0000
0001
0000
1010
0000
1000
0001
0100
0000
1000
0000
,
0011
0000
0001
0000
1100
0000
0100
0000
0011
0000
1000
0100
0010
0000
1000
0000
,
0101
0000
0001
0000
1010
0000
0100
0000
1001
0000
0001
1000
0010
0000
1000
0000
,
0101
0000
0000
0110
0000
0000
1010
0000
0000
1000
0100
0010
1001
0000
0000
0000
,
1001
0000
0010
0000
0110
0000
1000
0000
0011
0000
1000
0100
0010
0000
0100
0000
,
1001
0000
0010
0000
1000
0100
0010
0001
0000
1000
0010
0100
0001
0000
1000
0000
,
0101
0000
0010
0000
1000
0010
0100
0001
0000
1000
0010
0100
0001
0000
0010
0000
,
1100
0000
0010
0000
0001
0010
0100
1000
0000
1000
0100
0010
0001
0000
0010
0000
,
1001
0000
0100
0000
1010
0000
0001
0000
0101
0000
1000
0010
0100
0000
1000
0000
,
0101
0000
0010
0000
1000
0010
1000
0001
0000
0100
0001
0100
0010
0000
1000
0000
,
0011
0000
0100
0000
0001
1000
0010
0100
0000
0010
1000
0001
1000
0000
0100
0000
,
0011
0000
1000
0000
0010
0001
1000
0001
0000
0010
0100
1000
0001
0000
0010
0000
,
1001
0000
0010
0000
0101
0000
1000
0000
0011
0000
1000
0100
0010
0000
0100
0000
,
1001
0000
0010
0000
1000
0100
0010
0001
0000
1000
0010
0100
0001
0000
1000
0000
,
0101
0000
0010
0000
1000
0010
0100
0001
0000
1000
0010
0100
0001
0000
0010
0000
,
1100
0000
0010
0000
0001
1000
0010
1000
0000
0001
0100
0010
1000
0000
0010
0000
,
1001
0000
0100
0000
1010
0000
0001
0000
0101
0000
1000
0010
0100
0000
1000
0000
,
0101
0000
0010
0000
1000
0100
0010
0001
0000
1000
0001
0100
0010
0000
1000
0000
,
0011
0000
0100
0000
0001
1000
0010
0100
0000
0010
1000
0001
1000
0000
0100
0000
,
0011
0000
0000
1100
0000
0000
1010
0000
0000
0001
1000
0100
1001
0000
MMMM
0000
,
1010
0000
0001
0000
1100
0000
0010
0000
0101
0000
1000
0010
0100
0000
1000
0000
,
0101
0000
0010
0000
1000
0010
1000
0001
0000
1000
0001
1000
0010
0000
1000
0000
,
0011
0000
0100
0000
0001
1000
0010
0100
0000
0010
1000
0001
1000
0000
0100
0000
,
0011
0000
1000
0000
0010
0001
1000
0001
0000
0010
0100
1000
0001
0000
0010
0000
,
1001
0000
0010
0000
0101
0000
1000
0000
0011
0000
1000
0100
0010
0000
0100
0000
,
1001
0000
0010
0000
1000
0100
0010
0001
0000
1000
0010
0100
0001
0000
1000
0000
,
0101
0000
0010
0000
1000
0010
0100
0001
0000
1000
0010
0100
0001
0000
0010
0000
,
1100
0000
0010
0000
0001
1000
0010
1000
0000
0001
0100
0010
1000
0000
0010
0000
,
1001
0000
0100
0000
1010
0000
0001
0000
0101
0000
1000
0010
0100
0000
1000
0000
,
0101
0000
0010
0000
1000
0100
0010
0001
0000
1000
0001
0100
0010
0000
1000
0000
,
0011
0000
0100
0000
0001
1000
0010
0100
0000
0010
1000
0001
1000
0000
0100
0000
,
0011
0000
0100
0000
0001
1000
0010
1000
0000
0001
0100
0010
1000
0000
0010
0000
,
1001
0000
0100
0000
1010
0000
0001
0000
0101
0000
1000
0010
0100
0000
1000
0000
,
0101
0000
0010
0000
1000
0100
0010
0001
0000
1000
0001
0100
0010
0000
1000
0000
,
0011
0000
0100
0000
0001
1000
0010
0100
0000
0010
1000
0001
1000
0000
0100
0000
,
0011
0000
0000
1010
0000
0000
0101
0000
0000
0010
1000
0001
1001
0000
MMMM
0000
,
1010
0001
0110
0000
1001
0010
0101
0000
,
1001
0010
0101
0010
1001
1000
0110
0001
,
1010
0100
1001
0001
0110
1000
0011
0010
,
1100
0001
0110
1000
1001
0010
0101
1000
,
1010
0001
0110
0100
1001
0010
1100
0001
,
0110
1000
0011
0100
1001
0010
0110
1000
,
0101
0010
1001
0100
0110
0001
1100
0001
,
1010
0001
0110
1000
1001
0010
1100
0101
,
1001
0010
0101
0010
1001
1000
0110
0001
,
1010
0001
1100
0010
0101
0010
1001
0010
,
1100
0001
1010
0100
0011
0100
1001
0010
,
1100
0001
0110
1000
0101
0010
1001
0100
,
0110
0001
1010
0101
1001
1100
0110
0011
,
1001
0010
1100
0010
0101
0010
1001
1010
,
1100
0010
0101
0010
1001
1000
0110
0001
,
1000
0000
0001
0000
1000
0000
0001
0000
1000
0000
0001
0000
1000
0000
0001
0000
1000
0000
0001
0000
1000
0000
0001
0000
1000
0000
0000
0001
0000
0000
1000
0000
0000
0000
0000
0000
1001
0000
0000
0000
0000
0000
MMMM
0000
0000
0000
0000
0000
,
1001
0000
0010
0000
0110
0000
1000
0000
0011
0000
1000
0100
0010
0000
0100
0000
,
1001
0000
0010
0000
1000
0100
0010
0001
0000
1000
0010
0100
0001
0000
1000
0000
,
0101
0000
0010
0000
1000
0010
0100
0001
0000
1000
0010
0100
0001
0000
0010
0000
,
1100
0000
0010
0000
0001
0010
0100
1000
0000
0010
0100
0001
1000
0000
0010
0000
,
1001
0000
0100
0000
1010
0000
0001
0000
0101
0000
1000
0010
0100
0000
1000
0000
,
0101
0000
0010
0000
1000
0010
1000
0001
0000
0100
0001
0100
0010
0000
1000
0000
,
0011
0000
0100
0000
0001
1000
0010
0100
0000
0010
1000
0001
1000
0000
0100
0000
,
0011
0000
1000
0000
0010
0001
1000
0001
0000
0010
0100
1000
0001
0000
0010
0000
,
1001
0000
0010
0000
0101
0000
1000
0000
0011
0000
1000
0100
0010
0000
0100
0000
,
1001
0000
0010
0000
1000
0100
0010
0001
0000
1000
0010
0100
0001
0000
1000
0000
,
0101
0000
0010
0000
1000
0010
0100
0001
0000
1000
0010
0100
0001
0000
0010
0000
,
1100
0000
0010
0000
0001
1000
0010
1000
0000
0001
0100
0010
1000
0000
0010
0000
,
1001
0000
0100
0000
1010
0000
0001
0000
0101
0000
1000
0010
0100
0000
1000
0000
,
0101
0000
0010
0000
1000
0100
0010
0001
0000
1000
0001
0100
0010
0000
1000
0000
,
0011
0000
0100
0000
0001
1000
0010
0100
0000
0010
1000
0001
1000
0000
0100
0000
,
0011
0000
0000
1100
0000
0000
1010
0000
0000
0001
1000
0100
1001
0000
MMMM
0000
,
1010
0000
1000
0000
0101
0000
0010
0000
1001
0000
1000
0000
0001
0010
0100
1000
,
0001
0000
0100
0000
1001
0000
0010
0000
0101
0000
1000
0100
0010
0001
1000
0000
,
1001
0000
0010
0000
1100
0000
0001
1000
0010
0100
0001
0000
0110
0000
1000
0000
,
0101
0000
0010
0000
1100
0000
0001
0000
0110
0000
0000
1100
0000
0000
0101
0000
,
1001
0000
0010
0000
0101
0000
0010
0000
1001
0000
1000
0000
0001
0010
0100
1000
,
0001
0000
0100
0000
1001
0000
0010
0000
0101
0000
1000
0100
0010
0001
1000
0000
,
1001
0000
0010
0000
1100
0000
0001
1000
0010
0100
0001
0000
0110
0000
1000
0000
,
0101
0000
0010
0000
1100
0000
0001
0000
0110
0000
0000
1100
0000
0000
0101
0000
,
1001
0000
0000
0000
0011
0000
0100
0000
1001
0000
1000
0000
0010
0100
0001
1000
,
0001
0000
0100
0000
1001
0000
0010
0000
0101
0000
1000
0100
0010
0001
1000
0000
,
1001
0000
0010
0000
1100
0000
0001
1000
0010
0100
0001
0000
0110
0000
1000
0000
,
0101
0000
0010
0000
1100
0000
0010
0000
0101
0000
0000
0110
0000
0000
1001
0000
,
1100
0000
0001
0000
0110
0000
0001
0000
1010
0000
0100
0000
0001
0010
0100
1000
,
0001
0000
0100
0000
1001
0000
0010
0000
0101
0000
1000
0100
0010
0001
1000
0000
,
1001
0000
0010
0000
1100
0000
0001
1000
0010
0100
0001
0000
0110
0000
1000
0000
,
0101
0000
0000
1100
0000
0000
0101
0000
0000
1100
0000
0000
1001
0000
0000
0000
,
1MM1
0000
0010
0000
0101
0000
0010
0000
1100
0000
0001
1000
0010
0000
0100
0000
,
1001
0000
0100
0000
1010
0000
0001
0000
0101
0000
1000
0010
0100
0000
0001
0000
,
1100
0000
0001
0000
0110
0000
1000
0000
0011
0000
1000
0010
0100
0000
0010
0000
,
1001
0000
1000
0000
0110
0000
0001
0000
1010
0000
1000
0001
0100
0000
1000
0000
,
0011
0000
0001
0000
1100
0000
0100
0000
0011
0000
1000
0100
0010
0000
1000
0000
,
0101
0000
0001
0000
1010
0000
0100
0000
1001
0000
0001
1000
0010
0000
1000
0000
,
0101
0000
0001
0000
0110
0000
0001
0000
1100
0000
0010
1000
0001
0000
0100
0000
,
1001
0000
0001
0000
0110
0000
1000
0000
0101
0000
1000
0100
0010
0000
0100
0000
,
1MM1
0000
0010
0000
0101
0000
0010
0000
1100
0000
0001
1000
0010
0000
0100
0000
,
1001
0000
0010
0000
0101
0000
0010
0000
1100
0000
0001
1000
0010
0000
0100
0000
,
1001
0000
0100
0000
1010
0000
0001
0000
0101
0000
1000
0010
0100
0000
0001
0000
,
1100
0000
0001
0000
0110
0000
1000
0000
0011
0000
1000
0010
0100
0000
0010
0000
,
1001
0000
1000
0000
0110
0000
0001
0000
1010
0000
1000
0001
0100
0000
1000
0000
,
0011
0000
0001
0000
1100
0000
0100
0000
0011
0000
1000
0100
0010
0000
1000
0000
,
0101
0000
0001
0000
1010
0000
0100
0000
1001
0000
0001
1000
0010
0000
1000
0000
,
0101
0000
0000
0110
0000
0000
1010
0000
0000
1000
0100
0010
1001
0000
0000
0000
,
0011
0000
0000
0000
0000
0000
0000
0000
0000
0000
0000
0000
0000
0000
0000
0000
1100
0000
0000
0000
0000
0000
0000
0000
0000
0000
0000
0000
0000
0000
0000
0000
0001
0000
0000
0000
1000
0000
0000
0000
0001
0000
0000
0000
0000
0000
0000
0000
1001
0000
0000
0000
0000
0000
0000
0000
0000
MMMM
0000
0000
0000
0000
0000
0000
,
1MM1
M1M1
1M1M
M1M1
,
1MM1
0000
0010
0000
0110
0000
1000
0000
0011
0000
1000
0100
0010
0000
0100
0000
,
1001
0000
0010
0000
1000
0100
0010
0001
0000
1000
0010
0100
0001
0000
1000
0000
,
0101
0000
0010
0000
1000
0010
0100
0001
0000
1000
0010
0100
0001
0000
0010
0000
,
1100
0000
0010
0000
1000
0001
0100
0010
0000
0100
0010
1000
0001
0000
0010
0000
,
1001
0000
0100
0000
1010
0000
0001
0000
0101
0000
1000
0010
0100
0000
1000
0000
,
0101
0000
0010
0000
1000
0010
1000
0001
0000
0100
0001
0100
0010
0000
1000
0000
,
0011
0000
0100
0000
0001
1000
0010
0100
0000
0010
1000
0001
1000
0000
0100
0000
,
0011
0000
1000
0000
0010
0100
1000
0001
0000
0010
0100
1000
0001
0000
0010
0000
,
1001
0000
0010
0000
0101
0000
1000
0000
0011
0000
1000
0100
0010
0000
0100
0000
,
1001
0000
0010
0000
1000
0100
0010
0001
0000
1000
0010
0100
0001
0000
1000
0000
,
0101
0000
0010
0000
1000
0010
0100
0001
0000
1000
0010
0100
0001
0000
0010
0000
,
1100
0000
0010
0000
0001
1000
0010
1000
0000
0001
0100
0010
1000
0000
0010
0000
,
1001
0000
0100
0000
1010
0000
0001
0000
0101
0000
1000
0010
0100
0000
1000
0000
,
0101
0000
0010
0000
1000
0100
0010
0001
0000
1000
0001
0100
0010
0000
1000
0000
,
0011
0000
0100
0000
0001
1000
0010
0100
0000
0010
1000
0001
1000
0000
0100
0000
,
0011
0000
0000
1100
0000
0000
1010
0000
0000
0001
1000
0100
1001
0000
MMMM
0000
,
1010
0000
0100
0000
1001
0000
0010
0000
1100
0000
0001
1000
0010
0000
0100
0000
,
1001
0000
0100
0000
1010
0000
0001
0000
0101
0000
1000
0010
0100
0000
0001
0000
,
1100
0000
0001
0000
0110
0000
1000
0000
0011
0000
1000
0010
0100
0000
0010
0000
,
1001
0000
1000
0000
0110
0000
0001
0000
1010
0000
1000
0001
0100
0000
1000
0000
,
0011
0000
0001
0000
1100
0000
0100
0000
0011
0000
1000
0100
0010
0000
1000
0000
,
0101
0000
0001
0000
1010
0000
0100
0000
1001
0000
0001
1000
0010
0000
1000
0000
,
0101
0000
0001
0000
0110
0000
0001
0000
1100
0000
0010
1000
0001
0000
0100
0000
,
1001
0000
0001
0000
0110
0000
1000
0000
0101
0000
1000
0100
0010
0000
0100
0000
,
1MM1
0000
0010
0000
0101
0000
0010
0000
1100
0000
0001
1000
0010
0000
0100
0000
,
1001
0000
0010
0000
0101
0000
0010
0000
1100
0000
0001
1000
0010
0000
0100
0000
,
1001
0000
0100
0000
1010
0000
0001
0000
0101
0000
1000
0010
0100
0000
0001
0000
,
1100
0000
0001
0000
0110
0000
1000
0000
0011
0000
1000
0010
0100
0000
0010
0000
,
1001
0000
1000
0000
0110
0000
0001
0000
1010
0000
1000
0001
0100
0000
1000
0000
,
0011
0000
0001
0000
1100
0000
0100
0000
0011
0000
1000
0100
0010
0000
1000
0000
,
0101
0000
0001
0000
1010
0000
0100
0000
1001
0000
0001
1000
0010
0000
0100
0000
,
1001
0000
0000
0110
0000
0000
0101
0000
0000
1000
0100
0010
2002
0000
3003
0000
,
0000
0000
0000
0000
,
0000
0000
0000
0000
,
0000
0000
0000
0000
,
0000
0000
0000
0000
,
0000
0000
0000
0000
;
