#TITLE:Fury of the Storm v2;
#SUBTITLE:;
#ARTIST:DragonForce;
#TITLETRANSLIT:;
#SUBTITLETRANSLIT:;
#ARTISTTRANSLIT:;
#CREDIT:;
#BANNER:fotsv2-bn.PNG;
#BACKGROUND:fotsv2-bg.PNG;
#LYRICSPATH:;
#CDTITLE:OMEGAspike.PNG;
#MUSIC:Fury of the Storm.mp3;
#OFFSET:-2.400;
#SAMPLESTART:252.000;
#SAMPLELENGTH:14.580;
#SELECTABLE:YES;
#BPMS:0.000=200.000;
#STOPS:;
#BGCHANGES:;
// cache tags:
#FIRSTBEAT:0.000;
#LASTBEAT:1344.500;
#SONGFILENAME:Songs/toune 2/(OMEGAspike)Fury of the Storm v2/Fury of the Storm.sm;
#HASMUSIC:1;
#HASBANNER:1;
#MUSICLENGTH:407.074;
// end cache tags

//---------------dance-single - ----------------
#NOTES:
     dance-single:
     :
     Hard:
     14:
     1.000,1.000,1.000,0.440,1.000,3730.000,708.000,179.000,0.000,36.000:
1001
0000
0001
0010
1000
0010
0101
1010
,
1001
0000
1000
0100
0010
0001
0100
0000
,
0101
0000
0100
0010
1000
0010
0100
0010
,
0001
0010
0100
1000
0001
0100
0010
1000
0100
0010
0001
0100
0020
0000
0000
0000
,
1130
0000
1000
0010
0001
0100
1000
0000
,
1001
0000
0100
0010
1000
0100
0010
0000
,
0101
1010
0101
1010
,
0110
0000
0000
0000
0000
0000
1001
0000
0000
0000
0000
0000
0110
0000
0000
0001
0100
0010
1100
0000
0000
0000
0000
0000
,
1001
0100
0010
1000
0100
0010
0100
0010
0001
0010
0100
1000
0001
0100
0010
0000
,
1100
0010
0100
1000
0010
0100
1000
0001
0010
0100
0001
0100
0010
1000
0100
0000
,
0110
0001
0010
0100
1000
0010
0100
0001
1000
0001
0100
0010
1000
0100
0010
0001
,
1000
0010
1000
0010
1000
0001
1000
0001
1000
0010
1000
0010
0002
0000
0000
0000
,
1013
0100
0001
0100
0010
1000
0001
0100
0001
1000
0100
0010
0100
0010
0001
0000
,
1100
0010
0001
0100
0010
0001
1000
0100
0010
1000
0100
0010
0001
0010
0100
0000
,
1010
0001
1000
0001
0100
0010
0001
1000
0100
0010
0100
1000
0010
0001
0100
0001
,
0010
0000
0000
0000
1000
0000
0000
0000
0010
0000
0000
0000
1000
0000
0000
0000
0010
0000
0000
0000
0001
0000
0000
0000
0010
0000
0000
0000
0001
0000
0000
0000
0010
0000
0000
0000
1000
0000
0000
0000
0010
0000
0000
0000
1000
0000
0000
0000
0002
0000
0000
0000
2000
0000
0000
0003
3002
0000
0000
0000
0003
0000
0000
0000
,
1010
0100
0010
0001
1000
0001
0100
0010
1000
0001
0010
0100
0002
0000
2003
0000
,
3101
0010
1000
0010
1000
0001
0100
0001
1000
0100
0010
0001
0010
0100
1000
0000
,
0101
0010
1000
0001
1000
0100
0010
0001
1000
0001
0100
0010
1000
0001
0010
0001
,
1000
0100
1000
0100
0010
0100
0010
0100
0010
0001
0010
0001
0020
0000
0000
0000
,
0131
1000
0100
0010
0001
1000
0100
0010
0001
0100
0010
1000
0100
0010
0001
0000
,
0101
0010
1000
0001
0100
0001
1000
0100
0010
0001
0010
0100
1000
0001
0100
0000
,
1000
0100
0010
0001
0100
0010
1000
0001
0100
0001
1000
0100
0010
0001
0010
0100
1000
0010
0100
0001
1000
0001
0100
0010
,
2000
0000
3020
0000
,
0032
0000
0000
0000
,
1003
0010
0100
0010
0001
0010
0100
0010
1000
0010
0100
0010
0001
0010
0100
0010
,
1000
0010
0100
0010
0001
0010
0100
0010
1000
0010
0100
0010
0001
0010
0100
0010
,
1000
0001
0010
0001
0100
0001
0010
0001
1000
0001
0010
0001
0100
0001
0010
0001
,
1000
0001
0010
0001
0100
0001
0010
0001
1000
0001
0010
0001
0100
0001
0010
0001
,
1000
0100
0010
0100
1000
0010
0100
0001
0010
0100
0010
0001
0100
0010
1000
0100
,
0010
0100
1000
0010
0100
0001
0010
0100
0010
0001
0100
0010
1000
0100
0010
0001
,
1000
0010
1000
0001
1000
0010
1000
0001
1000
0010
1000
0001
1000
0010
1000
0001
,
1000
0100
0001
0000
1000
0010
0001
0000
1000
0100
0001
0000
1000
0010
0001
0000
,
0010
0100
0010
0100
1000
0100
0010
0100
0001
0100
0010
0100
1000
0100
0010
0100
,
0001
0100
0010
0100
1000
0100
0010
0100
0001
0100
0010
0100
1000
0100
0010
0100
,
0001
1000
0010
1000
0001
0100
0010
0100
0001
1000
0010
1000
0001
0100
0010
0100
,
1001
0110
0001
1100
1010
0001
0110
1010
,
0001
0010
0100
0010
0001
0100
0010
1000
0100
0010
0100
1000
0010
0100
0001
0010
,
0100
0010
0001
0100
0010
1000
0100
0010
0100
1000
0010
0100
0001
0010
0100
0010
,
1000
0100
0010
0000
1000
0100
0010
0000
0001
0010
0100
0000
0001
0010
0100
0000
,
1010
0001
0010
0100
1000
0100
0010
0001
0100
0010
1000
0001
1000
0010
0100
0001
,
2000
0000
0000
0000
3020
0000
0000
0030
,
0101
1010
0001
1000
,
1001
0100
0001
0100
0001
0100
0001
0100
0001
0100
0001
0100
0001
0100
0001
0100
,
1010
0000
0001
1000
0001
1000
0011
0000
1000
0010
1000
0010
1000
0010
1000
0010
,
1001
0100
0010
0100
0010
0100
0010
0100
0010
0100
0010
0100
0010
0100
0010
0100
,
1001
0000
0000
0000
0000
0000
0000
0000
0000
0110
0000
0000
0000
0000
0000
0000
0000
0000
1001
0000
0000
0000
0000
0000
0000
0000
0000
0000
0000
0000
0001
0000
0000
0000
0000
0000
1000
0000
0100
0000
0010
0000
0001
0000
0000
0000
0000
0000
,
0101
1000
0010
1000
0010
1000
0010
1000
0010
1000
0010
1000
0010
1000
0010
1000
,
0011
0000
1000
0100
1000
0100
0011
0000
0100
0001
0100
0001
0100
0001
0100
0001
,
1010
0100
1000
0100
1000
0100
1000
0100
1000
0100
1000
0100
1000
0100
1000
0100
,
0001
0010
0100
1000
0100
0010
0001
0010
0100
1000
0100
0010
0001
0010
0100
1000
,
0100
0001
0010
0001
1000
0001
0010
0001
0100
0001
0010
0001
1000
0001
0010
0001
,
0100
0001
0010
0001
1000
0001
0010
0001
0100
0001
0010
0001
1000
0001
0010
0001
,
1000
0100
0010
0100
0001
0010
0100
0010
1000
0100
0010
0100
0001
0010
0100
0010
,
1000
0100
0010
0100
0001
0010
0100
0010
1000
0100
0010
0100
0001
0010
0100
0010
,
0001
0010
0100
1000
0010
0100
0010
0100
1000
0100
0010
0001
0100
0010
0100
0010
,
0001
0010
0100
1000
0010
0100
0010
0100
1000
0100
0010
0001
0100
0010
0100
0010
,
1000
0010
0001
0100
1000
0100
0001
0010
1000
0010
0001
0100
1000
0100
0001
0010
,
1000
0100
0010
0001
1000
0001
0100
0010
1000
0001
0100
0001
1000
0010
0100
0001
1000
0010
0100
0001
1000
0100
0010
0001
,
1100
0010
0100
0010
0100
0010
0100
0010
0100
0010
0100
0010
0100
0010
0100
0010
,
1001
0000
1000
0010
1000
0010
1001
0000
0100
0010
0100
0010
0100
0010
0100
0010
,
1100
0001
0100
0001
0100
0001
0100
0001
0100
0001
0100
0001
0100
0001
0100
0001
,
1010
0000
0000
0000
0000
0000
0000
0000
0000
1001
0000
0000
0000
0000
0000
0000
0000
0000
0101
0000
0000
0000
0000
0000
0000
0000
0000
0000
0000
0000
0100
0000
0000
0000
0000
0000
0001
0000
0010
0000
0100
0000
1000
0000
0000
0000
0000
0000
,
1001
0100
0001
0100
0001
0100
0001
0100
0001
0100
0001
0100
0001
0100
0001
0100
,
1010
0000
0001
1000
0001
1000
0001
1000
0110
0000
0001
0010
0001
0010
0001
0010
,
1100
0010
1000
0010
1000
0010
1000
0010
1000
0010
1000
0010
1000
0010
1000
0010
,
1000
0100
0010
0001
0010
0100
1000
0100
0010
0001
0010
0100
1000
0100
0010
0001
,
1100
0000
0000
0010
0000
0000
0100
0000
0000
1001
0000
0000
0010
0000
0000
0100
0000
0000
1001
0000
0000
1000
0100
0010
,
1001
0000
0000
0001
0000
0000
0100
0000
0000
0011
0000
0000
1000
0000
0000
0100
0000
0000
1100
0000
0000
0001
0010
0100
,
1010
0001
0010
1100
1000
0010
1001
0100
,
1001
0010
0001
0010
0001
0010
1001
0010
0100
1000
0100
1000
0101
1000
0100
1000
,
0101
0010
1000
0011
0100
0001
1100
0010
,
1100
0010
0001
1010
0100
1000
0110
0001
,
0110
1000
0001
1000
0011
0100
1001
0100
,
1100
0001
1000
0001
1000
0001
1100
0001
0100
0010
0100
0010
1100
0010
0100
0010
,
1001
0000
1001
0000
0010
0100
1001
0000
0101
0000
0011
0000
1000
0001
1010
0000
,
1001
0000
0110
0000
0100
1000
0011
0000
1100
0000
0011
0000
0100
0010
1100
0000
,
0011
0000
1010
0000
0001
0100
1001
0000
0110
0000
1010
0000
0100
0001
1010
0000
,
0101
0000
1010
0000
0100
1000
0101
0000
1001
0000
0110
0000
1000
0001
1100
0000
,
0110
0000
0011
0000
1000
0010
0101
0000
1001
0000
0110
0000
0010
1000
0101
0000
,
1001
0000
0110
0000
0010
0100
1010
0000
0110
0000
0011
0000
1000
0010
1001
0000
,
0011
0000
1010
0000
0010
1000
0101
0000
1010
0000
1001
0000
0100
0001
0110
0000
,
1000
0100
0010
0100
0000
0000
0010
0100
0010
0001
0000
0000
0010
0100
1000
0100
,
0011
1000
0100
1000
0100
0010
0001
0100
0010
1000
0010
0100
0001
1000
0100
0010
,
1001
0100
0010
1000
0001
0100
0011
1000
0001
0010
0100
0001
1100
0010
0001
0010
,
1100
0001
1000
0100
0001
1000
0011
0100
0001
0100
1000
0010
1001
0100
0001
0100
,
1001
0000
0110
0000
1000
0001
0110
0000
1100
0000
0011
0000
0100
0010
1001
0000
,
1001
0100
0010
0001
0010
0100
1001
0010
0100
1000
0100
0010
0101
0010
0100
1000
,
0011
1000
0100
0010
0001
0100
1010
0100
0001
0010
0100
1000
0011
0100
0010
0100
,
1010
0001
0010
0001
0010
0001
1010
0001
0010
0001
0010
0001
1010
0001
0010
0001
,
1010
0002
1003
0110
,
1001
0100
0010
1100
0001
0100
1001
0100
,
0101
1010
0001
0100
0011
1000
0101
0010
,
1001
0010
0100
0101
1000
0100
1010
0001
,
0110
0000
1010
0000
0001
0000
0100
0000
0011
0100
0010
0100
0011
0100
0010
0100
,
0011
1000
0001
1000
0010
0100
0011
0100
1000
0100
0010
0001
1100
0001
0010
0100
,
1001
0010
1000
0001
0100
0010
1100
0010
0100
0001
0010
0100
1010
0100
0010
0001
,
1010
0100
0001
0010
0100
1000
0011
1000
0100
0010
0001
1000
0110
0001
1000
0100
,
0011
0100
0011
0100
1000
0100
0010
0001
1010
0100
0001
0100
1010
0100
0001
0100
,
1001
0100
0001
1100
0010
1000
0101
0010
,
0101
1010
0001
0100
0011
1000
1100
0010
,
0101
0010
1000
0101
1000
0100
1001
0100
,
1001
0110
0001
1000
0010
1000
1001
1010
,
1002
0000
2003
3010
0000
0000
0100
0000
,
1001
0000
0000
0000
0000
0000
0000
0020
0000
0000
0000
0130
0000
0000
0000
1001
,
0000
0000
0000
1010
0000
0000
0101
0000
0000
0000
0110
0000
1001
0000
1010
0000
,
1001
0000
0000
0110
0000
0000
1001
0000
0000
0000
0110
0000
1010
0000
0101
0000
,
1010
0000
0000
0011
0000
0000
0110
0000
0000
0000
0110
0000
1001
0000
0110
0000
,
1001
0000
0000
1010
0000
0000
0202
0000
0303
0000
0110
0000
0101
0000
1010
0000
,
0011
0000
0000
1010
0000
0000
0011
0000
0000
0000
1010
0000
0101
0000
1010
0000
,
0110
0000
0000
1001
0000
0000
0220
0000
0330
0000
0011
0000
0110
0000
1010
0000
,
0101
0000
0000
1010
0000
0000
1001
0000
0000
0000
0110
0000
0101
0000
1010
0000
,
0101
0101
0000
1010
1010
0000
0110
0110
,
0101
0000
0000
1010
0000
0000
1001
0000
0000
0000
0110
0000
0011
0000
1100
0000
,
1000
0000
0100
0000
0010
0000
0001
0000
0000
0100
0000
0000
0010
0000
0000
1000
0000
0000
0002
0000
0000
0000
0000
0000
0003
0000
0000
0000
0000
0000
0110
0000
0000
0000
0000
0000
1001
0000
0000
0000
0000
0000
0110
0000
0000
0000
0000
0000
,
0001
0000
0010
0000
0100
0000
1000
0000
0000
0010
0000
0000
0100
0000
0000
0001
0000
0000
2000
0000
0000
0000
0000
0000
0000
0000
0000
0000
0000
0000
3001
0000
0000
0010
0000
0000
0100
0000
0000
1000
0000
0000
0001
0000
0000
0000
0000
0000
,
0110
0000
0000
1010
0000
0000
1001
0000
0000
0000
0110
0000
0011
0000
1010
0000
,
1001
0000
0000
1001
0000
0000
1001
0000
0000
0000
0110
0000
1010
0000
0101
0000
,
1000
0001
1000
0001
1000
0100
1000
0010
1000
0100
0010
0001
0010
0100
1000
0000
,
0101
0000
1010
0000
0001
0100
0010
1000
0010
0100
0001
0000
0100
0010
1000
0001
,
2010
3200
0000
0000
,
1301
0010
1000
0010
1000
0010
1000
0010
1000
0010
1000
0010
1000
0010
1000
0010
,
1100
0000
0100
0010
0100
0010
0101
0000
1000
0010
1000
0010
1000
0010
1000
0010
,
1001
0100
0001
0100
0001
0100
0001
0100
0001
0100
0001
0100
0001
0100
0001
0100
,
1001
0000
0000
0000
0000
0000
0000
0000
0000
0110
0000
0000
0000
0000
0000
0000
0000
0000
1010
0000
0000
0000
0000
0000
0000
0000
0000
0000
0000
0000
0001
0000
0000
0000
0000
0000
0010
0000
0100
0000
1000
0000
0100
0000
0000
0000
0000
0000
,
0011
0100
0010
0100
0010
0100
0010
0100
0010
0100
0010
0100
0010
0100
0010
0100
,
0011
0000
1000
0001
1000
0001
1000
0001
1010
0000
0001
0010
0001
0010
0001
0010
,
1100
0001
1000
0001
1000
0001
1000
0001
1000
0001
1000
0001
1000
0001
1000
0001
,
1000
0100
0010
0001
0010
0100
1000
0100
0010
0001
0010
0100
1000
0100
0010
0001
,
1010
0010
0100
0011
1000
0100
1010
0001
,
1010
0001
1000
0011
0100
0001
1010
0100
,
1001
0100
0010
1001
0100
0001
0110
1000
,
0011
0100
0001
1000
0010
0100
0001
1000
0010
0001
0010
0100
1000
0001
0010
0100
,
1010
0001
0110
1001
0101
1000
0101
1000
,
0101
0010
1001
1100
0010
0001
0110
1000
,
0101
1000
0010
1100
0001
1000
0011
0100
,
1001
0000
0010
0000
0101
0000
1010
0000
0001
0010
0100
0010
0001
0100
0010
1000
,
0101
0000
1010
0000
0001
0010
1100
0000
0110
0000
1010
0000
0001
1000
0011
0000
,
1001
0000
1100
0000
0010
0100
1001
0000
0101
0000
1100
0000
0001
0100
1010
0000
,
1001
0000
0110
0000
1000
0010
1100
0000
0101
0000
1010
0000
0001
0100
0011
0000
,
1100
0000
0110
0000
0001
1000
0110
0000
1001
0000
0110
0000
1000
0100
0011
0000
,
1001
0000
0101
0000
1000
0010
1100
0000
0110
0000
0101
0000
0001
1000
0011
0000
,
0110
0000
1010
0000
0100
0010
1100
0000
0101
0000
1001
0000
0100
1000
0101
0000
,
1001
0000
0110
0000
1000
0010
1001
0000
0101
0000
1010
0000
0100
0001
1100
0000
,
0110
0000
1001
0000
0010
1000
0101
0000
1000
0100
0010
0001
0010
0100
1000
0100
,
0011
0100
1000
0010
0100
0001
1000
0001
0010
0100
1000
0100
0010
0001
1000
0001
,
0100
0001
1000
0010
0100
0010
1000
0100
0010
0001
1000
0001
0100
0001
1000
0100
,
1001
0100
0001
0010
0100
1000
0011
1000
0100
0010
0001
1000
0011
0100
0010
0100
,
1001
0000
0101
0000
1000
0010
0101
0000
1100
0000
0011
0000
0100
0010
1001
0000
,
0101
0010
1000
0001
0100
0001
1010
0100
0001
0010
0100
1000
0011
1000
0100
0010
,
1001
0010
0100
1000
0001
1000
0101
0010
1000
0001
1000
0001
1100
0010
0001
1000
,
0011
0100
1000
0100
1000
0100
0011
0100
1000
0100
1000
0100
0011
0100
1000
0100
,
0011
0200
0310
1001
,
1001
0010
0100
0011
1000
0010
1001
0010
,
1010
0101
1000
0010
1100
0001
1010
0100
,
1001
0100
0010
1010
0001
0010
0101
1000
,
0110
0000
0101
0000
1000
0000
0010
0000
1100
0010
0001
0010
1100
0010
0001
0010
,
1100
0001
1000
0001
0100
0010
1100
0010
0001
0010
0100
1000
0011
1000
0100
0010
,
1001
0100
0001
1000
0010
0100
0011
0100
0010
1000
0100
0010
0101
0010
0100
1000
,
0101
0010
1000
0100
0010
0001
1100
0001
0010
0100
1000
0001
0110
1000
0001
0010
,
1100
0010
1100
0010
0001
0010
0100
1000
0101
0010
1000
0010
0101
0010
1000
0010
,
1001
0010
1000
0011
0100
0001
1010
0100
,
1010
0101
1000
0010
1100
0001
0011
0100
,
1010
0100
0001
1010
0001
0010
1001
0010
,
1001
0110
1000
0001
0100
0001
1001
0101
,
2001
0000
3002
0103
0000
0000
0010
0000
,
1001
0000
0000
0000
0000
0000
0000
0200
0000
0000
0000
0310
0000
0000
0000
1001
,
0000
0000
0000
0101
0000
0000
0220
0000
0000
0000
0000
0000
0000
0000
0330
0000
,
1001
0000
1100
0100
1100
0100
1100
0100
,
0101
0000
0110
0000
1010
0010
0110
0100
,
1100
0000
1001
0001
1001
0001
1001
0001
,
0110
0000
1001
0000
0110
0010
2020
0000
,
3131
0000
0101
0100
0101
0100
0101
0100
,
1100
0000
0011
0000
0110
0100
0101
0001
,
1001
0000
1010
1000
1010
1000
1010
1000
,
1001
0010
0100
0000
1001
0100
0010
0000
1010
0000
0010
0000
0022
0000
0000
0000
,
1133
1010
1100
1010
0101
0011
0101
0011
,
1001
1010
1001
0101
0110
1010
0110
1010
,
1001
0100
1010
0001
0110
1000
0101
0010
,
1001
0110
0000
0022
0000
0000
0000
0000
,
1133
0110
1010
0110
0101
1000
0110
0001
,
1010
0001
1100
0011
0000
2020
0000
0000
,
3130
0100
0001
0100
0100
1000
0100
0100
,
0001
0001
0100
0001
0001
1000
0001
0001
,
0110
1010
1010
0101
0011
0011
0110
1001
,
0110
0000
0000
0000
0000
0000
0001
0000
0000
1000
0100
0010
0001
0000
0000
0000
0000
0000
0000
0000
0000
0000
0000
0000
0110
0000
0000
0000
0000
0000
1000
0000
0000
0001
0010
0100
1000
0000
0000
0000
0000
0000
0000
0000
0000
0000
0000
0000
,
0110
1010
1010
0110
0011
0011
0110
1001
,
0110
0000
0000
0000
0000
0000
1000
0000
0000
0001
0100
0010
1000
0000
0000
0000
0000
0000
0000
0000
0000
0000
0000
0000
0110
0000
0000
0000
0000
0000
0001
0000
0000
1000
0010
0100
0001
0000
0000
0000
0000
0000
0000
0000
0000
0000
0000
0000
,
0101
0101
1010
1010
0110
0110
1001
1001
,
1010
1010
1001
1001
0101
0101
1001
1001
,
0100
0001
0010
0100
0000
0200
0000
0000
,
1300
0010
0100
0001
0000
0200
0000
0000
,
1301
0010
0100
1000
0001
0000
0000
0000
1001
0100
0010
0001
1000
0000
0000
0000
,
0101
0010
1000
0010
0100
0001
0100
0010
1000
0100
0010
0001
1100
0000
0000
0000
,
0011
1000
0100
0010
0001
0000
0000
0000
1001
0010
0100
1000
0001
0000
0000
0000
,
1100
0001
0100
0010
1000
0010
0100
0001
1000
0001
0100
0010
2001
0000
0000
0000
,
3101
0010
0100
0010
0100
0000
0000
0000
0011
1000
0001
1000
0001
0000
0000
0000
,
1001
0100
0010
0001
0010
0100
1000
0001
0100
0000
0010
0000
1100
0000
0000
0000
,
1001
0010
0100
0010
0001
0000
0000
0000
1001
0100
0010
0100
1000
0000
0000
0000
,
0001
0100
0001
0100
0001
1000
0001
1000
0010
0100
0010
0100
2002
0000
3003
0000
,
1000
0100
0010
0001
0010
0100
1000
0001
1000
0100
0010
0001
0010
0100
1000
0010
,
1000
0100
0010
0001
0010
0100
1000
0001
1000
0100
0010
0001
0200
0000
0000
0000
,
0301
1000
0010
0100
0001
0100
0010
1000
0001
1000
0100
0010
0001
0100
0010
1000
,
0001
0100
0010
1000
0100
0010
0001
0010
0200
0000
0000
0000
1300
0000
0000
0000
,
0011
0110
0101
1010
1001
0110
1001
1010
,
2002
3003
0100
0100
0020
0000
0000
0130
,
1000
0100
0010
0001
1000
0001
0010
0100
1000
0010
0100
0001
0020
0000
0000
0000
,
1030
0100
0010
0001
0010
0100
1000
0001
0100
0010
1000
0001
1000
0001
1000
0100
,
0022
0000
0000
0003
0232
0000
0000
0003
0322
0000
0000
0003
0232
0000
0013
0000
,
1300
0001
0100
0020
0000
1030
0100
0020
,
0000
0230
1301
0020
0131
2000
3011
0002
,
0113
0000
1000
0000
0200
0000
0302
0000
0000
0000
0203
0000
0302
0000
2003
3000
,
0101
1010
1001
1001
0000
0110
1010
1001
,
0110
0101
1010
1001
1100
0011
2020
0000
,
3131
0100
0100
1001
0001
0001
1100
1000
,
0001
0010
0100
0000
1000
0100
0010
0000
0001
0010
0100
0000
1000
0100
0010
0000
,
1001
0100
0010
0001
1000
0100
0010
0100
1000
0001
0010
0100
0001
1000
0010
0100
,
1001
0010
0100
0001
1000
0100
0010
0100
0010
0001
0010
0100
0001
1000
0010
0100
,
0011
0100
0010
1000
0100
0010
0001
1000
0010
0100
0001
1000
0001
0100
0001
1000
,
0011
0100
0010
1000
0001
0010
0100
0001
0100
1000
0100
0010
1000
0100
0001
0010
,
1100
0010
0001
1000
0010
0100
0010
1000
0001
0100
0010
0100
0001
1000
0100
0010
,
0101
0010
0100
1000
0010
0100
0001
1000
0001
0010
0100
0010
0001
1000
0100
0010
,
1001
0010
0100
1000
0001
0100
0010
1000
0001
1000
0001
0010
0100
0010
0001
1000
,
0110
0001
1000
0010
0100
1000
0010
0100
0001
0010
0001
0100
0010
0001
1000
0100
,
0011
0100
1000
0010
0100
1000
0001
0010
0100
1000
0010
0100
0001
0100
0010
1000
,
0001
0010
0100
1000
0010
0100
1000
0001
0100
0010
0100
0001
1000
0100
0010
0100
,
0001
0010
0100
1000
0010
0100
0001
1000
0001
0100
0010
1000
0001
0010
0100
0010
,
0001
0100
0010
0001
1000
0100
0010
0100
1000
0010
0100
1000
0001
0100
0010
1000
,
0001
0100
0001
1000
0100
0010
0100
1000
0001
0010
0100
1000
0001
1000
0010
0001
,
0100
0001
1000
0100
0001
1000
0010
0100
0001
1000
0100
0010
0001
1000
0010
1000
,
0001
0100
0001
1000
0100
0010
0001
0010
0100
1000
0010
1000
0001
0100
0001
1000
,
0010
0100
0001
0100
0010
1000
0001
0100
0010
1000
0100
0010
0001
0010
0100
1000
,
0011
0100
0001
1000
0100
0010
0100
0010
0001
1000
0010
0100
0001
0100
1000
0001
,
0010
0100
1000
0100
0010
0001
1000
0010
0100
0001
1000
0001
0010
0100
0010
0001
,
1000
0010
0100
0001
1000
0010
0100
0001
1000
0100
0010
0001
1000
0100
0010
0001
,
0100
0010
1000
0001
0100
0010
1000
0001
0010
1000
0001
0100
0010
1000
0001
0100
,
0001
0010
0100
1000
0010
0100
0001
1000
0100
0010
0001
1000
0001
0100
0010
1000
,
0001
0100
0001
1000
0100
0010
0100
1000
0010
0100
0010
0001
1000
0010
0100
0001
,
1000
0010
1000
0001
0100
0010
0100
0001
1000
0100
1000
0010
0100
0001
0100
0010
,
1000
0001
1000
0100
0001
0010
0001
0100
0010
1000
0010
0100
0001
0010
0001
0100
,
1001
0000
0110
0000
1000
0100
0010
0001
0010
0100
1001
0000
0110
0000
1010
0000
,
0101
0000
1001
0000
0010
1000
0010
0100
0010
1000
0011
0000
0110
0000
1010
0000
,
1001
0000
0101
0000
1000
0001
0100
0001
1000
0010
1001
0000
0101
0000
1010
0000
,
1100
0000
0011
0000
0100
1000
0001
1000
0010
0100
1001
0000
0110
0000
1010
0000
,
0110
0000
1001
0000
0010
0100
0001
1000
0001
0010
1100
0000
0011
0000
0110
0000
,
0101
0000
1010
0000
1000
0001
0100
0010
1000
0001
0100
0001
1000
0100
0010
0100
,
1001
1010
0110
1001
,
1100
0000
0000
0000
0000
0000
0011
0000
0000
0000
0000
0000
0110
0000
0000
1000
0001
0100
1010
0000
0000
0000
0000
0000
,
0010
1000
0010
1000
0010
0001
0010
0001
1000
0100
1000
0100
0010
0100
0010
0100
,
0002
0000
0023
0000
0000
0000
0130
0000
1000
0010
0100
0010
0002
0000
0000
0000
,
0103
1000
0010
0001
1000
0001
0010
0000
0001
1000
0010
0100
1000
0010
0100
0000
,
0202
0000
0000
0000
0000
0000
0000
0303
0202
0000
0000
0000
0000
0000
0000
0000
0323
0000
0000
0000
0000
0000
0000
0030
0020
0000
0000
0000
0000
0000
0000
0000
2230
0000
0000
0000
0000
0000
0000
3300
2200
0000
0000
0000
0000
0000
0000
0000
3302
0000
0000
0000
0000
0000
0000
0003
0002
0000
0000
0000
0000
0000
0000
0000
,
0103
0010
0001
1000
0011
1100
0101
1010
,
0001
0010
0100
0010
0001
1000
0100
0010
0100
1000
0010
0100
0002
0000
0000
0000
,
1013
0100
0001
0010
0001
0100
0010
0001
1100
0010
0001
0100
0010
0001
1000
0010
,
1000
0001
0100
0001
1000
0001
1000
0001
0010
0001
1000
0001
1000
0001
0100
0001
,
1010
0000
0101
0000
0110
0000
2002
3003
,
0110
0000
0101
0000
1010
0000
2002
3003
,
0001
0010
0100
1000
0100
0010
0001
1000
0001
0010
0100
1000
0020
0000
0000
0000
,
0230
0000
0000
0000
,
0301
0010
0100
1000
0100
0010
0001
0100
0010
1000
0001
1000
,
0001
0000
0000
0000
0100
0000
0000
0000
0010
0000
0000
0000
1000
0000
0000
0100
0000
0000
0010
0000
0000
0001
0000
0000
0010
0000
0000
0100
0000
0000
1000
0000
0000
0001
0000
0000
0200
0000
0000
0000
0000
0000
0000
0000
0000
0000
0000
0000
,
0302
0000
0000
0023
0000
0000
0230
0000
2300
0000
3002
0000
1003
0000
0000
0000
,
0002
0023
0032
2003
3020
2030
3002
0023
0032
2003
3020
2030
3002
0023
0032
2003
,
3100
0010
0001
0010
0100
1000
0100
0010
0001
0010
0100
1000
0200
0000
0000
0000
,
0301
1000
0100
0010
0001
1000
0001
0010
0100
1000
0001
0100
0020
0000
0000
0000
,
1030
0100
1000
0100
0010
0100
0010
0100
0010
0001
0010
0001
0010
0100
0010
0100
,
0001
0010
0100
1000
0020
0000
0230
0000
0301
1000
0010
0100
0002
0000
0023
0000
,
0130
1000
0010
0010
0000
0010
0100
0001
,
1000
0000
0001
0010
0000
0100
0200
0000
,
0310
0001
1000
0100
0000
0010
0001
0100
,
0010
0100
0000
0100
0001
0000
0020
0000
,
0130
0000
1000
0000
0100
0010
0001
0000
1000
0000
0001
0000
1000
0010
0001
0000
,
0100
0000
0010
0000
1000
0001
0010
0000
1000
0000
0010
0000
0100
1000
0001
0000
,
0010
0000
0100
0000
0100
0000
1000
0100
0010
0000
0010
0000
0100
0000
0001
0010
,
0001
0000
0010
0000
0100
0000
0100
0010
1000
0000
0010
0000
0001
0000
0010
0001
,
1000
0100
0010
0001
0100
0010
1000
0001
1000
0100
0010
0001
0100
0000
0100
0000
,
0001
0010
0100
1000
0001
0100
0010
1000
0100
0010
0001
0100
0010
0000
0010
0000
,
1000
0100
0010
0001
0100
0010
1000
0001
1000
0100
0010
0001
0100
0010
1000
0001
,
0100
0000
0010
0000
1000
0000
0100
0000
0010
0001
0010
0100
1000
0100
0010
0100
,
1001
0010
1000
0001
1000
0001
0010
0100
1010
0100
0010
0001
1000
0010
1000
0001
,
1100
0001
0100
0010
1000
0001
1000
0100
0011
0100
1000
0010
1000
0001
0100
0001
,
1010
0100
0001
1000
0001
0010
0100
1000
0011
1000
0100
0010
0001
0100
0010
0100
,
1001
0100
0010
0100
0001
0010
0100
1000
0011
1000
0100
0010
0001
1000
0001
0100
,
1001
0010
1000
0010
0001
0010
1000
0100
0001
0100
1000
0010
0100
0001
0010
0100
,
2000
3200
2300
3200
0312
2013
3012
2013
,
3002
0000
0023
0000
0230
0000
2300
3020
,
0230
0302
0203
0320
2030
0000
0000
0000
,
3001
0010
0100
1000
0100
0010
0001
0010
,
1000
0000
0000
0000
0000
0000
0000
0000
0010
0000
0000
0000
0000
0000
0000
0000
0001
0000
0000
0000
0000
0000
0000
0000
0100
0000
0000
0000
0000
0000
0000
0000
0020
0000
0000
0000
0000
0000
0000
0000
0000
0000
0000
0000
0000
0000
0000
0000
0200
0000
0000
0000
0002
0000
0000
0300
0200
0000
0000
0003
0002
0000
0000
0000
,
1333
0100
0010
0001
0010
0100
1000
0001
1000
0100
0010
0001
1000
0010
0100
0001
,
1000
0001
0010
0100
1000
0100
0010
0001
0200
0000
0320
0000
0230
0000
0000
0000
,
0301
0000
0010
0100
1000
0000
0001
0000
0100
0000
0010
0000
1000
0000
0001
0000
,
1000
0000
0100
0010
0001
0000
0100
0000
0010
0000
1000
0000
0002
0000
0000
0000
,
0103
1000
1000
0100
0010
0010
0100
0001
,
0100
0010
1000
0001
0200
0000
0000
0300
,
0022
0000
0000
0000
0000
0000
0000
0000
0000
0000
0000
0000
0000
0000
0000
0003
0232
0000
0000
0000
0000
0000
0000
0000
0000
0000
0000
0000
0000
0000
0000
0003
0322
0000
0000
0000
0000
0000
0000
0000
0000
0000
0000
0000
0000
0000
0000
0003
0232
0000
0000
0000
0000
0000
0000
0000
1313
0000
0000
0000
0000
0000
0000
0000
,
1001
0110
0101
2020
0000
3030
0002
0203
,
0310
0000
1000
0001
1000
0100
0010
0001
1000
0001
0010
0100
1000
0001
1000
0100
,
0010
0001
0100
0010
1000
0001
1000
0100
0020
0000
0000
0000
0000
0000
0030
0000
,
0001
1000
0010
0100
0001
1000
0100
0010
0001
1000
0001
0010
,
0100
0000
0000
0000
1000
0000
0000
0000
0010
0000
0000
0000
0100
0000
0000
0000
0001
0000
0000
0000
0100
0000
0000
0000
0010
0000
0000
1000
0000
0000
0100
0000
0000
0010
0000
0000
0002
0000
0000
0000
0000
0000
0000
0000
0000
0000
0000
0000
,
0103
1000
0100
0010
0100
0000
0001
0000
1000
0100
1000
0001
1000
0000
0100
0000
,
0010
0001
0010
1000
0010
0000
0100
0000
0001
1000
0010
1000
0002
0000
0000
0000
,
1003
0100
0010
0001
1000
0001
0100
0010
1000
0001
1000
0010
0100
0001
0100
0010
,
1000
0100
0010
0001
0010
0100
1000
0001
0100
0010
1000
0001
1000
0100
0010
0001
,
1000
0100
0010
0001
0100
0010
1000
0010
0100
0001
1000
0100
0010
0001
0010
0100
1000
0001
0100
0010
1000
0010
0100
0001
,
1000
0100
0010
0001
0010
0100
1000
0010
1000
0001
0100
0001
1000
0010
0100
0001
1000
0100
0010
0001
0010
0100
1000
0100
,
0002
0000
0000
0010
0000
0000
0100
0000
,
2003
0010
0000
0000
0001
0000
0001
0000
,
3200
0000
0000
0001
0000
0000
0001
0000
,
0320
1000
0000
0000
0100
0000
0100
0000
,
0032
0000
0010
0100
0000
0000
0100
0000
,
1000
0000
0010
0100
0000
0000
0103
0000
,
0101
0000
0000
1010
0000
0000
1001
0000
,
0101
1010
0000
0020
0130
0000
1001
0000
,
0101
0010
1000
0101
0010
0001
1100
0010
,
0101
1010
0001
0100
0010
1000
0101
0010
,
0101
0010
1000
1001
0100
0010
1010
0001
,
0110
1010
0001
0100
0011
1000
0101
0010
,
0101
0010
1000
0100
0010
0001
1010
0001
1000
0001
0100
0010
1100
0001
1000
0100
,
0011
1000
0010
0001
1000
0001
1100
0001
1000
0010
1000
0010
0101
0010
1000
0001
,
1010
0100
0010
0101
1000
0100
1010
0001
,
1010
0000
1001
0000
0010
0100
0010
0100
0001
0010
0001
0010
0001
0010
0001
0010
,
1001
0010
0100
0011
1000
0100
1010
0001
,
1010
1100
0010
0001
1100
0010
1100
0001
,
1010
0001
0100
0011
1000
0100
1010
0001
,
0110
1010
0001
0100
0010
1000
0101
1010
,
1001
0010
1100
0011
1000
0010
1100
0001
,
1010
0001
0100
0010
1001
0100
1010
0001
,
0110
1000
0011
1100
0010
0100
0001
0100
,
1000
0100
0010
0001
1000
0100
0010
0001
1000
0100
0010
0001
1000
0100
0010
0001
,
1200
0000
0320
1030
0000
0000
0001
0000
,
1010
0000
0000
0000
0000
0000
0000
0200
0000
0000
0000
0310
0000
0000
0000
1001
,
0000
0000
0000
1010
0000
0000
0202
0000
0000
0000
0000
0000
0000
0000
0303
0000
,
1001
0000
0000
1010
0000
0000
0101
0000
0000
0220
0000
0000
0000
0000
0000
0000
,
0000
0330
0000
0000
0000
0000
0000
0000
;

//---------------dance-single - flucking isnane!!1----------------
#NOTES:
     dance-single:
     flucking isnane!!1:
     Challenge:
     19:
     1.000,1.000,1.000,0.474,1.000,3823.000,1069.000,193.000,0.000,42.000:
1001
0000
0001
0010
1000
0010
0101
1010
,
1001
0000
1000
0100
0010
0001
0100
0000
,
0101
0000
0100
0010
1000
0010
0100
0010
,
0001
0010
0100
1000
0001
0100
0010
1000
0100
0010
0001
0100
0020
0000
0000
0000
,
1130
0000
1000
0010
0001
0100
1000
0000
,
1001
0000
0100
0010
1000
0100
0010
0000
,
0101
1010
0101
1010
,
0110
0000
0000
0000
0000
0000
1001
0000
0000
0000
0000
0000
0110
0000
0000
0001
0100
0010
1100
0000
0000
0000
0000
0000
,
1010
0001
0110
1000
0011
0100
1010
0100
1001
0010
0101
0010
1100
0010
0101
0000
,
1010
0100
1001
0010
0101
0010
1100
0010
1100
0010
1001
0100
0011
1000
0110
0000
,
1010
0100
1010
0001
0110
1000
0011
0100
1001
0010
1100
0001
0110
1000
0110
0001
,
1100
0010
1100
0010
0101
1000
0101
1000
0011
0100
0011
0100
0020
0000
0000
0000
,
1031
0100
1010
0100
0011
0100
1010
0100
1001
0010
0101
0010
1100
0001
0110
0000
,
1010
0100
1001
0010
0101
0010
1100
0010
1001
0010
1100
0001
1100
0010
1001
0000
,
0101
0010
1100
0010
1001
0100
0011
1000
0110
0001
1010
0100
0011
0100
1001
0100
,
0011
1000
0011
1000
0110
0001
0110
0001
1010
0100
1010
0100
0002
0000
0000
0000
,
1013
0100
1001
0100
0011
1000
0110
0001
1010
0100
1001
0010
0101
1000
0011
0000
,
1010
0100
1001
0010
0101
0010
1100
0001
1100
0010
0101
1000
0011
0100
1001
0000
,
0110
1000
0110
0001
1010
0100
1001
0100
0011
0100
1010
0100
1001
0010
1001
0100
,
0011
1000
0011
0100
1001
0010
1001
0100
0011
0100
0011
1000
0200
0000
0000
0000
,
1301
0010
1001
0100
1010
0100
0011
1000
0101
0010
1100
0001
0110
1000
0101
0000
,
1010
0001
1010
0100
1001
0010
0101
1000
0011
0100
1001
0100
0011
1000
0110
0000
,
1001
0100
0010
0001
1000
0001
0100
0010
1000
0011
1000
0010
0100
0001
0010
0100
1000
0001
0110
1000
0001
0100
0010
0001
,
2000
0000
3020
0000
,
0032
0000
0000
0000
0000
0000
0000
0000
0000
0000
0000
0000
0000
0000
0000
0000
0000
0000
0000
0000
0000
0000
0000
0000
0000
0000
0000
0000
0000
0000
0000
0000
0000
0000
0000
0000
0000
0000
0000
0000
0000
0000
0000
0000
0000
0000
0000
0000
0000
0000
0000
0000
0000
0000
0000
0000
0000
0000
0000
0000
0000
0000
0000
0003
,
1001
0010
0100
0010
1001
0010
0100
0010
1001
0010
0100
0010
1001
0010
0100
0010
,
1001
0010
0100
0010
1001
0010
0100
0010
1001
0010
0100
0010
1001
0010
0100
0010
,
1100
0001
0010
0001
1100
0001
0010
0001
1100
0001
0010
0001
1100
0001
0010
0001
,
1100
0001
0010
0001
1100
0001
0010
0001
1100
0001
0010
0001
1100
0001
0010
0001
,
1010
0100
0010
0100
1001
0010
0100
0001
1010
0100
0010
0001
1100
0010
1000
0100
,
0011
0100
1000
0010
1100
0001
0010
0100
1010
0001
0100
0010
1001
0100
0010
0001
,
1100
0010
1000
0001
1100
0010
1000
0001
1100
0010
1000
0001
1100
0010
1000
0001
,
1000
0100
0001
0000
1000
0010
0001
0000
1000
0100
0001
0000
1000
0010
0001
0000
,
0011
0100
0010
0100
1001
0100
0010
0100
0011
0100
0010
0100
1001
0100
0010
0100
,
0011
0100
0010
0100
1001
0100
0010
0100
0011
0100
0010
0100
1001
0100
0010
0100
,
0011
1000
0010
1000
0011
0100
0010
0100
0011
1000
0010
1000
0011
0100
0010
0100
,
1001
0110
0001
1100
1010
0001
0110
1010
,
1001
0010
0100
0010
1001
0100
0010
1000
0101
0010
0100
1000
0011
0100
0001
0010
,
1100
0010
0001
0100
0011
1000
0100
0010
0101
1000
0010
0100
1001
0010
0100
0010
,
1000
0100
0010
0000
1000
0100
0010
0000
0001
0010
0100
0000
0001
0010
0100
0000
,
1010
0001
0010
0100
1000
0100
0010
0001
0100
0010
1000
0001
1000
0010
0100
0001
,
2000
0000
0100
0000
0010
0000
0001
0000
0100
0000
0001
0000
3020
0000
0100
0000
1000
0000
0001
0000
0100
0030
1000
0000
,
0101
1010
0001
1000
,
1001
0100
0001
0100
0001
0100
0001
0100
0001
0100
0001
0100
0001
0100
0001
0100
,
1010
0000
0001
1000
0001
1000
0011
0000
1000
0010
1000
0010
1000
0010
1000
0010
,
1001
0100
0010
0100
0010
0100
0010
0100
0010
0100
0010
0100
0010
0100
0010
0100
,
1001
0000
0000
0000
0000
0000
0000
0000
0000
0110
0000
0000
0000
0000
0000
0000
0000
0000
1001
0000
0000
0000
0000
0000
0000
0000
0000
0000
0000
0000
0001
0000
0000
0000
0000
0000
1000
0000
0100
0000
0010
0000
0001
0000
0000
0000
0000
0000
,
0101
1000
0010
1000
0010
1000
0010
1000
0010
1000
0010
1000
0010
1000
0010
1000
,
0011
0000
1000
0100
1000
0100
0011
0000
0100
0001
0100
0001
0100
0001
0100
0001
,
1010
0100
1000
0100
1000
0100
1000
0100
1000
0100
1000
0100
1000
0100
1000
0100
,
0001
0010
0100
1000
0100
0010
0001
0010
0100
1000
0100
0010
0001
1000
0001
0010
,
1100
0001
0010
0001
1100
0001
0010
0001
1100
0001
0010
0001
1100
0001
0010
0001
,
1100
0001
0010
0001
1100
0001
0010
0001
1100
0001
0010
0001
1100
0001
0010
0001
,
1010
0100
0010
0100
1001
0010
0100
0010
1001
0100
0010
0100
1001
0010
0100
0010
,
1001
0100
0010
0100
1001
0010
0100
0010
1001
0100
0010
0100
1001
0010
0100
0010
,
1001
0010
0100
1000
0011
0100
0010
0100
1010
0100
0010
0001
1100
0010
0100
0010
,
1001
0010
0100
1000
0011
0100
0010
0100
1001
0100
0010
0001
1100
0010
0100
0010
,
1100
0010
0001
0100
1010
0100
0001
0010
1100
0010
0001
0100
1010
0100
0001
0010
,
1001
0100
0010
0001
1000
0001
0100
0010
1000
0011
0100
0001
1000
0010
0100
0001
1000
0010
1100
0001
1000
0100
0010
0001
,
1100
0010
0100
0010
0100
0010
0100
0010
0100
0010
0100
0010
0100
0010
0100
0010
,
1001
0000
1000
0010
1000
0010
1001
0000
0100
0010
0100
0010
0100
0010
0100
0010
,
1100
0001
0100
0001
0100
0001
0100
0001
0100
0001
0100
0001
0100
0001
0100
0001
,
1010
0000
0000
0000
0000
0000
0000
0000
0000
1001
0000
0000
0000
0000
0000
0000
0000
0000
0101
0000
0000
0000
0000
0000
0000
0000
0000
0000
0000
0000
0100
0000
0000
0000
0000
0000
0001
0000
0010
0000
0100
0000
1000
0000
0000
0000
0000
0000
,
1001
0100
0001
0100
0001
0100
0001
0100
0001
0100
0001
0100
0001
0100
0001
0100
,
1010
0000
0001
1000
0001
1000
0001
1000
0110
0000
0001
0010
0001
0010
0001
0010
,
1100
0010
1000
0010
1000
0010
1000
0010
1000
0010
1000
0010
1000
0010
1000
0010
,
1000
0100
0010
0001
0010
0100
1000
0100
0010
0001
0010
0100
1000
0100
0010
0001
,
1100
0000
0000
0010
0000
0000
0100
0000
0000
1001
0000
0000
0010
0000
0000
0100
0000
0000
1001
0000
0000
1000
0100
0010
,
1001
0000
0000
0001
0000
0000
0100
0000
0000
0011
0000
0000
1000
0000
0000
0100
0000
0000
1100
0000
0000
0001
0010
0100
,
1010
0001
0010
1100
1000
0010
1001
0100
,
1001
0010
0001
0010
0001
0010
1001
0010
0100
1000
0100
1000
0101
1000
0100
1000
,
0101
0010
1000
0011
0100
0001
1100
0010
,
1100
0010
0001
1010
0100
1000
0110
0001
,
0110
1000
0001
1000
0011
0100
1001
0100
,
1100
0001
1000
0001
1000
0001
1100
0001
0100
0010
0100
0010
1100
0010
0100
0010
,
1001
0000
1001
0000
0011
0100
1001
0000
0101
0000
0011
0000
1100
0001
1010
0000
,
1001
0000
0110
0000
0101
1000
0011
0000
1100
0000
0011
0000
0101
0010
1100
0000
,
0011
0000
1010
0000
1001
0100
1001
0000
0110
0000
1010
0000
0110
0001
1010
0000
,
0101
0000
1010
0000
0101
1000
0101
0000
1001
0000
0110
0000
1010
0001
1100
0000
,
0110
0000
0011
0000
1100
0010
0101
0000
1001
0000
0110
0000
0110
1000
0101
0000
,
1001
0000
0110
0000
0011
0100
1010
0000
0110
0000
0011
0000
1100
0010
1001
0000
,
0011
0000
1010
0000
0011
1000
0101
0000
1010
0000
1001
0000
1100
0001
0110
0000
,
1000
0100
0010
0100
0000
0000
0010
0100
0010
0001
0000
0000
0010
0100
1000
0100
,
0011
1000
0100
1000
0100
0010
0001
0100
0010
1000
0010
0100
0001
1000
0100
0010
,
1001
0100
0010
1000
0001
0100
0011
1000
0001
0010
0100
0001
1100
0010
0001
0010
,
1100
0001
1000
0100
0001
1000
0011
0100
0001
0100
1000
0010
1001
0100
0001
0100
,
1001
0000
0110
0000
1010
0001
0110
0000
1100
0000
0011
0000
1100
0010
1001
0000
,
1001
0100
0010
0001
0010
0100
1001
0010
0100
1000
0100
0010
0101
0010
0100
1000
,
0011
1000
0100
0010
0001
0100
1010
0100
0001
0010
0100
1000
0011
0100
0010
0100
,
1010
0001
0010
0001
0010
0001
1010
0001
0010
0001
0010
0001
1010
0001
0010
0001
,
1010
0002
1003
0110
,
1001
0100
0010
1100
0001
0100
1001
0100
,
0101
1010
0001
0100
0011
1000
0101
0010
,
1001
0010
0100
0101
1000
0100
1010
0001
,
0110
0000
1010
0000
0001
0000
0100
0000
0011
0100
0010
0100
0011
0100
0010
0100
,
0011
1000
0001
1000
0010
0100
0011
0100
1000
0100
0010
0001
1100
0001
0010
0100
,
1001
0010
1000
0001
0100
0010
1100
0010
0100
0001
0010
0100
1010
0100
0010
0001
,
1010
0100
0001
0010
0100
1000
0011
1000
0100
0010
0001
1000
0110
0001
1000
0100
,
0011
0100
0011
0100
1000
0100
0010
0001
1010
0100
0001
0100
1010
0100
0001
0100
,
1001
0100
0001
1100
0010
1000
0101
0010
,
0101
1010
0001
0100
0011
1000
1100
0010
,
0101
0010
1000
0101
1000
0100
1001
0100
,
1001
0000
0110
0000
0001
0010
0100
1000
0100
0010
0001
1000
0001
0100
0010
1000
,
0102
0000
2003
3010
0000
0000
0100
0000
,
1001
0000
0000
0000
0000
0000
0000
0020
0000
0000
0000
0130
0000
0000
0000
1001
,
0000
0000
0000
1010
0000
0000
0101
0000
0000
0000
0110
0000
1001
0000
1010
0000
,
1001
0000
0000
0110
0000
0000
1001
0000
0000
0000
0110
0000
1010
0000
0101
0000
,
1010
0000
0000
0011
0000
0000
0110
0000
0000
0000
0110
0000
1001
0000
0110
0000
,
1001
0000
0000
1010
0000
0000
0202
0000
0303
0000
0110
0000
0101
0000
1010
0000
,
0011
0000
0000
1010
0000
0000
0011
0000
0000
0000
1010
0000
0101
0000
1010
0000
,
0110
0000
0000
1001
0000
0000
0220
0000
0330
0000
0011
0000
0110
0000
1010
0000
,
0101
0000
0000
1010
0000
0000
1001
0000
0000
0000
0110
0000
0101
0000
1010
0000
,
0101
0101
0000
1010
1010
0000
0110
0110
,
0101
0000
0000
1010
0000
0000
1001
0000
0000
0000
0110
0000
0011
0000
1100
0000
,
1000
0100
0010
0001
0100
0010
1000
0001
1000
0002
0000
0000
0003
0000
0000
0110
0000
0000
1001
0000
0000
0110
0000
0000
,
0001
0000
0010
0000
0100
0000
1000
0000
0010
0000
0100
0000
0001
0000
1000
0000
0001
0000
2000
0000
0000
0000
0000
0000
0000
0000
0000
0000
0000
0000
3001
0000
0000
0010
0000
0000
0100
0000
0000
1000
0000
0000
0001
0000
0000
0000
0000
0000
,
0110
0000
0000
1010
0000
0000
1001
0000
0000
0000
0110
0000
0011
0000
1010
0000
,
1001
0000
0000
1001
0000
0000
1001
0000
0000
0000
0110
0000
1010
0000
0101
0000
,
1000
0001
1000
0001
1000
0100
1000
0010
1000
0100
0010
0001
0010
0100
1000
0000
,
0101
0000
1010
0000
0001
0100
0010
1000
0010
0100
0001
0000
0100
0010
1000
0001
,
2010
3200
0000
0000
,
1301
0010
1000
0010
1000
0010
1000
0010
1000
0010
1000
0010
1000
0010
1000
0010
,
1100
0000
0100
0010
0100
0010
0101
0000
1000
0010
1000
0010
1000
0010
1000
0010
,
1001
0100
0001
0100
0001
0100
0001
0100
0001
0100
0001
0100
0001
0100
0001
0100
,
1001
0000
0000
0000
0000
0000
0000
0000
0000
0110
0000
0000
0000
0000
0000
0000
0000
0000
1010
0000
0000
0000
0000
0000
0000
0000
0000
0000
0000
0000
0001
0000
0000
0000
0000
0000
0010
0000
0100
0000
1000
0000
0100
0000
0000
0000
0000
0000
,
0011
0100
0010
0100
0010
0100
0010
0100
0010
0100
0010
0100
0010
0100
0010
0100
,
0011
0000
1000
0001
1000
0001
1000
0001
1010
0000
0001
0010
0001
0010
0001
0010
,
1100
0001
1000
0001
1000
0001
1000
0001
1000
0001
1000
0001
1000
0001
1000
0001
,
1000
0100
0010
0001
0010
0100
1000
0100
0010
0001
0010
0100
1000
0100
0010
0001
,
1010
0010
0100
0011
1000
0100
1010
0001
,
1010
0001
1000
0011
0100
0001
1010
0100
,
1001
0100
0010
1001
0100
0001
0110
1000
,
0011
0100
0001
1000
0010
0100
0001
1000
0010
0001
0010
0100
1000
0001
0010
0100
,
1010
0001
0110
1001
0101
1000
0101
1000
,
0101
0010
1001
1100
0010
0001
0110
1000
,
0101
1000
0010
1100
0001
1000
0011
0100
,
1001
0000
0010
0000
0101
0000
1010
0000
0001
0010
0100
0010
0001
0100
0010
1000
,
0101
0000
1010
0000
1001
0010
1100
0000
0110
0000
1010
0000
0101
1000
0011
0000
,
1001
0000
1100
0000
0011
0100
1001
0000
0101
0000
1100
0000
0011
0100
1010
0000
,
1001
0000
0110
0000
1001
0010
1100
0000
0101
0000
1010
0000
1001
0100
0011
0000
,
1100
0000
0110
0000
0011
1000
0110
0000
1001
0000
0110
0000
1001
0100
0011
0000
,
1001
0000
0101
0000
1001
0010
1100
0000
0110
0000
0101
0000
0101
1000
0011
0000
,
0110
0000
1010
0000
0101
0010
1100
0000
0101
0000
1001
0000
0110
1000
0101
0000
,
1001
0000
0110
0000
1100
0010
1001
0000
0101
0000
1010
0000
1100
0001
1100
0000
,
0110
0000
1001
0000
0011
1000
0101
0000
1000
0100
0010
0001
0010
0100
1000
0100
,
0011
0100
1000
0010
0100
0001
1000
0001
0010
0100
1000
0100
0010
0001
1000
0001
,
0100
0001
1000
0010
0100
0010
1000
0100
0010
0001
1000
0001
0100
0001
1000
0100
,
1001
0100
0001
0010
0100
1000
0011
1000
0100
0010
0001
1000
0011
0100
0010
0100
,
1001
0000
0101
0000
1001
0010
0101
0000
1100
0000
0011
0000
1100
0010
1001
0000
,
0101
0010
1000
0001
0100
0001
1010
0100
0001
0010
0100
1000
0011
1000
0100
0010
,
1001
0010
0100
1000
0001
1000
0101
0010
1000
0001
1000
0001
1100
0010
0001
1000
,
0011
0100
1000
0100
1000
0100
0011
0100
1000
0100
1000
0100
0011
0100
1000
0100
,
0011
0200
0310
1001
,
1001
0010
0100
0011
1000
0010
1001
0010
,
1010
0101
1000
0010
1100
0001
1010
0100
,
1001
0100
0010
1010
0001
0010
0101
1000
,
0110
0000
0101
0000
1000
0000
0010
0000
1100
0010
0001
0010
1100
0010
0001
0010
,
1100
0001
1000
0001
0100
0010
1100
0010
0001
0010
0100
1000
0011
1000
0100
0010
,
1001
0100
0001
1000
0010
0100
0011
0100
0010
1000
0100
0010
0101
0010
0100
1000
,
0101
0010
1000
0100
0010
0001
1100
0001
0010
0100
1000
0001
0110
1000
0001
0010
,
1100
0010
1100
0010
0001
0010
0100
1000
0101
0010
1000
0010
0101
0010
1000
0010
,
1001
0010
1000
0011
0100
0001
1010
0100
,
1010
0101
1000
0010
1100
0001
0011
0100
,
1010
0100
0001
1010
0001
0010
1001
0010
,
1001
0110
1000
0001
0100
0001
1001
0101
,
2001
0000
3002
0103
0000
0000
0010
0000
,
1001
0000
0000
0000
0000
0000
0000
0200
0000
0000
0000
0310
0000
0000
0000
1001
,
0000
0000
0000
0101
0000
0000
0220
0000
0000
0000
0000
0000
0000
0000
0330
0000
,
1001
0000
1100
1100
1100
1100
1100
1100
,
0101
0000
0110
0000
1010
0011
0110
0101
,
1100
0000
1001
1001
1001
1001
1001
1001
,
0110
0000
1001
0000
0110
0011
2020
0000
,
3131
0000
0101
0101
0101
0101
0101
0101
,
1100
0000
0011
0000
0110
1100
0101
1001
,
1001
0000
1010
1010
1010
1010
1010
1010
,
1001
0010
0100
0000
1001
0100
0010
0000
1010
0000
0110
0000
0022
0000
0000
0000
,
1133
1010
1100
1010
0101
0011
0101
0011
,
1001
1010
1001
0101
0110
1010
0110
1010
,
1001
0100
1010
0001
0110
1000
0101
0010
,
1001
0110
0000
0022
0000
0000
0000
0000
,
1133
0110
1010
0110
0101
1000
0110
0001
,
1010
0001
1100
0011
0000
2020
0000
0000
,
3131
0100
0001
1100
0100
1000
0110
0100
,
1001
0001
0100
1001
0001
1000
0011
0001
,
0110
1010
1010
0101
0011
0011
0110
1001
,
0110
0000
0000
0000
0000
0000
0001
0000
0000
1000
0100
0010
0001
0000
0000
0000
0000
0000
0000
0000
0000
0000
0000
0000
0110
0000
0000
0000
0000
0000
1000
0000
0000
0001
0010
0100
1000
0000
0000
0000
0000
0000
0000
0000
0000
0000
0000
0000
,
0110
1010
1010
0110
0011
0011
0110
1001
,
0110
0000
0000
0000
0000
0000
1000
0000
0000
0001
0100
0010
1000
0000
0000
0000
0000
0000
0000
0000
0000
0000
0000
0000
0110
0000
0000
0000
0000
0000
0001
0000
0000
1000
0010
0100
0001
0000
0000
0000
0000
0000
0000
0000
0000
0000
0000
0000
,
0101
0101
1010
1010
0110
0110
1001
1001
,
1010
1010
1001
1001
0101
0101
1001
1001
,
0100
0001
0010
0100
0000
0200
0000
0000
,
1300
0010
0100
0001
0000
0200
0000
0000
,
1301
0010
0100
1000
0001
0000
0000
0000
1001
0100
0010
0001
1000
0000
0000
0000
,
0101
0010
1000
0010
0100
0001
0100
0010
1000
0100
0010
0001
1100
0000
0000
0000
,
0011
1000
0100
0010
0001
0000
0000
0000
1001
0010
0100
1000
0001
0000
0000
0000
,
1100
0001
0100
0010
1000
0010
0100
0001
1000
0001
0100
0010
2001
0000
0000
0000
,
3101
0010
0100
0010
0100
0000
0000
0000
0011
1000
0001
1000
0001
0000
0000
0000
,
1001
0100
0010
0001
0010
0100
1000
0001
0100
0000
0010
0000
1100
0000
0000
0000
,
1001
0010
0100
0010
0001
0000
0000
0000
1001
0100
0010
0100
1000
0000
0000
0000
,
0001
0100
0001
0100
0001
1000
0001
1000
0010
0100
0010
0100
2002
0000
3003
0000
,
0010
0100
0010
0100
0011
1000
0100
0010
0001
1000
0001
0100
1010
0100
0001
1000
,
0001
0000
0000
0000
0010
0000
0000
0000
0100
0000
0000
0000
1000
0000
0000
0000
0011
0000
0000
0000
1000
0000
0000
0000
0100
0000
0000
0000
0010
0000
0000
0000
0001
0000
0000
0000
1000
0000
0000
0000
0001
0000
0000
0000
1000
0000
0000
0000
0202
0000
0000
0000
0000
0000
0000
0000
0000
0000
0000
0000
0000
0000
0000
0003
,
0301
1000
0010
0100
1001
0100
0010
1000
0001
1000
0100
0010
1001
0100
0010
1000
,
0001
0000
0000
0000
0100
0000
0000
0000
0010
0000
0000
0000
1000
0000
0000
0000
0101
0000
0000
0000
1000
0000
0000
0000
0001
0000
0000
0000
0010
0000
0000
0000
2200
0000
0000
0000
0000
0000
0000
0000
0000
0000
0000
0000
0000
0000
0000
3000
1300
0000
0000
0000
0000
0000
0000
0000
0000
0000
0000
0000
0000
0000
0000
0000
,
0011
0110
0101
1010
1001
0110
1001
1010
,
2002
3003
0100
0100
0020
0000
0000
0130
,
1000
0000
0000
0000
0100
0000
0000
0000
0010
0000
0000
0000
0001
0000
0000
0000
1100
0000
0000
0000
0001
0000
0000
0000
0010
0000
0000
0000
0100
0000
0000
0000
1000
0000
0000
0000
0010
0000
0000
0000
0100
0000
0000
0000
0001
0000
0000
0000
2020
0000
0000
0000
0000
0000
0000
0000
0000
0000
0000
0000
0000
0000
0000
3000
,
1030
0100
0010
0001
1010
0100
1000
0001
0100
0010
1000
0001
1100
0001
1000
0100
,
0022
0000
0000
0000
0000
0000
0000
0003
0002
0000
0000
0000
0000
0000
0000
0003
0232
0000
0000
0000
0000
0000
0000
0003
0002
0000
0000
0000
0000
0000
0000
0003
0322
0000
0000
0000
0000
0000
0000
0003
0002
0000
0000
0000
0000
0000
0000
0003
0232
0000
0000
0000
0000
0000
0000
0003
0002
0000
0000
0000
0000
0000
0000
0003
,
0301
0010
0100
0020
0000
1030
0100
0020
,
0000
0230
1301
0020
0131
2000
3011
0002
,
0113
0000
1000
0000
0200
0000
0302
0000
0000
0000
0203
0000
0302
0000
2003
3000
,
0101
1010
1001
1001
0000
0110
1010
1001
,
0110
0101
1010
1001
1100
0011
2020
0000
,
3131
0100
0100
1001
0001
0001
1100
1000
,
0001
0010
0100
0000
1001
0100
0010
0000
0001
0010
0100
0000
1001
0100
0010
0000
,
1001
0100
0010
0001
1000
0100
0010
0100
1000
0001
0010
0100
0001
1000
0010
0100
,
1001
0010
0100
0001
1000
0100
0010
0100
0010
0001
0010
0100
0001
1000
0010
0100
,
0011
0100
0010
1000
0100
0010
0001
1000
0010
0100
0001
1000
0001
0100
0001
1000
,
0011
0100
0010
1000
0001
0010
0100
0001
0100
1000
0100
0010
1000
0100
0001
0010
,
1100
0010
0001
1000
0010
0100
0010
1000
0001
0100
0010
0100
0001
1000
0100
0010
,
0101
0010
0100
1000
0010
0100
0001
1000
0001
0010
0100
0010
0001
1000
0100
0010
,
1001
0010
0100
1000
0001
0100
0010
1000
0001
1000
0001
0010
0100
0010
0001
1000
,
0110
0001
1000
0010
0100
1000
0010
0100
0001
0010
0001
0100
0010
0001
1000
0100
,
0011
0100
1010
0100
1001
0010
0101
1000
0011
0100
1001
0010
1100
0010
1001
0100
,
0011
1000
0110
0001
1010
0100
0011
0100
1001
0100
0011
1000
0110
1000
0011
0100
,
1001
0010
0101
1000
0011
0100
1010
0100
1001
0010
0101
1000
0011
0100
1001
0010
,
0101
1000
0011
0100
1001
0010
1100
0001
0110
1000
0011
0100
1001
0010
0101
0010
,
1100
0001
0110
1000
0011
0100
1001
0010
1100
0001
0110
1000
0011
0100
1001
0100
,
1010
0001
0110
1000
0011
0100
1001
0010
0101
1000
0011
0100
1001
0010
1100
0010
,
0101
1000
0011
0100
0011
1000
0110
0001
1100
0001
1010
0100
1001
0010
0101
1000
,
0011
0100
1001
0010
1100
0001
0110
1000
0101
0010
1100
0001
1100
0010
0101
1000
,
0011
0100
1000
0100
0011
0100
0010
0100
0011
0100
1000
0100
0011
0100
0010
0100
,
1001
0100
0001
0100
1001
0010
0100
0010
1001
0100
0001
0100
1001
0010
0100
0010
,
0101
1000
0100
1000
0101
0010
0001
0010
0101
1000
0100
1000
0101
0010
0001
0010
,
1100
0010
0100
0010
1100
0001
0100
0001
1100
0010
0100
0010
1100
0001
0100
0001
,
1010
0100
0001
0100
1010
0001
1000
0001
1010
0100
0001
0100
1010
0001
1000
0001
,
0110
1000
0001
1000
0110
0001
0100
0001
0110
1000
0001
1000
0110
0001
0100
0001
,
1010
0100
0001
1000
0101
0010
1000
0001
1010
0100
0001
1000
0101
0010
1000
0001
,
1100
0010
1000
0100
0011
0100
1000
0010
1100
0010
0100
0001
1100
0001
0100
0010
,
1100
0010
1100
0001
1100
0010
1100
0001
1100
0010
1100
0001
1100
0010
1100
0001
,
1100
0010
0001
0010
1100
0001
1100
0010
0001
0010
1100
0001
1100
0010
0001
1000
,
0101
1000
0101
0010
0101
1000
0101
0010
0101
1000
0101
0010
0101
1000
0101
0010
,
0101
1000
0100
0010
0101
0010
0101
1000
0100
0010
0101
1000
0101
0010
1000
0100
,
1001
0010
1001
0100
1001
0010
1001
0100
1001
0010
1001
0100
1001
0010
1001
0100
,
1001
0010
0100
0010
1001
0100
1001
0010
0100
0010
1001
0100
1001
0010
0100
0010
,
1001
0100
0010
1000
0101
0010
0100
0001
1010
0100
0001
1000
0110
0001
0100
0010
,
1001
0000
0000
0100
0000
0000
0010
0000
0000
1000
0000
0000
0011
0000
0000
1000
0000
0000
0100
0000
0000
0001
0000
0000
0110
0000
0000
0000
0000
0000
1000
0000
0001
0000
0100
0000
1010
0000
0000
0000
0000
0000
0000
0000
0000
0000
0000
0000
,
0010
1000
0010
1000
0010
0001
0010
0001
1000
0100
1000
0100
0010
0100
0010
0100
,
0002
0000
0023
0000
0000
0000
0130
0000
1000
0010
0100
0010
0002
0000
0000
0000
,
0103
1000
0010
0001
1000
0001
0010
0000
0001
1000
0010
0100
1000
0010
0100
0000
,
0202
0000
0000
0000
0000
0000
0000
0303
0202
0000
0000
0000
0000
0000
0000
0000
0323
0000
0000
0000
0000
0000
0000
0030
0020
0000
0000
0000
0000
0000
0000
0000
2230
0000
0000
0000
0000
0000
0000
3300
2200
0000
0000
0000
0000
0000
0000
0000
3302
0000
0000
0000
0000
0000
0000
0003
0002
0000
0000
0000
0000
0000
0000
0000
,
0103
1000
0000
0000
0010
0100
0000
0000
0001
0010
0000
0000
1000
0100
0000
0000
0011
0100
0000
0000
1100
0010
0000
0000
0101
1000
0000
0000
1010
0001
0000
0000
,
0001
0010
0100
0010
0001
1000
0100
0010
0100
1000
0010
0100
0002
0000
0000
0000
,
1013
0100
0001
0010
0001
0100
0010
0001
1100
0010
0001
0100
0010
0001
1000
0010
,
1000
0001
0100
0001
1000
0001
1000
0001
0010
0001
1000
0001
1000
0001
0100
0001
,
1010
0101
0110
2002
,
3113
0000
0000
0000
0000
0000
0000
0000
0000
0000
0000
0000
0000
0000
0000
0000
0101
0000
0000
0000
0000
0000
0000
0000
0000
0000
0000
0000
0000
0000
0000
0000
1010
0000
0000
0000
0000
0000
0000
0000
0000
0000
0000
0000
0000
0000
0000
0000
2002
0000
0000
0000
0000
0000
0000
0000
0000
0000
0000
0000
0000
0000
0000
0003
,
3001
0010
0100
1000
0100
0010
0001
1000
0001
0010
0100
1000
0020
0000
0000
0000
,
0230
0010
0010
0010
,
0301
0010
0100
1000
0100
0010
0001
0100
0010
1000
0001
1000
,
0001
0000
0000
0000
0100
0000
0000
0000
0010
0000
0000
0000
1000
0000
0000
0100
0000
0000
0010
0000
0000
0001
0000
0000
0010
0000
0000
0100
0000
0000
1000
0000
0000
0001
0000
0000
0200
0000
0000
0000
0000
0000
0000
0000
0000
0000
0000
0000
,
0302
0000
0000
0023
0000
0000
0230
0000
2300
0000
3002
0000
1003
0000
0000
0000
,
0002
0023
0032
2003
3020
2030
3002
0023
0032
2003
3020
2030
3002
0023
0032
2003
,
3101
0000
0000
0000
0010
0000
0000
0000
0001
0000
0000
0000
0010
0000
0000
0000
0101
0000
0000
0000
1000
0000
0000
0000
0100
0000
0000
0000
0010
0000
0000
0000
1001
0000
0000
0000
0010
0000
0000
0000
0100
0000
0000
0000
1000
0000
0000
0000
0202
0000
0000
0000
0000
0000
0000
0000
0000
0000
0000
0000
0000
0000
0000
0003
,
1301
0000
0000
0000
0010
0000
0000
0000
0100
0000
0000
0000
0010
0000
0000
0000
0101
0000
0000
0000
1000
0000
0000
0000
0001
0000
0000
0000
1000
0000
0000
0000
0101
0000
0000
0000
1000
0000
0000
0000
0001
0000
0000
0000
0100
0000
0000
0000
2002
0000
0000
0000
0000
0000
0000
0000
0000
0000
0000
0000
0000
0000
0000
3000
,
1003
0100
0010
0000
0000
0000
0001
1000
0010
0000
0000
0000
0100
0001
0010
0000
0000
0000
0100
1000
0010
0000
0000
0000
0100
0010
0001
0000
0000
0000
0100
1000
0001
0000
0000
0000
0100
0010
1000
0000
0000
0000
0100
0010
0001
0000
0000
0000
,
1000
0100
0010
0001
0020
0000
0230
0000
0301
1000
0010
0100
0002
0000
0023
0000
,
0130
1000
0010
0010
0000
0010
0100
0001
,
1000
0000
0001
0010
0000
0100
0200
0000
,
0310
0001
1000
0100
0000
0010
0001
0100
,
0010
0100
0000
0100
0001
0000
0020
0000
,
0130
0000
1000
0000
0100
0010
0001
0000
0001
0000
0010
0000
1000
0010
0001
0000
,
0100
0000
0010
0000
1000
0001
0010
0000
1000
0000
0010
0000
0100
1000
0001
0000
,
0010
0000
0100
0001
0100
0000
1000
0000
0010
1000
0010
0000
0100
0000
0001
1000
,
0001
0000
0010
0000
0100
0001
0100
0000
1000
0000
0010
0000
0001
0000
0010
0000
,
1000
0000
0000
0000
0100
0000
0000
0000
0010
0000
0000
0000
0001
0000
0000
0000
0100
0000
0000
0000
0010
0000
0000
0000
1000
0000
0000
0000
0001
0000
0000
0000
1000
0000
0000
0000
0100
0000
0000
0000
0010
0000
0000
0000
0001
0000
0000
0000
0200
0000
0000
0000
0000
0000
0000
0300
0200
0000
0000
0000
0000
0000
0000
0000
,
0301
0000
0000
0000
0010
0000
0000
0000
0100
0000
0000
0000
1000
0000
0000
0000
0001
0000
0000
0000
0100
0000
0000
0000
0010
0000
0000
0000
1000
0000
0000
0000
0100
0000
0000
0000
0010
0000
0000
0000
0001
0000
0000
0000
0100
0000
0000
0000
0020
0000
0000
0000
0000
0000
0000
0030
0020
0000
0000
0000
0000
0000
0000
0000
,
1030
0100
0010
0001
0100
0010
1000
0001
1000
0100
0010
0001
0100
0010
1000
0001
,
0100
0000
0010
0000
1000
0000
0100
0000
0010
0001
0010
0100
1000
0100
0010
0100
,
1001
0100
0010
1000
0010
0100
0001
1000
0110
0001
1000
0010
0100
0001
1000
0001
,
1100
0010
0100
0001
1000
0010
0100
0010
1001
0100
0010
0001
0010
0100
1000
0100
,
0011
0100
1000
0010
0100
0001
1000
0001
1010
0100
0001
1000
0001
0010
0100
1000
,
0011
1000
0010
0100
1000
0001
0010
0100
0011
1000
0010
0100
0001
1000
0100
0010
,
1001
0100
0010
1000
0010
0100
0010
0001
0100
0001
0010
0100
0010
0001
1000
0010
,
0200
0000
0000
0000
0000
0000
0000
0300
0200
0000
0000
0000
0000
0000
0000
0300
0200
0000
0000
0000
0000
0000
0000
0300
0200
0000
0000
0000
0000
0000
0000
0000
2302
0000
0000
0000
0000
0000
0000
0000
3223
0000
0000
0000
0000
0000
0000
0000
2332
0000
0000
0000
0000
0000
0000
0000
3223
0000
0000
0000
0000
0000
0000
0000
,
0332
0000
0023
0000
0230
0000
2300
3020
,
0230
0302
0203
0320
2030
0000
0000
0000
,
3001
0010
0100
1000
0100
0010
0001
0010
,
1000
0000
0000
0000
0000
0000
0000
0000
0010
0000
0000
0000
0000
0000
0000
0000
0001
0000
0000
0000
0000
0000
0000
0000
0100
0000
0000
0000
0000
0000
0000
0000
0020
0000
0000
0000
0000
0000
0000
0000
0000
0000
0000
0000
0000
0000
0000
0000
0200
0000
0000
0000
0002
0000
0000
0300
0200
0000
0000
0003
0002
0000
0000
0000
,
1333
0100
0010
0001
0010
0100
1000
0001
1000
0100
0010
0001
1000
0010
0100
0001
,
1000
0001
0010
0100
1000
0100
0010
0001
0200
0000
0320
0000
0230
0000
0000
0000
,
0301
0000
0010
0100
1000
0000
0001
0000
0100
0000
0010
0000
1000
0000
0001
0000
,
1000
0000
0100
0010
0001
0000
0100
0000
0010
0000
1000
0000
0002
0000
0000
0000
,
0103
1000
1000
0100
0010
0010
0100
0001
,
0100
0010
1000
0001
0200
0000
0000
0000
,
0322
0000
0000
0000
0000
0000
0000
0000
0000
0000
0000
0000
0000
0000
0000
0003
0232
0000
0000
0000
0000
0000
0000
0000
0000
0000
0000
0000
0000
0000
0000
0003
0322
0000
0000
0000
0000
0000
0000
0000
0000
0000
0000
0000
0000
0000
0000
0003
0232
0000
0000
0000
0000
0000
0000
0000
1313
0000
0000
0000
0000
0000
0000
0000
,
1001
0110
0101
2020
0000
3030
0002
0203
,
0310
0000
1000
0001
1000
0100
0010
0001
1000
0001
0010
0100
1000
0001
1000
0100
,
0010
0001
0100
0010
1000
0001
1000
0100
0020
0000
0000
0000
0000
0000
0000
0000
,
0131
1000
0010
0100
0001
1000
0100
0010
0001
1000
0001
0010
,
0100
0000
0000
0000
1000
0000
0000
0000
0010
0000
0000
0000
0100
0000
0000
0000
0001
0000
0000
0000
0100
0000
0000
0000
0010
0000
0000
1000
0000
0000
0100
0000
0000
0010
0000
0000
0002
0000
0000
0000
0000
0000
0000
0000
0000
0000
0000
0000
,
0103
1000
0000
0000
0000
0000
0000
0000
0100
1000
0000
0000
0000
0000
0000
0000
0100
1000
0000
0000
0000
0000
0000
0000
0001
0010
0000
0000
0000
0000
0000
0000
1000
0100
0000
0000
0000
0000
0000
0000
1000
0100
0000
0000
0000
0000
0000
0000
1000
0100
0000
0000
0000
0000
0000
0000
0100
0001
0000
0000
0000
0000
0000
0000
,
0010
1000
0000
0000
0000
0000
0000
0000
0010
1000
0000
0000
0000
0000
0000
0000
0010
1000
0000
0000
0000
0000
0000
0000
0100
0010
0000
0000
0000
0000
0000
0000
0001
1000
0000
0000
0000
0000
0000
0000
0010
0100
0000
0000
0000
0000
0000
0000
0002
0020
0000
0000
0000
0000
0000
0000
0000
0000
0000
0000
0000
0000
0000
0000
,
1033
0100
0010
0001
1000
0001
0100
0010
1000
0001
1000
0010
0100
0001
0100
0010
,
1000
0100
0010
0001
0010
0100
1000
0001
0100
0010
1000
0001
1000
0100
0010
0001
,
1010
0100
0001
1000
0010
0100
0001
1000
0100
0010
0001
0010
0100
1000
0010
1000
0001
0100
0001
1000
0010
0100
0001
1000
,
0100
0010
0001
0010
0100
1000
0001
1000
0001
0010
0100
1000
0100
0010
0001
1000
0010
0100
0001
1000
0001
0010
0100
1000
,
0002
0000
0000
0010
0000
0000
0100
0000
,
2003
0010
0000
0000
0001
0000
0001
0000
,
3200
0000
0000
0001
0000
0000
0001
0000
,
0320
1000
0000
0000
0100
0000
0100
0000
,
0032
0000
0010
0100
0000
0000
0100
0000
,
1000
0000
0010
0100
0000
0000
0103
0000
,
0101
0000
0000
1010
0000
0000
1001
0000
,
0101
1010
0000
0020
0130
0000
1001
0000
,
0101
0010
1000
0101
0010
0001
1100
0010
,
0101
1010
0001
1000
0011
1000
0101
0010
,
0101
0010
1000
1001
0100
0010
1100
0001
,
0110
1010
0001
0100
1010
0001
1100
0010
,
0101
0010
1000
0100
0010
0001
1010
0100
1000
0001
0100
0010
1100
0001
1000
0100
,
1010
0001
0010
0100
1000
0001
0110
0001
1000
0010
1000
0010
0101
0010
1000
0001
,
1010
0100
0010
0101
1000
0100
1010
0001
,
1010
0000
1001
0000
0010
0100
0010
0100
0001
0010
0001
0010
0001
0010
0001
0010
,
1001
0010
0100
0011
1000
0100
1010
0001
,
1010
1100
0010
0001
0101
0110
1000
0001
,
1010
0001
0100
0011
1000
0100
1010
0001
,
0110
1010
0001
0100
0010
1000
0101
0010
,
1001
0010
1100
0011
1000
0010
1100
0001
,
1010
0001
0100
0010
1001
0100
1010
0001
,
0110
1000
0011
1100
0010
0100
0001
0100
,
1000
0100
0010
0001
1000
0100
0010
0001
1000
0100
0010
0001
1000
0100
0010
0001
,
0200
0000
0320
1030
0000
0000
0001
0000
,
1010
0000
0000
0000
0000
0000
0000
0200
0000
0000
0000
0310
0000
0000
0000
1001
,
0000
0000
0000
1010
0000
0000
0202
0000
0000
0000
0000
0000
0000
0000
0303
0000
,
1001
0000
0000
1010
0000
0000
0101
0000
0000
0220
0000
0000
0000
0000
0000
0000
,
0000
0330
0000
0000
0000
0000
0000
0000
;
