#TITLE:A Brighter Day;
#SUBTITLE:;
#ARTIST:NAOKI ft. Aleisha G;
#TITLETRANSLIT:;
#SUBTITLETRANSLIT:;
#ARTISTTRANSLIT:;
#CREDIT:Zeph;
#BANNER:../Zeppelin_bn.png;
#BACKGROUND:../bg_Zeppelin.png;
#LYRICSPATH:;
#CDTITLE:../cdtitle_ZAiA.png;
#MUSIC:Naoki ft. Aleisha G - A Brighter Day.ogg;
#OFFSET:1.777;
#SAMPLESTART:66.757;
#SAMPLELENGTH:24.960;
#SELECTABLE:YES;
#DISPLAYBPM:155.000;
#BPMS:0.000=155.172,4.000=154.999;
#STOPS:;
#BGCHANGES:;
// cache tags:
#FIRSTBEAT:12.000;
#LASTBEAT:280.000;
#SONGFILENAME:Songs/Cirque du Zeppelin/A Brighter Day - [Zeph + Zaia]/A Brighter Day.sm;
#HASMUSIC:1;
#HASBANNER:1;
#MUSICLENGTH:112.822;
// end cache tags

//---------------dance-single - 8/15-8----------------
#NOTES:
     dance-single:
     8/15-8:
     Challenge:
     12:
     0.946,1.000,0.106,0.177,1.000,715.000,12.000,20.000,0.000,0.000:
0000
0000
0000
0000
,
0000
0000
0000
0000
,
0000
0000
0000
0000
,
1000
0000
0000
0001
0000
0010
0100
1000
,
0010
0100
0001
1000
0000
0100
0010
0001
,
0100
0000
0000
0010
0000
1000
0100
1000
,
0001
0100
0010
1000
0000
0100
0010
0100
,
1000
0000
0000
0001
0010
0000
0000
0100
,
1000
0001
0100
0001
,
0010
0100
1000
0001
0000
0000
0000
0000
,
1000
0001
0100
0010
,
1000
0000
0000
0100
0000
0010
0001
1000
,
0010
0100
0001
1000
0000
0001
0010
0001
,
1000
0000
0000
0100
0000
1000
0010
0100
,
0001
0010
0100
1000
0000
0001
0100
0010
,
1000
0000
0000
0100
0010
0000
0000
0001
,
1000
0000
0000
0010
1000
0000
0000
0001
,
0010
0000
0000
0100
1000
0000
0000
0000
,
0002
0023
0032
2003
,
3001
0100
0001
1000
0010
0100
0010
1000
0100
1000
0001
0010
0001
0100
0001
1000
,
0010
1000
0100
1000
0001
0010
0100
1000
0010
1000
0001
0100
0001
0010
0001
1000
,
0100
1000
0010
1000
0001
0100
0010
0100
0001
0010
0001
1000
0100
1000
0010
1000
,
0001
0100
0001
0010
0001
1000
0100
0010
0001
0100
0001
1000
0010
1000
0100
1000
,
0001
0100
0010
0100
0001
1000
0001
0010
0100
1000
0100
1000
0001
0100
0010
0100
,
0001
0010
0100
0010
0001
1000
0001
0100
0010
1000
0010
1000
0001
0010
0100
0010
,
0001
1000
0010
0100
0010
1000
0001
1000
0100
0010
0001
0010
0001
1000
0010
0100
,
0010
1000
0100
0010
0100
1000
0001
1000
0010
0100
0001
0100
0001
1000
0100
0010
,
0001
0000
1000
0000
0010
0000
0100
0000
0010
1000
0000
0001
0000
0000
0010
0000
,
0100
0000
1000
0000
0010
0000
1000
0000
0001
0010
0000
0001
0000
0000
1000
0000
,
0010
0000
0100
0000
0001
0000
1000
0000
0100
0010
0000
0001
0000
0000
0100
0000
,
0010
0000
0100
0000
0001
0000
1000
0000
0100
0010
0000
0100
0000
0000
1000
0000
,
0010
0000
0100
0000
0001
0000
1000
0000
0001
0010
0000
0100
0000
0000
1000
0000
,
1010
0110
0101
0011
,
2001
0000
0000
0000
0000
0000
0100
0000
0100
0000
0000
0000
0000
0000
0000
3000
,
0001
0000
1000
0000
0001
0000
0010
0000
0100
1000
0000
0001
0000
0000
0100
0000
,
0010
1000
1010
0000
1000
0100
1100
0000
,
0001
0010
0011
0000
1000
0001
0101
0000
,
0001
0010
1001
0000
1000
0100
0110
0010
,
0001
0010
0001
0100
0010
1000
0010
0100
,
0101
0000
0000
0000
0000
0000
0001
0000
0200
0000
0000
0302
0000
0000
0023
0000
,
0230
0000
0000
0320
0000
0000
0032
0000
0203
0000
0000
0320
0000
0000
2030
0000
,
3001
0010
0100
1000
0001
0100
0010
1000
,
0001
0010
0001
0000
1000
0100
1000
0000
0010
0100
0010
0000
0100
0001
1000
0010
,
1000
0000
0000
0002
2000
0000
0000
3003
,
0001
1000
0100
1000
0001
0100
0020
0000
0000
0000
0000
0000
2030
0000
0000
0000
0000
0000
3002
0000
0000
0000
0000
0000
,
1003
0010
1000
0001
0100
0010
0100
0001
0010
0001
1000
0100
1000
0010
1000
0001
,
0100
0001
0010
0001
1000
0100
0010
0001
0100
0001
1000
0010
1000
0100
1000
0001
,
0010
0001
0100
0001
1000
0010
0100
0010
1000
0100
1000
0001
0010
0001
0100
0001
,
1000
0010
1000
0100
1000
0001
0010
0100
1000
0010
1000
0001
0100
0001
0010
0001
,
1000
0010
0100
0010
1000
0001
1000
0100
0010
0001
0010
0001
1000
0010
0100
0010
,
1000
0001
0100
0010
1000
0001
0010
0100
1000
0001
0100
0001
0100
0010
1000
0100
,
1000
0001
0010
0001
0100
0010
0100
0001
1000
0001
0010
0100
1000
0001
1000
0010
,
0100
0001
0010
0100
0010
0001
1000
0001
0100
0010
1000
0010
1000
0001
0010
0100
,
1000
0010
1000
0001
0100
0001
1000
0100
0010
0100
1000
0001
1000
0010
0100
0001
,
0010
0001
1000
0100
1000
0010
0100
0001
1000
0001
0010
0100
1000
0100
0010
0001
,
1000
0001
0100
0010
0100
0001
1000
0001
0010
0001
1000
0100
0010
0100
1000
0001
,
0010
0001
0100
0010
1000
0001
1000
0100
0010
0100
1000
0001
1000
0010
0100
0001
,
0010
0100
0010
0100
1000
0001
0010
0001
0100
0010
1000
0001
0100
0010
0100
0001
,
0010
0100
1000
0001
0010
0001
1000
0100
1000
0010
0100
0001
0100
0010
1000
0100
,
0010
0100
1000
0001
0010
0001
1000
0001
0100
0010
1000
0001
1000
0100
0010
0100
,
1000
0001
1000
0000
0001
0100
0001
0000
1000
0010
1000
0001
1000
0100
0010
0001
,
1000
0010
0100
0010
1000
0001
1000
0100
0010
0001
0010
0001
1000
0010
0100
0010
,
1000
0100
0010
0100
1000
0001
1000
0010
0100
0001
0100
0001
1000
0100
0010
0100
,
1000
0001
0100
0010
0100
0001
1000
0001
0010
0100
1000
0100
1000
0001
0100
0010
,
0100
0001
0010
0100
0010
0001
1000
0001
0100
0010
1000
0010
1000
0001
0010
0100
,
1000
0010
0100
0010
1000
0001
1000
0010
0100
0001
0100
0001
1000
0100
0010
0100
,
1000
0010
0100
0010
1000
0001
1000
0100
0010
0001
0010
0001
1000
0010
0100
0010
,
1000
0001
0010
0100
0010
0001
1000
0001
0100
0010
1000
0010
1000
0001
0010
0100
,
0010
0001
0100
0010
0100
0001
1000
0001
0010
0100
1000
0001
0100
0000
0001
1000
,
0200
0000
0000
0000
,
0300
0000
0000
0000
;

//---------------dance-single - 8/8----------------
#NOTES:
     dance-single:
     8/8:
     Hard:
     11:
     0.796,1.000,0.106,0.248,0.687,589.000,12.000,28.000,0.000,0.000:
0000
0000
0000
0000
,
0000
0000
0000
0000
,
0000
0000
0000
0000
,
1000
0000
0000
0001
0000
0010
0100
1000
,
0010
0100
0001
1000
0000
0100
0010
0001
,
0100
0000
0000
0010
0000
1000
0100
1000
,
0001
0100
0010
1000
0000
0100
0010
0100
,
1000
0000
0000
0001
0010
0000
0000
0100
,
1000
0001
0100
0001
,
0010
0100
1000
0001
0000
0000
0000
0000
,
1000
0001
0100
0010
,
1000
0000
0000
0100
0000
0010
0001
1000
,
0010
0100
0001
1000
0000
0001
0010
0001
,
1000
0000
0000
0100
0000
1000
0010
0100
,
0001
0010
0100
1000
0000
0001
0100
0010
,
1000
0000
0000
0100
0010
0000
0000
0001
,
1000
0000
0000
0010
1000
0000
0000
0001
,
0010
0000
0000
0100
1000
0000
0000
0000
,
0002
0023
0032
2003
,
3001
0100
0001
1000
0010
0100
0010
1000
0100
1000
0001
0010
0001
0100
0001
1000
,
0010
1000
0100
1000
0001
0010
0100
1000
0010
1000
0001
0100
0001
0010
0001
1000
,
0100
1000
0010
1000
0001
0100
0010
0100
0001
0010
0001
1000
0100
1000
0010
1000
,
0001
0100
0001
0010
0001
1000
0100
0010
0001
0100
0001
1000
0010
1000
0100
1000
,
0001
0100
0010
0100
0001
1000
0001
0010
0100
1000
0100
1000
0001
0100
0010
0100
,
0001
0010
0100
0010
0001
1000
0001
0100
0010
1000
0010
1000
0001
0010
0100
0010
,
0001
1000
0010
0100
0010
1000
0001
1000
0100
0010
0001
0010
0001
1000
0010
0100
,
0010
1000
0100
0010
0100
1000
0001
1000
0010
0100
0001
0100
0001
1000
0100
0010
,
0001
0000
1000
0000
0010
0000
0100
0000
0010
1000
0000
0001
0000
0000
0010
0000
,
0100
0000
1000
0000
0010
0000
1000
0000
0001
0010
0000
0001
0000
0000
1000
0000
,
0010
0000
0100
0000
0001
0000
1000
0000
0100
0010
0000
0001
0000
0000
0100
0000
,
0010
0000
0100
0000
0001
0000
1000
0000
0100
0010
0000
0100
0000
0000
1000
0000
,
0010
0000
0100
0000
0001
0000
1000
0000
0001
0010
0000
0100
0000
0000
1000
0000
,
1010
0110
0101
0011
,
2001
0000
0000
0000
0000
0000
0100
0000
0100
0000
0000
0000
0000
0000
0000
3000
,
0001
0000
1000
0000
0001
0000
0010
0000
0100
1000
0000
0001
0000
0000
0100
0000
,
0010
1000
1010
0000
1000
0100
1100
0000
,
0001
0010
0011
0000
1000
0001
0101
0000
,
0001
0010
1001
0000
1000
0100
0110
0010
,
0001
0010
0001
0100
0010
1000
0010
0100
,
0101
0000
0000
0000
0000
0000
0001
0000
0200
0000
0000
0302
0000
0000
0023
0000
,
0230
0000
0000
0320
0000
0000
0032
0000
0203
0000
0000
0320
0000
0000
2030
0000
,
3001
0010
0100
1000
0001
0100
0010
1000
,
0001
0010
0001
0000
1000
0100
1000
0000
0010
0100
0010
0000
0100
0001
1000
0010
,
1000
0000
0000
0002
2000
0000
0000
3003
,
0002
0000
0000
0003
0000
0000
0000
0000
0000
0000
0000
0000
0200
0000
0000
0000
0000
0000
0300
0000
0000
0000
0000
0000
0002
0000
0000
0000
0000
0000
0000
0000
0003
0000
0000
0000
2000
0000
0000
0000
0000
0000
0000
0000
0000
0000
0000
0000
3020
0000
0000
0000
0000
0000
0000
0000
0000
0000
0000
0000
0000
0000
0000
0000
0000
0000
0000
0000
0000
0000
0000
0000
0000
0000
0000
0000
0000
0000
0000
0000
0000
0000
0000
0000
0000
0000
0000
0000
0000
0000
0000
0000
0000
0000
0000
0000
2030
0000
0000
0000
0000
0000
0000
0000
0000
0000
0000
0000
0000
0000
0000
0000
0000
0000
0000
0000
0000
0000
0000
0000
0000
0000
0000
0000
0000
0000
0000
0000
0000
0000
0000
0000
0000
0000
0000
0000
0000
0000
0000
0000
0000
0000
0000
0000
3002
0000
0000
0000
0000
0000
0000
0000
0000
0000
0000
0000
0000
0000
0000
0000
0000
0000
0000
0000
0000
0000
0000
0000
0000
0000
0000
0000
0000
0000
0000
0000
0000
0000
0000
0000
0000
0000
0000
0000
0000
0000
0000
0000
0000
0000
0000
0000
,
1003
0100
0010
0100
1000
0001
0100
0010
,
0100
0001
0010
0001
1000
0100
1000
0001
,
0100
0010
1000
0001
0010
0100
1000
0010
,
1000
0001
0100
0001
0010
0001
1000
0100
,
0010
0100
1000
0001
0100
0010
0100
0001
,
1000
0010
1000
0001
0010
0100
1000
0001
,
0100
0010
0100
0001
1000
0100
0010
0001
,
0200
0302
0023
0230
,
1300
0010
0100
0010
1000
0100
1000
0001
,
0010
0001
0100
0001
1000
0100
0010
0001
,
1000
0010
0100
0001
1000
0100
1000
0010
,
1000
0001
0100
0010
0100
0001
1000
0001
,
0010
0100
0010
0001
1000
0001
0100
0001
,
1000
0100
1000
0010
0100
0001
1000
0001
,
0010
0100
1000
0001
0100
0001
1000
0010
,
1000
0001
1000
0000
0001
0100
0001
0000
1000
0010
1000
0001
1000
0100
0010
0001
,
1000
0010
0100
0010
1000
0001
1000
0100
0010
0001
0010
0001
1000
0010
0100
0010
,
1000
0100
0010
0100
1000
0001
1000
0010
0100
0001
0100
0001
1000
0100
0010
0100
,
1000
0001
0100
0010
0100
0001
1000
0001
0010
0100
1000
0100
1000
0001
0100
0010
,
0100
0001
0010
0100
0010
0001
1000
0001
0100
0010
1000
0010
1000
0001
0010
0100
,
1000
0010
0100
0010
1000
0001
1000
0010
0100
0001
0100
0001
1000
0100
0010
0100
,
1000
0010
0100
0010
1000
0001
1000
0100
0010
0001
0010
0001
1000
0010
0100
0010
,
1000
0001
0010
0100
0010
0001
1000
0001
0100
0010
1000
0010
1000
0001
0010
0100
,
0010
0001
0100
0010
0100
0001
1000
0001
0010
0100
1000
0001
0100
0000
0001
1000
,
0200
0000
0000
0000
,
0300
0000
0000
0000
;

//---------------dance-single - ----------------
#NOTES:
     dance-single:
     :
     Medium:
     9:
     0.641,0.714,0.106,0.248,0.142,466.000,12.000,28.000,0.000,0.000:
0000
0000
0000
0000
,
0000
0000
0000
0000
,
0000
0000
0000
0000
,
1000
0000
0000
0001
0000
0010
0100
1000
,
0010
0100
0001
1000
0000
0100
0010
0001
,
0100
0000
0000
0010
0000
1000
0100
1000
,
0001
0100
0010
1000
0000
0100
0010
0100
,
1000
0000
0000
0001
0010
0000
0000
0100
,
1000
0001
0100
0001
,
0010
0100
1000
0001
0000
0000
0000
0000
,
1000
0001
0100
0010
,
1000
0000
0000
0100
0000
0010
0001
1000
,
0010
0100
0001
1000
0000
0001
0010
0001
,
1000
0000
0000
0100
0000
1000
0010
0100
,
0001
0010
0100
1000
0000
0001
0100
0010
,
1000
0000
0000
0100
0010
0000
0000
0001
,
1000
0000
0000
0010
1000
0000
0000
0001
,
0010
0000
0000
0100
1000
0000
0000
0000
,
0002
0023
0032
2003
,
3001
0010
0100
0010
0001
1000
0010
0100
,
0010
1000
0100
1000
0001
0010
0001
1000
,
0010
0100
0001
1000
0100
0010
0001
0100
,
0001
1000
0010
1000
0100
1000
0001
0010
,
0100
0010
0001
1000
0010
0100
0010
1000
,
0001
0100
0001
1000
0100
0010
0001
1000
,
0010
0100
0010
1000
0001
0010
0100
1000
,
0001
0100
0001
0000
1000
0000
0100
0000
0010
0000
0001
1000
0010
0100
0001
1000
,
0001
0000
1000
0000
0010
0000
0100
0000
0010
1000
0000
0001
0000
0000
0010
0000
,
0100
0000
1000
0000
0010
0000
1000
0000
0001
0010
0000
0001
0000
0000
1000
0000
,
0010
0000
0100
0000
0001
0000
1000
0000
0100
0010
0000
0001
0000
0000
0100
0000
,
0010
0000
0100
0000
0001
0000
1000
0000
0100
0010
0000
0100
0000
0000
1000
0000
,
0010
0000
0100
0000
0001
0000
1000
0000
0001
0010
0000
0100
0000
0000
1000
0000
,
1010
0110
0101
0011
,
2001
0000
0000
0000
0000
0000
0100
0000
0100
0000
0000
0000
0000
0000
0000
3000
,
0001
0000
1000
0000
0001
0000
0010
0000
0100
1000
0000
0001
0000
0000
0100
0000
,
0010
1000
1010
0000
1000
0100
1100
0000
,
0001
0010
0011
0000
1000
0001
0101
0000
,
0001
0010
1001
0000
1000
0100
0110
0010
,
0001
0010
0001
0100
0010
1000
0010
0100
,
0101
0000
0000
0000
0000
0000
0001
0000
0200
0000
0000
0302
0000
0000
0023
0000
,
0230
0000
0000
0320
0000
0000
0032
0000
0203
0000
0000
0320
0000
0000
2030
0000
,
3001
0010
0100
1000
0001
0100
0010
1000
,
0001
0010
0001
0000
1000
0100
1000
0000
0010
0100
0010
0000
0100
0001
1000
0010
,
1000
0000
0000
0002
2000
0000
0000
3003
,
0002
0000
0000
0003
0000
0000
0000
0000
0000
0000
0000
0000
0200
0000
0000
0000
0000
0000
0300
0000
0000
0000
0000
0000
0002
0000
0000
0000
0000
0000
0000
0000
0003
0000
0000
0000
2000
0000
0000
0000
0000
0000
0000
0000
0000
0000
0000
0000
3020
0000
0000
0000
0000
0000
0000
0000
0000
0000
0000
0000
0000
0000
0000
0000
0000
0000
0000
0000
0000
0000
0000
0000
0000
0000
0000
0000
0000
0000
0000
0000
0000
0000
0000
0000
0000
0000
0000
0000
0000
0000
0000
0000
0000
0000
0000
0000
2030
0000
0000
0000
0000
0000
0000
0000
0000
0000
0000
0000
0000
0000
0000
0000
0000
0000
0000
0000
0000
0000
0000
0000
0000
0000
0000
0000
0000
0000
0000
0000
0000
0000
0000
0000
0000
0000
0000
0000
0000
0000
0000
0000
0000
0000
0000
0000
3002
0000
0000
0000
0000
0000
0000
0000
0000
0000
0000
0000
0000
0000
0000
0000
0000
0000
0000
0000
0000
0000
0000
0000
0000
0000
0000
0000
0000
0000
0000
0000
0000
0000
0000
0000
0000
0000
0000
0000
0000
0000
0000
0000
0000
0000
0000
0000
,
1003
0100
0010
0100
1000
0001
0100
0010
,
0100
0001
0010
0001
1000
0100
1000
0001
,
0100
0010
1000
0001
0010
0100
1000
0010
,
1000
0001
0100
0001
0010
0001
1000
0100
,
0010
0100
1000
0001
0100
0010
0100
0001
,
1000
0010
1000
0001
0010
0100
1000
0001
,
0100
0010
0100
0001
1000
0100
0010
0001
,
0200
0302
0023
0230
,
1300
0010
0100
0010
1000
0100
1000
0001
,
0010
0001
0100
0001
1000
0100
0010
0001
,
1000
0010
0100
0001
1000
0100
1000
0010
,
1000
0001
0100
0010
0100
0001
1000
0001
,
0010
0100
0010
0001
1000
0001
0100
0001
,
1000
0100
1000
0010
0100
0001
1000
0001
,
0010
0100
1000
0001
0100
0001
1000
0010
,
1000
0001
1000
0000
0001
0100
0001
0000
1000
0010
1000
0001
1000
0100
0010
0001
,
1000
0010
0100
0010
1000
0001
0010
0100
,
1000
0001
0100
0001
1000
0010
1000
0100
,
1000
0001
0010
0100
0010
0001
1000
0010
,
0100
0010
1000
0001
0100
0001
1000
0001
,
0010
0100
1000
0001
1000
0010
1000
0001
,
0010
0100
1000
0001
0100
0010
0100
0001
,
0010
0100
1000
0010
0100
0010
1000
0100
,
0010
0001
1000
0010
0100
0001
1000
0001
,
0200
0000
0000
0000
,
0300
0000
0000
0000
;
