#TITLE:Yoiyami no Tsuki ni Dakarete;
#SUBTITLE:Far East of East;
#ARTIST:Tatsh feat. Ayane;
#TITLETRANSLIT:;
#SUBTITLETRANSLIT:;
#ARTISTTRANSLIT:;
#CREDIT:ALICE_;
#BANNER:Yoiyami no Tsuki ni Dakarete.png;
#BACKGROUND:Yoiyami no Tsuki ni Dakarete.jpg;
#LYRICSPATH:;
#CDTITLE:cdtitle.png;
#MUSIC:Yoiyami no Tsuki ni Dakarete.mp3;
#OFFSET:0.790;
#SAMPLESTART:162.161;
#SAMPLELENGTH:15.600;
#SELECTABLE:YES;
#BPMS:0.000=176.000;
#STOPS:;
#BGCHANGES:2.250=Yoiyami no Tsuki ni Dakarete.avi=1.000=1=0=1,
99999=-nosongbg-=1.000=0=0=0 // don't automatically add -songbackground-
;
// cache tags:
#FIRSTBEAT:4.000;
#LASTBEAT:948.000;
#SONGFILENAME:Songs/alice 4th complete step/Yoiyami no Tsuki ni Dakarete/Yoiyami no Tsuki ni Dakarete.sm;
#HASMUSIC:1;
#HASBANNER:1;
#MUSICLENGTH:328.079;
// end cache tags

//---------------dance-single - ----------------
#NOTES:
     dance-single:
     :
     Hard:
     15:
     1.000,1.000,1.000,0.884,0.404,1831.000,575.000,290.000,0.000,60.000:
0000
0000
0000
0000
,
1110
1010
2002
0000
0000
0000
3113
0000
,
0101
0010
1000
0100
0001
0010
0100
0001
,
0111
0101
2002
0000
0000
0100
3013
0100
,
0001
0000
1000
0000
0010
0000
0100
1000
0010
0001
0100
0010
1000
0100
1000
0010
,
1001
0100
0001
0100
2012
0000
0000
0000
0000
0000
0000
0000
3113
0000
0000
0000
,
1001
1000
0100
0000
0001
0001
0010
0000
0100
1000
0001
0100
1001
0000
0010
0001
,
2020
0000
0030
3202
0000
0310
2103
0000
,
3010
0000
0100
0000
0001
1000
0000
0001
0010
0000
0001
0100
0001
1000
0100
0000
,
2002
0000
3003
2120
0000
0000
0000
3030
,
2002
0000
0000
0000
3003
0000
0212
0000
0000
0000
0000
0000
0303
0000
0010
0100
,
2020
0000
3030
2102
0000
0000
0000
3003
,
0202
0000
0000
0000
0303
0000
2120
0000
0000
0000
0000
0000
3030
0000
0100
0010
,
1002
0000
1003
0020
1000
0030
0101
0000
,
2001
0000
3001
0200
0001
0300
1010
0001
,
0102
0000
0000
0000
1003
0000
0020
0000
0100
0000
0000
0030
1001
0000
0000
0000
,
0101
0000
0010
1000
0001
1000
0100
0010
1000
0001
1000
0001
0100
0010
1000
0000
,
0011
0001
1100
0012
0000
0103
1010
0100
,
1100
0000
1000
0000
0011
0000
2100
0000
0000
0000
3010
0100
1001
0000
0010
0000
,
0101
0001
1010
0102
0000
1003
0110
1000
,
0001
0000
0110
0000
1100
0000
0001
0000
0100
0010
1000
0000
0101
0010
0100
0010
,
1001
1000
0100
1020
0000
1130
0011
0000
,
1001
0001
0010
0201
1000
0311
1100
0010
,
1001
0000
1000
0000
0010
0000
0202
0000
0003
0300
1000
0001
0110
0000
1001
0000
,
0100
0000
0010
1000
0010
0100
0001
1000
0010
0001
0010
0100
1000
0010
1000
0001
,
0110
0100
1010
0101
0010
1000
0011
1000
,
0110
0000
0010
0000
0101
0000
1010
0000
0100
0000
0001
0000
1100
0000
0010
0100
,
1001
0001
1010
0101
1000
0110
1001
0010
,
0101
0000
0001
0000
1001
0000
1010
0000
0100
0000
0010
0100
1001
0000
0010
0000
,
1100
1000
0101
1010
0010
0110
1001
0100
,
0011
0000
0001
0000
1010
0000
1100
0000
0010
0000
0001
1000
0110
0000
1000
0000
,
0011
0001
0101
1010
0001
1100
0011
0100
,
1000
0010
0001
0000
1000
0000
0010
0001
0100
0010
0100
0010
1000
0001
0100
0001
,
1001
0000
0011
0100
0011
0100
0011
0100
,
1001
0000
0000
0000
1100
0000
0010
0000
1100
0000
0010
0001
1100
0000
0010
0000
,
0110
0000
0110
0001
0110
1000
0110
0001
,
1010
0000
0100
0000
0011
0000
0100
0000
1010
0000
0100
1000
0011
0000
0100
0000
,
1001
0010
1001
0100
1001
0010
1001
0100
,
1010
0000
0001
0000
1100
0000
0001
0000
1010
0000
0001
0010
1100
0000
0001
0000
,
0110
1000
0101
0010
0011
1000
0101
0010
,
0100
0000
1000
0000
0001
0100
0010
1000
0001
0100
0001
0100
0001
0010
0001
1000
,
0220
0000
0000
0330
,
1000
0100
0010
1000
0100
0001
0010
1000
,
0001
0000
0010
0000
0100
0000
0001
0000
1000
0000
0010
0000
1000
0001
0100
0001
,
1010
0000
0100
0011
0000
0100
1001
0020
,
0000
0000
0100
0130
1001
0000
0000
0000
0110
0000
0010
0000
1001
0000
0000
0000
,
0001
0100
0010
1000
0010
0001
0010
0100
,
1000
0001
0100
0010
1000
0100
0001
0010
,
1000
0100
0011
0100
1000
0001
0110
0000
,
2001
0100
3100
1002
0010
0013
1001
0100
,
0011
0000
1001
0100
0000
1010
1001
0000
,
1100
0000
0000
0000
1001
0000
0010
0000
0000
0000
1010
0100
1001
0000
0000
0000
,
0012
0000
0103
2010
0000
0010
3102
0000
,
0000
0000
0100
0000
0010
0000
0103
0000
1000
0000
0001
0000
0100
0010
0100
0010
,
2000
0000
3011
0100
1000
0010
0101
1000
,
0020
0000
1130
0001
0010
0100
1001
0010
,
0101
0000
1000
0000
0100
0000
0010
0000
1000
0000
0010
0001
0100
0010
0100
1000
,
0011
0100
0001
0100
0001
0000
0011
0100
0001
0100
0001
0000
0011
0100
0001
0100
,
0020
0000
0000
0000
0000
0000
0030
2002
,
3003
1000
1100
1000
1010
0001
1100
0220
,
0330
0001
0011
0001
0101
1000
0011
0220
,
0330
1000
0101
1000
0010
0100
1001
0010
,
0001
1100
0011
0100
0110
0010
1001
0120
,
0000
0100
1000
0100
0001
1030
0100
0012
,
0000
1000
0100
1000
0010
0103
1000
0210
,
0000
0001
1010
0001
1000
0010
0301
2010
,
0000
0000
0001
0000
0110
0000
3001
0000
1000
0000
0100
0010
0001
0000
0220
0000
,
0330
0001
0101
0001
1010
0001
1100
0220
,
0330
1000
0011
1000
0101
0010
1001
0220
,
0330
1000
0101
1000
0010
0100
1001
0010
,
0001
1100
0011
0100
0110
0010
1001
0120
,
0000
0100
1001
0100
0001
1030
0100
0012
,
0000
1000
0110
1000
0010
0103
1001
0220
,
0330
1000
0100
0001
0010
0001
1000
2002
,
3003
0000
0010
0000
0101
0000
0010
1000
0100
0000
0001
1000
0010
1000
0100
1000
,
0011
0100
0001
2000
0000
3100
0010
2000
,
0000
3001
0010
0200
0000
0310
0100
1000
,
0100
0001
0010
0200
0000
1300
0001
0020
,
0000
0000
0130
0000
1000
0000
0001
0000
1000
0010
1000
0000
0001
0000
1000
0000
,
0011
0100
0001
2000
0000
3010
0001
0200
,
0000
0310
1000
0001
0100
1000
0010
0100
,
1000
0010
0001
0020
0000
0130
1000
0020
,
0000
0000
0100
0000
1031
0000
0000
0000
1000
0000
0100
0000
0010
0100
0001
0010
,
1001
0010
0001
0200
0000
0310
0001
2000
,
0000
3010
0100
2000
0000
3001
0010
0100
,
1000
0100
0001
0020
0000
0130
0001
2000
,
0000
0000
3010
0000
1000
0000
0100
0000
0010
0001
0010
0000
0100
0000
0010
0000
,
1001
0100
0010
0200
0000
0310
0001
2000
,
0000
3001
0110
1000
0010
1000
0011
0100
,
1000
0010
0001
0200
0000
0310
1000
0002
,
0000
1003
1100
0010
1000
0101
1100
0010
,
2002
0000
0000
0000
0000
0000
0000
0000
0000
0000
0000
0000
3003
0000
0010
0001
,
2200
0000
0000
0000
0000
0000
0000
0000
0000
0000
0000
0000
3300
0000
0010
1000
,
0202
0000
0000
0000
0300
0003
2200
0000
0000
0000
0300
3000
0220
0000
0000
0330
,
1000
0100
0001
0000
1000
0100
0001
0000
0010
0100
0010
0100
0001
1000
0100
1000
,
0011
0100
0001
1000
0010
0100
0001
1000
,
0101
0010
0001
1000
0010
0100
0001
1000
,
0100
0001
1100
0010
0001
1000
0110
0000
,
1002
0010
0013
2001
0100
3100
1001
0010
,
1100
0000
1001
0010
0000
0101
1001
0000
,
0011
0000
0000
0000
1001
0000
0100
0000
0000
0000
0101
0010
1001
0000
0000
0000
,
2100
0000
3010
0102
0000
0100
2013
0100
,
0000
0010
0100
3010
0001
1000
0110
0000
,
0002
0000
1103
0010
0001
0100
1010
0001
,
0200
0000
0311
1000
0100
0010
1001
0100
,
1010
0000
0001
0000
0010
0000
0100
0000
0001
0000
0100
1000
0010
0100
0001
0010
,
1100
0001
1000
0001
1000
0000
1100
0001
1000
0001
1000
0000
1100
0001
1000
0001
,
0200
0000
0000
0000
0000
0000
0000
0000
0020
0000
0000
0000
0300
0030
2002
0000
,
3003
0001
0011
0001
0101
1000
0011
0220
,
0330
1000
1100
1000
1010
0001
1100
0220
,
0330
0001
1010
0001
0100
0010
1001
0100
,
1000
0011
1100
0010
0110
0100
1001
0210
,
0000
0010
0001
0010
1000
0301
0010
2100
,
0000
0001
0010
0001
0100
3010
0001
0120
,
0000
1000
0101
1000
0001
0100
1030
0102
,
0000
0000
1000
0000
0110
0000
1003
0000
0011
0000
0001
0100
0001
0000
0220
0000
,
0330
1000
1010
1000
0101
1000
0011
0220
,
0330
0001
1100
0001
1010
0100
1001
0220
,
0330
0001
1010
0001
0100
0010
1001
0100
,
1000
0011
1100
0010
0110
0100
1001
0210
,
0000
0010
1001
0010
1000
0301
0010
2100
,
0000
0001
0110
0001
0100
3010
1001
0220
,
0330
1000
0101
1000
0010
0100
1001
0220
,
0330
0000
0100
0000
1010
0000
0100
0001
0010
0000
1000
0100
0010
0001
0010
0100
,
1001
0001
0001
0001
0101
0101
1010
1002
,
0000
0103
1010
1000
1001
1001
0110
1002
,
0000
0103
1010
0010
1100
1100
1001
0100
,
0010
0000
0101
1000
0110
0010
1001
2200
,
0000
3310
0011
0010
1010
1000
0110
0022
,
0000
0133
1100
0100
0101
0001
0110
2200
,
0000
3310
0011
0001
1010
0100
1001
1020
,
0000
0000
1030
0000
0202
0000
0000
0000
1303
0000
1000
0001
0110
0000
0001
0000
,
1001
1000
1010
1000
1100
1100
0011
2001
,
0000
3010
0101
0001
0011
0001
0110
2001
,
0000
3010
0101
0100
0011
0011
1001
0010
,
0000
0100
1010
0100
0101
0001
1010
0022
,
0000
1033
1100
1000
0101
0001
0110
2200
,
0000
3301
0011
0001
1010
1000
0110
2002
,
0000
0000
3013
0000
0010
1000
0000
0010
0100
0000
0001
0010
0001
1000
0100
0000
,
1000
0010
0100
0001
1000
0100
1000
0010
0100
0001
0010
1000
0101
0000
0020
0000
,
0000
0000
0000
0000
0000
0000
0000
0000
0000
0000
0000
0000
0000
0030
0100
1000
,
0010
0001
0010
0100
0001
0010
0100
1000
0010
0100
0010
1000
0001
0100
0010
1000
,
0001
0010
0100
0010
0001
1000
0100
0010
1000
0100
0001
0100
1000
0010
0001
0100
,
0010
1000
0100
1000
0010
0100
0001
0010
0001
0100
0010
1000
0001
0100
0010
0001
,
1000
0100
0010
0100
1000
0001
0010
0100
0010
0001
1000
0010
0100
0010
1000
0001
,
0010
0100
0010
1000
0001
0100
0001
0010
1000
0100
0001
1000
0001
0100
0001
0010
,
1000
0100
0001
1000
0001
0100
1000
0001
1000
0100
0001
1000
0001
0100
1000
0020
,
0000
0000
0000
0030
0001
0010
0200
0000
0000
0000
0000
0000
0000
0000
0000
0300
,
1000
0000
0000
0000
0100
0000
0000
0000
0020
0000
0000
0000
0000
0000
0000
0000
0000
0000
0000
0000
0000
0000
0000
0000
0000
0000
0000
0030
0000
0000
0002
0000
0000
0003
0000
0000
2000
0000
0000
3000
0000
0000
0002
0000
0000
0003
0000
0000
,
2000
3000
0200
0300
0020
0030
2000
3000
0010
0100
2000
3000
0020
0030
0200
0300
,
2000
3000
0200
0300
0002
0003
0020
0030
0002
0003
0020
0030
0200
0300
2000
3000
,
0001
0010
0002
0003
0200
0300
0020
0030
2000
3000
0200
0300
0002
0003
0020
0030
,
2002
0000
0000
0000
0000
0000
0000
3003
0100
0010
1000
0010
0100
0001
2000
3000
,
0001
0010
0001
0010
0100
0010
0100
0010
1000
0010
0100
0010
1000
0001
0100
0001
,
0010
0000
1000
0000
1000
0000
0101
0000
1000
0000
1010
0000
0100
0000
0001
1000
,
0010
0000
0100
0000
0100
0000
1001
0000
0100
0000
0100
0000
1001
0000
0010
0100
,
0001
0010
0100
1000
0001
0100
1000
0100
0020
0000
0000
0000
0000
0000
0000
0030
,
1000
0001
1000
0001
0100
0001
1000
0100
1000
0001
1000
0001
0100
0010
1000
0100
,
2002
0000
0000
0000
0000
0000
0000
0000
0000
0000
0000
0000
3003
0000
0100
1000
,
0022
0000
0000
0000
0000
0000
0000
0000
0000
0000
0000
0000
0033
0000
0100
0001
,
2020
0000
0000
0000
0030
3000
0022
0000
0000
0000
0030
0003
0220
0000
0000
0330
,
0001
0010
1000
0000
0001
0010
1000
0000
0100
0010
0100
0010
1000
0001
0010
0001
,
1100
0010
1000
0001
0100
0010
1100
0001
,
1010
0100
1000
0001
0100
0010
1001
0100
,
0001
1000
0011
0100
1000
0001
0110
0000
,
2001
0000
0000
0000
3110
0000
1002
0000
0000
0000
0103
0010
1001
0000
0100
0000
,
0011
0000
1001
0100
0000
1010
1001
0000
,
1100
0000
0000
0000
1001
0000
0010
0000
0000
0000
1010
0100
1001
0000
0000
0000
,
0012
0000
0103
2010
0000
0010
3102
0010
,
0000
0000
0100
0000
0010
0000
0103
0000
1000
0010
0100
1000
0010
0000
0100
0001
,
2010
0000
3011
0100
1000
0010
0101
1000
,
0020
0000
1130
0001
0010
0100
1001
0010
,
0101
0000
1000
0000
0010
0000
0100
0000
0001
0000
1000
0100
0010
0001
0100
1000
,
0011
0100
0010
0100
0010
0000
0011
0100
0010
0100
0010
0000
0011
0100
0010
0100
,
0001
0010
0100
1000
0001
0010
0100
1000
0020
0000
0000
0000
0030
0000
2002
0000
,
3003
1000
1100
1000
1010
0101
1100
0220
,
0330
0001
0011
0001
0101
1010
0011
0220
,
0330
1000
0101
1000
0110
0100
1001
0010
,
0001
1100
0011
0100
0110
0010
1001
0120
,
0000
0100
1001
0100
0001
1030
0100
0012
,
0000
1000
0110
1000
0010
0103
1000
0210
,
0000
0001
1010
0001
1000
0010
0301
2010
,
0000
0001
0110
3001
1010
0010
1001
0220
,
0330
0001
0101
0001
1010
0001
1100
0220
,
0330
1000
0011
1000
0101
0010
1001
0220
,
0330
1000
0101
1000
0011
0100
1001
0010
,
0001
1100
0011
0100
0110
0010
1001
0120
,
0000
0100
1001
0100
0001
1030
0100
0012
,
0000
1000
0110
1000
0010
0103
1001
0220
,
0330
0001
1010
0001
0100
0010
1001
0220
,
0330
0000
0010
0000
0101
0000
0010
1000
0001
0000
0100
0010
1000
0001
0100
0010
,
1001
1000
1100
1000
1010
1010
0101
2001
,
0000
3010
0101
0001
1001
1001
0110
2001
,
0000
3010
0101
0100
0011
0011
1001
0010
,
0100
0100
1010
1001
0110
0100
1001
0022
,
0000
0133
1100
0100
0101
0001
0110
2200
,
0000
3310
0011
0010
1010
1000
0110
0022
,
0000
0133
1100
1000
0101
0010
1001
0201
,
0000
0000
0301
0000
2020
0000
0000
0000
3031
0000
0001
1000
0110
0000
1000
0000
,
1001
0001
0101
0001
0011
0011
1100
1002
,
0000
0103
1010
1000
1100
1000
0110
1002
,
0000
0103
1010
0010
1100
1100
1001
0220
,
0330
0010
0101
0010
1010
1000
0101
2200
,
0000
3301
0011
0001
1010
1000
0110
0022
,
0000
1033
1100
1000
0101
0001
1010
0202
,
0000
0000
1303
0000
1000
0001
0000
0100
0010
0000
1000
0100
0001
1000
0010
0000
,
0100
1000
0100
1000
0010
0100
0001
0100
0010
1000
0001
0100
0001
0010
0001
0100
,
2002
0000
3003
2120
0000
0000
0000
3030
,
0202
0000
0000
0000
0303
0000
2012
0000
0000
0000
0000
0000
3003
0000
1000
0001
,
0220
0000
0330
2102
0000
0000
0000
3003
,
0022
0000
0000
0000
0033
0000
2120
0000
0000
0000
3130
0000
0001
0010
0001
1000
,
0202
0303
0011
2000
3000
0101
1010
0100
,
2002
3003
1100
0002
0003
1010
0101
0010
,
1001
0100
1000
0202
0300
1003
0010
0202
,
0300
0000
0103
0000
0010
0000
1000
0000
0001
0000
1000
0000
0010
0100
0010
0000
,
2002
3003
1001
0202
0003
0310
1001
0010
,
0001
0000
1100
0000
1010
0000
0200
0000
1000
0000
0300
0000
1001
0000
0100
0001
,
0010
0000
1100
2002
3003
0110
0101
0022
,
0033
0000
0100
1000
0010
0100
0010
1000
0001
0100
0001
0100
0010
1000
0001
1000
,
0110
0010
0010
0102
0000
1000
0010
1003
,
0101
0100
0100
2010
0000
0001
0100
3010
,
1001
0000
0011
1100
0000
1100
0011
0100
,
1001
0000
0110
1001
0000
0010
1001
0010
,
1100
1000
1000
2002
3003
0010
0001
0100
,
1001
0001
0001
2020
3030
0100
1000
0010
,
0101
1000
0001
2020
3030
0100
0010
0100
,
0001
0010
1000
0000
0001
0000
0100
1000
0010
0100
0010
0100
0001
1000
0100
1000
,
1001
0000
0100
0000
0011
0000
0100
0000
1001
0000
0100
0000
0011
0000
0100
1000
,
0011
0100
1010
0100
1001
0100
1010
0100
,
1001
1000
0110
0001
0110
1000
0110
0001
,
1010
0000
0100
0000
0011
0000
0100
0000
1010
0000
0100
1000
0011
0100
0010
0000
,
1001
0000
0010
1000
0101
0000
0010
0000
1100
0000
0010
0000
0101
0000
0010
0000
,
1100
0000
0001
0010
1100
0000
1000
0100
0011
0000
0001
0010
1100
0000
0010
0000
,
0101
1000
1001
0010
1100
0010
1001
0010
,
0101
0000
1000
0000
0010
0100
1000
0100
0010
0001
0010
0001
0100
0010
1000
0001
,
0220
0000
0000
0000
,
0000
0000
0000
0000
,
0330
0000
0000
0000
;

//---------------dance-single - ----------------
#NOTES:
     dance-single:
     :
     Challenge:
     19:
     1.000,1.000,1.000,0.835,1.000,2688.000,1149.000,274.000,0.000,252.000:
0000
0000
0000
0000
,
1110
1010
2102
0000
0000
0000
3113
0000
,
0201
0300
0020
0030
2000
3000
0200
0300
1002
0003
0020
0030
0200
0300
0002
0003
,
0111
0101
2012
0000
0000
0100
3013
0102
,
1000
0000
1000
0000
0110
0000
1000
0103
1000
0001
0100
0010
1000
0100
0001
0010
,
1100
0001
1100
0010
2102
0000
0000
0000
0000
0000
0000
0000
3113
0000
0000
0000
,
1001
1000
0110
0000
1001
0001
0110
0000
0101
1000
0011
0100
1001
0010
0001
0100
,
2010
0100
0001
0100
0010
0100
3002
0010
0100
0010
1000
0100
2013
0000
0000
0000
,
3110
0000
1001
0000
0100
1010
0000
0100
0011
0000
1200
0010
1000
0001
0010
0300
,
2102
0000
3003
2120
0000
0000
0000
3030
,
2012
0000
0000
0000
3003
0000
0212
0000
0000
0000
0000
0000
0303
0000
0110
0101
,
2020
0000
3030
2102
0000
0000
0000
3003
,
1202
0000
0000
0000
0000
0000
0303
0000
0000
2120
0000
0000
0000
0000
0000
0000
0000
0000
3030
0000
0000
1100
0010
0100
,
1002
0000
1003
0120
1000
0031
1100
0001
,
2010
0000
3001
0210
0001
1300
1010
0101
,
1002
0000
0000
0000
0103
0000
1020
0000
0100
0000
0001
0030
1001
0000
0010
0000
,
0101
0000
0000
0000
0000
0000
1100
0000
0010
0000
0001
0000
0100
0000
0010
0000
0001
0000
0100
0000
0010
0000
1000
0000
0100
0000
0001
0000
1000
0000
0010
0000
0000
0100
0000
0000
1001
0000
0000
1001
0000
0000
0110
0000
0000
0000
0000
0000
,
1011
0001
1100
1012
0000
0103
1010
0100
,
1101
0000
1000
0000
0011
0000
2101
0000
0000
0000
3110
0100
1001
0000
0110
0000
,
1101
0100
1010
1102
0000
1003
0110
1010
,
0001
0000
0110
0000
1101
0000
0011
0000
2002
0000
3003
0000
0101
1010
0100
0000
,
1011
1000
0101
1120
0000
0131
1010
0100
,
1011
0011
0100
1021
1000
0130
1001
0110
,
1011
0000
1100
0000
1010
0000
0202
0000
0003
0300
1000
0001
0110
0000
1001
0000
,
0100
0000
1001
0100
0011
0100
1001
0010
0101
1000
0011
0100
1001
0110
1001
1001
,
0110
0100
1010
1102
0010
0113
1001
1010
,
1001
0000
0010
0000
0101
0000
1021
0000
0100
0000
1031
0000
0101
0000
1010
0101
,
1010
0100
0101
2011
0100
3011
1101
1010
,
0101
0000
0010
0000
1010
0000
1102
0000
0013
0000
0101
1000
0011
0000
1100
0000
,
0110
1000
0101
2110
0010
3110
1001
1100
,
0211
0000
0001
0300
1010
0000
2101
0000
0010
0000
3110
0001
1100
0000
0110
0000
,
1021
0031
0101
1020
0100
1130
0011
1010
,
1001
0110
1001
0000
1111
0000
0011
1000
1100
0001
1010
0001
0110
1000
0011
1100
,
1001
1100
1011
0101
1011
0101
1011
0101
,
1011
0000
1100
0000
1011
0000
1100
0000
1011
0000
1100
0100
1001
0000
0110
0000
,
0111
1100
0111
1100
0111
1100
0111
1100
,
1011
0000
0110
0000
1011
0000
0110
0000
1011
0000
0110
0010
1001
0000
0110
0000
,
1110
0011
1110
0011
1110
0011
1110
0011
,
1101
0000
1010
0000
1101
0000
1010
0000
1101
0000
1010
0110
1001
0000
0110
0000
,
1101
1010
0111
1010
0111
1010
0111
1010
,
0110
0000
0101
0000
1001
0100
0011
0000
1100
0010
0001
0110
1001
0100
0011
1000
,
0220
0000
0000
0330
,
1001
0100
1010
0001
1100
0010
1001
0010
,
0101
0000
1000
0000
0110
0000
0001
0000
1100
0000
0010
0000
1001
0011
0100
0010
,
2102
0000
3013
2012
0000
3103
2102
0010
,
3003
0000
0110
1100
0011
0000
0000
0000
1101
0000
0010
0000
2222
0000
3333
0000
,
0101
0010
0001
0000
1011
0000
0101
0000
0010
0000
1100
0000
1011
0000
0110
0000
,
1010
0100
1000
0000
1101
0000
1010
0000
0100
0000
0011
0000
1101
0000
0110
0000
,
1001
0100
0001
0000
0111
0000
1001
0000
0100
0000
1110
0000
1001
0000
0010
0000
,
0102
0000
1000
0000
1013
0000
2100
0000
0010
0000
3101
0000
1001
0010
0001
0100
,
1010
0100
0011
1101
0010
0101
1011
0110
,
1100
0000
0010
0000
1001
0000
0111
0000
1000
0000
0110
0010
1101
0000
1010
0000
,
0102
0010
1013
2100
0010
0011
3102
0110
,
1000
0000
0110
0000
1010
0000
0103
0000
2010
0100
3002
0010
0100
0010
1000
0100
,
2013
0100
0010
0000
3011
0000
1110
0000
0010
0000
1110
0000
0011
0000
0110
0000
,
1002
0100
1000
0000
1013
0000
1101
0000
1000
0000
1101
0000
1010
0000
1100
0000
,
0102
0010
1000
0000
1103
0000
1001
0000
0200
0000
0310
0001
1100
0010
1000
0100
,
0011
1100
0001
1100
0011
0000
1100
0011
1000
0011
1100
0100
2002
0000
3003
0000
,
1010
0001
0100
0100
0011
1000
0100
0100
0001
1000
0010
1000
0110
1000
0022
0000
,
0030
0003
0110
1000
0011
0100
0001
1000
0010
0100
0001
0100
0011
1000
0010
1000
,
0100
0001
0010
0001
1100
0010
1000
0001
0100
0010
1000
0010
1100
0001
0010
0001
,
0100
0010
1000
0100
1001
0010
0100
0001
1000
0100
0010
0100
1001
0010
0100
1000
,
0001
0100
0010
1000
0101
0010
1000
0010
0001
0100
1000
0010
0101
0010
2200
0000
,
0300
0000
3110
0001
1100
0010
1000
0001
0100
0010
1000
0100
0011
1000
0202
0000
,
0300
0000
1013
0100
0011
1000
0010
0100
0001
1000
0010
0100
1001
0100
2020
0000
,
0030
0000
3110
0001
1100
0001
0100
0010
1001
0100
1000
0010
0101
0010
2002
0000
,
3003
0000
0110
0000
1001
0000
0010
0100
1001
0000
0101
0010
1000
0100
2012
0000
,
0003
3000
0110
0001
1100
0010
1000
0001
0100
0010
1000
0010
1100
0001
0100
0001
,
0010
1000
0100
1000
0011
0100
0001
1000
0010
0100
0001
0100
0011
1000
0100
1000
,
0010
0100
0001
0010
1001
0100
0010
1000
0001
0010
0100
0010
1001
0100
0010
0001
,
1000
0010
0100
0001
1010
0100
0001
0100
1000
0010
0001
0100
1010
0100
0022
0000
,
0030
0000
0113
1000
0011
0100
0001
1000
0010
0100
0001
0010
1100
0001
2020
0000
,
0030
0000
3101
0010
1100
0001
0100
0010
1000
0001
0100
0010
1001
0010
0202
0000
,
0300
0000
0013
1000
0110
1000
0001
0100
0010
1000
0100
0001
1010
0100
2002
0000
,
3003
0000
0100
0010
0101
0010
1000
0010
1100
0001
0110
0001
1010
0100
1001
0010
,
1100
0010
0101
2200
0300
3010
0101
2002
,
0003
3001
1100
2020
3001
0130
1001
1100
,
1010
0100
1001
0220
0000
1330
0101
2020
,
0000
0000
3130
0000
1001
0000
0010
0000
1100
0010
1100
0000
0101
0010
1000
0000
,
0101
1000
1010
0220
0030
0310
1001
0220
,
0300
0130
1001
0100
0110
1000
0011
1100
,
1010
0100
1001
2020
3000
0130
1001
0022
,
0003
0000
0100
0000
1031
0000
0001
0000
1100
0000
0110
0000
1001
0010
0001
0010
,
0101
0110
1001
0220
0030
0310
1001
2200
,
0300
3011
1100
2002
0103
3001
1010
0101
,
1001
0100
0011
2020
3000
0130
1001
2200
,
0300
0000
3011
0000
0100
0000
1001
0000
0011
0100
0011
0000
1010
0000
0100
0000
,
1001
0110
0011
2200
3000
0310
0101
2020
,
0030
3001
0110
1000
0101
1000
0011
1100
,
1010
0100
1001
0220
0030
0310
1010
0202
,
0300
1003
1100
0011
0100
1001
1111
0110
,
1002
0000
0100
0000
0010
0000
1000
0000
0010
0000
0100
0000
1003
0000
0101
0001
,
2100
0000
0010
0000
0100
0000
0001
0000
0010
0000
0001
0000
3100
0000
1010
1000
,
0202
0000
0010
0000
0310
0003
2200
0000
0010
0000
0310
3000
0220
0000
0001
0330
,
1010
0100
0011
0000
1010
0100
0011
0000
1001
0100
0011
0100
1010
0000
0110
0100
,
1001
1000
1101
1010
1000
1010
1101
1000
,
0101
0001
1011
0101
0001
0101
1011
0001
,
1110
0100
0101
1110
0100
1110
0101
0010
,
1002
0000
0110
0000
1013
0000
2001
0000
3110
0000
1001
0001
0110
0000
1000
0000
,
1101
0100
1001
1110
0010
1110
1001
0110
,
0011
0000
0100
0000
1001
0000
0111
0000
0010
0000
0111
0000
1001
1000
0011
0000
,
2100
0010
3011
0102
0010
1100
2013
0100
,
0001
3110
1001
1100
0110
0101
2002
3003
,
1100
0010
0101
1101
0011
1110
1001
0010
,
0011
0000
1000
0000
0111
0000
1001
0000
0010
0000
0111
0100
1010
0000
0001
0000
,
1100
0000
0010
0000
1011
0000
1100
0000
0010
0000
0101
1000
0010
0100
0001
0010
,
1100
0001
1000
0011
1100
0000
0011
1000
0001
1100
0011
0010
2002
0000
3003
0000
,
0101
1000
0100
0010
0100
0001
0010
1000
0102
0010
1000
0010
1103
0010
2002
0000
,
0003
3000
0110
0001
1100
0010
1000
0001
0100
0010
1000
0010
1100
0001
0100
0001
,
0010
1000
0100
1000
0011
0100
0001
1000
0010
0100
0001
0100
0011
1000
0100
1000
,
0010
0100
0001
0010
1001
0100
0010
1000
0001
0010
0100
0010
1001
0100
0010
0001
,
1000
0010
0100
0001
1010
0100
0001
0100
1000
0010
0001
0100
1010
0100
0022
0000
,
0030
0000
0113
1000
0011
0100
0001
1000
0010
0100
0001
0010
1100
0001
2020
0000
,
0030
0000
3101
0010
1100
0001
1000
0010
0100
0001
1000
0010
1001
0010
0202
0000
,
0300
0000
0113
1000
0011
0100
0001
1000
0010
0100
1000
0100
0011
0100
2002
0000
,
3003
0000
0110
0000
1001
0000
0100
0010
1001
0000
1010
0100
0001
0010
2102
0000
,
3000
0003
0110
1000
0011
0100
0001
1000
0010
0100
0001
0100
0011
1000
0010
1000
,
0100
0001
0010
0001
1100
0010
1000
0001
0100
0010
1000
0010
1100
0001
0010
0001
,
0100
0010
1000
0100
1001
0010
0100
0001
1000
0100
0010
0100
1001
0010
0100
1000
,
0001
0100
0010
1000
0101
0010
1000
0010
0001
0100
1000
0010
0101
0010
2200
0000
,
0300
0000
3110
0001
1100
0010
1000
0001
0100
0010
1000
0100
0011
1000
0202
0000
,
0300
0000
1013
0100
0011
1000
0010
0100
0001
1000
0010
0100
1001
0100
2020
0000
,
0030
0000
3110
0001
1100
0010
1000
0010
1001
0100
0010
1000
0011
0100
2002
0000
,
3003
0000
0011
1000
0110
1000
0001
0100
0011
1000
0110
1000
0101
0010
1001
0100
,
0011
1000
0001
0100
1010
0100
0001
0010
1100
0001
1100
0010
1001
0100
0011
1000
,
0100
0001
0110
1000
0011
0100
0001
1000
0011
0100
0011
0100
1001
0010
1100
0010
,
0001
0100
1010
0100
0011
0100
1000
0011
0100
0001
1010
0100
1001
0010
0100
0011
,
1100
0001
1010
0100
0011
1000
0010
0100
1001
0010
1000
0100
0011
1000
0110
1000
,
0100
0010
1001
0100
0011
1100
0001
1000
0110
1001
0010
1000
0101
0010
1001
0100
,
0010
1100
0011
1000
0101
1000
0010
0100
1001
0110
1000
0100
0011
1000
0101
0010
,
1000
0000
0000
0100
0000
0000
0011
0000
0000
0100
0000
0000
1001
0000
0000
0110
0000
0000
0001
0000
0000
0010
0000
0000
1100
0000
0000
0001
0000
0000
1010
0000
0000
0100
0000
0000
1001
0000
0010
0000
0100
0000
0001
0000
0000
1100
0000
0000
,
0010
1000
0101
1000
0011
0100
1000
0001
0110
0001
1100
0010
1001
0110
1000
0001
,
1100
0011
1000
0100
0011
1000
0100
0010
1001
0010
0101
1000
0110
1000
0011
0100
,
0010
1001
0110
0001
1100
0010
1000
0001
1100
0011
1100
0010
1001
0100
0011
0100
,
1000
0010
0101
0010
1100
0010
0001
1100
0010
0100
1001
0010
0101
0010
1000
0011
,
1100
0010
0100
0001
1010
0001
0100
0010
1001
0110
0001
0010
1100
0001
0110
1001
,
0010
1000
0101
0010
1100
0011
1000
0001
1010
0001
0100
0001
1010
0100
1001
0010
,
0100
0011
1100
0001
1010
0001
0100
0010
1001
0110
0001
0010
1100
0001
2020
0000
,
0030
0000
0110
0000
0001
0110
3000
0001
1010
0000
0101
1000
0011
1000
0101
0010
,
1100
0001
1000
0011
0100
1010
0001
0100
0011
1000
0101
1000
0220
0000
0000
0330
,
1001
0000
0000
0100
0000
0000
0010
0000
0000
0001
0000
0000
0110
0000
0000
1000
0000
0000
0100
0000
0000
0010
0000
0000
1100
0000
0000
0001
0000
0000
0110
0000
0000
0001
0000
0000
1010
0000
0000
0001
0000
0000
0100
0000
0010
0000
0000
0000
,
1100
0001
0010
1000
0101
0010
1000
0100
0011
1000
0101
1000
0100
0010
1001
0000
,
1100
0011
0100
1001
0110
1000
0010
0001
1100
0001
0010
1001
0110
1000
0011
0100
,
1001
0010
0101
0010
1101
0010
0001
0010
0101
0010
1001
0110
2001
0010
0001
3010
,
1100
0001
0010
0100
1010
0001
0100
0010
1000
0100
0011
0100
1000
0001
0110
1000
,
0011
0100
0010
0001
1010
0100
0001
1000
0101
0010
0100
0010
1001
0100
0001
0010
,
0100
0000
1000
0000
0100
0000
0010
0000
0001
0000
0010
0000
0100
0000
1000
0000
0100
0000
0010
0000
0001
0000
0010
0000
0100
0000
1000
0000
0100
0000
0010
0000
0001
0000
0010
0000
0100
0000
0000
1000
0000
0000
0012
0000
0000
0000
0000
0000
,
0100
0000
0000
0000
0000
0000
1100
0000
0000
0000
0000
0000
0113
0000
0000
0001
0000
0000
2100
0000
0000
0000
0000
0000
0010
0000
0000
0000
0000
0000
0010
0000
0000
0001
0000
0000
3110
0000
0000
0000
0001
0000
0000
0000
0010
0000
0000
0000
,
1100
0000
0000
0000
0011
0000
0000
0000
0110
0000
0000
0000
1002
0000
0000
0000
0000
0000
0010
0000
0000
0000
0000
0000
1100
0000
0000
0003
0000
0000
0100
1000
0000
0000
0000
0000
0010
0001
0000
0000
0000
0000
0010
1000
0000
0000
0000
0000
,
0100
0001
0000
0000
0000
0000
1000
0010
0000
0000
0000
0000
0100
0000
0000
1000
0000
0000
0001
0000
0000
0010
0000
0000
1001
0000
0000
0000
0000
0000
0120
0000
0000
0000
0000
0000
1000
0000
0000
0000
0000
0000
0000
0000
0000
0030
0000
0000
,
0200
0000
2300
0000
3002
0000
0023
0000
0031
0100
0001
1000
0020
0000
0230
0000
,
1300
0010
0001
0010
2000
0000
3200
0000
0312
0003
2000
3000
0120
0000
2031
3001
,
0120
0000
0000
0000
1001
0000
0031
0000
0110
1000
0001
0010
0202
0000
0300
0003
,
1010
0100
0001
0100
1000
0100
0011
0100
1010
0001
0110
0001
1100
0010
0001
0010
,
1001
0000
0100
0000
0110
0000
1001
0000
0110
0000
1001
0000
0110
0000
0110
0010
,
1001
0000
0100
0000
0110
0000
1001
0000
0100
0000
0110
0000
1011
0000
0110
0100
,
1001
0010
0101
0010
1000
0100
0001
1000
0120
0000
0000
0000
0100
0000
1031
0000
,
0010
0001
0100
1000
0100
1000
0010
0100
0001
0010
0001
0100
0001
1000
0010
0100
,
2002
0000
0000
0000
0000
0000
0000
0000
0000
0000
0000
0000
0003
3000
0101
0011
,
2200
0000
0000
0000
0000
0000
0000
0000
0000
0000
0000
0000
3300
0000
1010
1100
,
0022
0000
0100
0000
0130
0003
2200
0000
0010
0000
0310
3000
0220
0000
0001
0330
,
1010
1000
0100
0000
1010
1000
0100
0000
0011
0100
0010
1000
0101
0000
1010
0010
,
1001
1000
1101
1010
1000
1010
1101
1000
,
0101
0001
1011
0101
0001
0101
1011
0001
,
1110
0100
0101
1110
0100
1110
0101
0010
,
1002
0000
0110
0000
1013
0000
2001
0000
3110
0000
1001
0001
0110
0000
1000
0000
,
1101
0100
1001
1110
0010
1110
1001
0110
,
0011
0100
1001
0111
0010
0111
2102
3003
,
2100
0010
3011
0102
0010
1100
2013
0100
,
0001
0000
3110
0000
1001
0000
1100
0000
0011
0100
0010
0100
0011
0000
1001
0001
,
1100
0010
0101
1101
0011
1110
1001
0010
,
0011
0000
1000
0000
0111
0000
1001
0000
0010
0000
1101
0000
0110
0000
1001
0001
,
1100
0000
0010
0000
1011
0000
1100
0000
0010
0000
0101
1000
0110
0000
1010
0001
,
0110
0000
0110
1001
0110
0000
1001
0110
1001
0000
0110
0110
2002
0000
3003
0000
,
0101
0010
0001
0110
1001
0100
0010
1000
0101
1000
0011
0100
1010
0100
2002
0000
,
3003
0000
0110
1000
0011
0100
0001
1000
0010
0100
0001
0100
0011
1000
0110
1000
,
0001
0010
0100
0001
1100
0010
1000
0001
0100
0010
1000
0010
1100
0001
1010
0001
,
0100
0010
1000
0100
1001
0010
0100
0001
1000
0100
0010
0100
1001
0010
0100
1000
,
0001
0100
0010
1000
0101
0010
1000
0010
0001
0100
1000
0010
0101
0010
2200
0000
,
0300
0000
3110
0001
1100
0010
1000
0001
0100
0010
1000
0100
0011
1000
0202
0000
,
0300
0000
1013
0100
0011
1000
0100
0010
0001
0100
1000
0100
0011
0100
2020
0000
,
0030
0000
3100
0001
0110
0001
1000
0010
1100
0001
0010
1000
0101
0010
2002
0000
,
3003
0000
0110
0100
1011
0000
0010
0100
1001
0000
0101
0010
1000
0100
2012
0000
,
0003
3000
0110
0001
1100
0010
1000
0001
0100
0010
1000
0001
0110
0001
1100
0010
,
1001
0100
0010
1000
0011
0100
0001
1000
0010
0100
0001
0100
0011
1000
0110
1000
,
0001
0100
1000
0010
0101
1000
0010
0100
0001
0010
0100
0010
1001
0100
0010
0001
,
1000
0010
0100
0001
1010
0100
0001
0100
1000
0010
0001
0100
1010
0100
0022
0000
,
0030
0000
0103
1000
0011
0100
0001
1000
0010
0100
0001
0010
1100
0001
2020
0000
,
0030
0000
3001
0010
1100
0001
0100
0010
1000
0001
0100
0010
1001
0010
0202
0000
,
0300
0000
0013
1000
0110
1000
0001
0100
0010
1000
0100
0001
1010
0100
2002
0000
,
3003
0000
1100
0000
1011
0000
0100
0010
1100
0001
0110
0001
1010
0100
1001
0010
,
1100
0001
1000
0001
0110
0001
0100
1000
0011
0100
0011
0100
1001
0010
1100
0001
,
0010
1000
0110
0001
1100
0010
1000
0001
1100
0010
1100
0010
1001
0100
0011
0100
,
1000
0010
0101
0010
1100
0010
0001
1100
0010
1000
0101
0010
1001
0100
0010
1100
,
0011
1000
0001
0010
1100
0001
0100
0010
1001
0100
0001
0010
1100
0001
1010
0101
,
0010
1000
0101
0010
1100
0011
1000
0001
0110
1001
0100
0001
1010
0100
1001
0010
,
0100
0011
1100
0001
1010
0001
0100
0010
1001
0110
0001
0010
1100
0001
1010
0100
,
0001
0000
0000
0010
0000
0000
1100
0000
0000
0010
0000
0000
1001
0000
0000
0110
0000
0000
1000
0000
0000
0100
0000
0000
0011
0000
0000
1000
0000
0000
0100
0000
0000
0010
0000
0000
1001
0000
0010
0000
0100
0000
1000
0000
0000
0011
0000
0000
,
0100
0001
1010
0001
1100
0010
0001
1000
0110
1000
0011
0100
1001
0110
0001
1000
,
0011
1100
0001
0100
1010
0100
0001
0010
1100
0011
1100
0001
1010
0100
1001
0010
,
0100
1001
0110
1000
0011
0100
0001
1000
0011
0100
0011
0100
1001
0010
1100
0010
,
0001
0100
1010
0100
0011
0100
1000
0011
0100
0010
1001
0100
1010
0100
0011
1000
,
0101
0010
1000
0010
0101
1000
0011
0100
1001
0110
1000
0100
0011
1000
0110
1001
,
0100
0001
1010
0100
0011
1100
0001
1000
0110
1000
0011
1000
0101
0010
1001
0100
,
0010
1100
0011
1000
0101
1000
0010
0100
1001
0110
1000
0100
0011
1000
0220
0000
,
1331
0000
0110
0000
0011
1100
0000
1100
0011
0000
1001
0100
0010
1100
0011
1000
,
0110
0001
1000
0010
1100
0001
1000
0100
0001
0010
1001
0100
1001
0010
1100
0011
,
2102
0000
0000
0000
0000
3003
2120
0000
0000
0000
0000
0000
3000
0000
1130
0100
,
1002
0003
0020
0030
1100
0000
1021
0000
0000
0000
0100
0000
1001
0030
0100
0110
,
1002
0000
0003
0000
0020
0000
0030
0000
0200
0000
0300
0000
1020
0000
0030
0000
0000
0002
0000
0003
0000
0200
0000
0300
0000
2002
0000
3003
0000
0220
0000
0330
,
2002
0000
0000
0000
0000
3003
0212
0000
0000
0000
0313
1000
0101
0000
0011
0100
,
1001
0100
0010
1000
0100
0010
0001
0010
0100
1000
0100
0010
1000
0100
0001
0100
,
1010
0001
0010
0100
0001
0010
0100
0010
0001
0100
1000
0100
0001
0010
0100
1000
,
0012
0100
1100
2013
0000
0100
0011
3200
,
0010
0000
1300
0100
0011
1000
0010
0100
1001
0010
0100
0010
1001
0100
0001
0010
,
0100
0000
0000
1000
0000
0000
0011
0000
0000
1000
0000
0000
0101
0000
0000
0000
1000
0000
0100
0000
0010
0000
0100
0000
0001
0000
0000
1000
0000
0000
0101
0000
0000
1000
0000
0000
0011
0000
0000
0100
0000
0000
0001
0000
0000
0010
0000
0000
,
1000
0000
0100
0000
0002
0000
0000
0000
0000
0000
0000
0000
0013
0000
0000
1000
0000
0000
0100
0000
0000
0010
0000
0000
0001
0000
0100
0000
1000
0000
0010
0000
0000
0100
0000
0000
0001
0000
0010
0000
1000
0000
0100
0000
0000
0010
0000
0000
,
1000
0100
1000
0010
0001
0100
0001
0010
1000
0100
0010
0001
0100
1000
0100
0010
1000
0100
0010
0001
0100
0010
1000
0001
,
0010
0000
1200
0001
0010
0001
1000
0010
0001
1000
0301
1000
0011
0100
0011
0100
,
1001
1000
1110
1101
0010
1100
0111
0011
,
1001
0000
0010
0000
0111
0000
1011
0000
0100
0000
0011
0000
1110
0000
1001
0110
,
1001
0100
1100
1011
1000
0101
1011
1100
,
0011
0000
0001
0000
1010
0000
1101
0000
0010
0000
0101
0000
1011
0000
0110
0100
,
1001
0000
1000
0000
0101
0000
1110
0000
0100
0000
0011
0000
1001
0000
0100
0010
,
1101
0000
0001
0000
1010
0000
1101
0000
0010
0000
1100
0000
1001
0000
0110
0100
,
1011
0000
0001
0000
0101
0000
1110
0000
0001
0000
0101
0000
1010
0000
0110
0010
,
1001
0110
1001
0000
1001
0000
0011
1000
0101
0010
1001
0110
1001
0100
0011
0100
,
1011
0000
1001
0000
1011
0100
0010
0100
1011
0100
0010
0100
1011
0100
0010
0100
,
1011
0100
0010
0100
1011
0100
0010
0100
1011
0100
0010
0100
1001
0010
1100
0010
,
1001
0100
0010
0100
1011
0100
0010
0100
1011
0100
0010
0100
1011
0100
0010
0100
,
1011
0100
0010
0100
1011
0100
0010
0100
1011
0100
0010
0100
1001
0010
1100
0001
,
1110
0001
0100
0001
1110
0001
0100
0001
1110
0001
0100
0001
1110
0001
0100
0010
,
0101
1000
0010
1000
0111
1000
0010
1000
0111
1000
0010
1000
0111
1000
0010
0100
,
1001
0100
1010
0100
0011
0100
1010
0100
0011
0100
1010
0100
0011
0100
1010
0100
,
0011
0000
1101
0000
0011
1100
0001
1000
0110
1001
0220
0330
1001
0110
1001
0110
,
2002
0000
0000
0000
,
0000
0000
0000
0000
,
3003
0000
0000
0000
;
