#TITLE:Instead Of The Pills;
#SUBTITLE:;
#ARTIST:kors k;
#TITLETRANSLIT:;
#SUBTITLETRANSLIT:;
#ARTISTTRANSLIT:;
#CREDIT:Owem;
#BANNER:../banner.png;
#BACKGROUND:../bg.png;
#LYRICSPATH:;
#CDTITLE:../cdtitleowem.png;
#MUSIC:Instead Of The Pills.ogg;
#OFFSET:-0.131;
#SAMPLESTART:90.484;
#SAMPLELENGTH:16.941;
#SELECTABLE:YES;
#DISPLAYBPM:170.000;
#BPMS:0.000=170.000,376.000=169.870,408.000=170.000,440.000=172.120,445.000=175.035,447.000=181.171,455.000=187.753,457.000=196.000,458.000=200.000,460.000=208.050,461.000=212.325,463.000=220.000,464.000=230.000,466.000=235.000,467.000=240.000,468.000=245.000,469.000=250.000,470.000=255.000,471.000=260.000,472.000=265.000,473.000=270.000,474.000=275.000,475.000=280.000,476.000=282.500,477.000=285.000,478.000=290.000,479.000=295.000,480.000=300.000,503.000=330.000,504.000=320.000,505.000=170.000;
#STOPS:;
#BGCHANGES:;
// cache tags:
#FIRSTBEAT:0.000;
#LASTBEAT:935.250;
#SONGFILENAME:Songs/Owem's Simfiles 08 1.1/Instead Of The Pills - [Owem] v1.0.1/Instead Of The Pills.sm;
#HASMUSIC:1;
#HASBANNER:1;
#MUSICLENGTH:325.746;
// end cache tags

//---------------dance-single - 3-8-6/16/11/2-8/3/8-----------------
#NOTES:
     dance-single:
     3-8-6/16/11/2-8/3/8-:
     Challenge:
     15:
     1.000,1.000,0.135,0.703,1.000,2956.000,44.000,229.000,200.000,0.000:
1000
0000
0100
0000
0010
M000
0001
0100
0001
M000
0010
0000
0100
00M0
1000
0000
,
0001
0M00
1000
0000
0100
M000
0010
0001
0010
M000
0100
0000
1000
0M00
0010
0000
,
0100
M000
0001
0000
1000
000M
0010
0100
0010
000M
1000
0000
0001
0M00
0010
0000
,
0100
000M
1000
0000
0010
M000
0100
0001
0100
00M0
0001
0000
1000
00M0
0100
0000
,
0010
M000
0001
0000
1000
0M00
0010
1000
0010
000M
0100
0000
0001
00M0
1000
0000
,
0100
M000
0010
0000
0001
00M0
1000
0001
1000
0M00
0010
0000
0100
00M0
0001
0000
,
1000
00M0
0100
0000
1000
000M
0010
0100
0010
M000
0100
0000
0001
00M0
1000
0000
,
0001
0M00
0010
0000
0100
00M0
1000
0001
1000
0M00
0010
0000
0100
M000
0001
0000
,
2MM2
3003
1000
0000
0200
M300
0010
0001
0020
M030
0100
0000
2000
30M0
0001
0000
,
2000
3M00
0010
0000
0200
M300
0001
0010
0002
0M03
1000
0000
0200
030M
1000
0000
,
0020
0M30
1000
0000
0002
M003
0100
0010
0200
M300
0001
0000
2000
30M0
0100
0000
,
0020
0M30
0001
0000
2000
300M
0010
1000
0020
003M
0100
0000
0002
0M03
1000
0000
,
0020
003M
1000
0000
0100
0010
0001
1000
0010
0100
0001
1000
0010
1000
0001
0100
,
0001
0010
0100
1000
0100
0010
0001
1000
0100
1000
0001
0100
0010
1000
0001
0100
,
0001
0010
0100
1000
0010
0100
0001
1000
0100
1000
0001
0100
0010
0100
0001
1000
,
0100
0000
0000
0000
0000
0000
0000
0000
00M0
0000
0000
0000
0000
0000
0000
0000
0020
0000
0000
0000
0032
0000
0000
0000
0203
0000
0000
0000
0000
0000
0000
0300
,
0001
1000
0010
1000
0100
0010
0001
1000
0100
1000
0001
0100
0010
1000
0001
0100
,
0010
1000
0100
1000
0001
0010
0100
1000
0001
0010
0001
1000
0100
1000
0001
0100
,
0010
1000
0001
0100
0010
1000
0001
0100
0001
0010
0100
1000
0001
0010
0001
1000
,
0001
0100
0010
1000
0100
1000
0001
0100
0010
1000
0001
0100
0001
1000
0100
0010
,
0001
1000
0100
1000
0010
0100
0001
1000
0100
1000
0001
0010
0001
1000
0100
0010
,
0100
1000
0001
1000
0100
0010
0100
1000
0001
1000
0010
0100
0010
1000
0001
0100
,
0010
0100
0001
1000
0010
1000
0001
0100
0010
1000
0001
0100
0001
0010
0100
1000
,
0001
0010
0001
0100
0010
1000
0001
0100
0010
0100
0001
1000
0100
0000
0020
0030
,
0001
1000
0100
1000
0010
0100
0001
1000
0100
1000
0001
0100
0010
1000
0001
0100
,
0010
1000
0001
1000
0100
0010
0001
1000
0100
1000
0010
0100
0001
1000
0100
1000
,
0010
0100
0001
1000
0001
0010
0100
1000
0001
0010
0001
1000
0100
0010
0100
1000
,
0001
1000
0010
0100
0001
1000
0010
1000
0001
1000
0100
0010
0100
1000
0010
1000
,
0001
0100
0010
0100
0001
1000
0100
0010
0100
1000
0001
0100
0010
1000
0001
0100
,
0001
1000
0100
0010
0001
1000
0100
1000
0010
0100
0010
1000
0001
1000
0100
0010
,
0100
1000
0001
1000
0010
0100
0002
0000
1003
0100
0020
0000
0031
1000
0020
0000
,
1030
0000
0000
0000
0000
0000
0100
0000
0000
0000
0000
0000
1000
0000
0000
0000
0000
0000
0010
0000
0000
0100
0000
0000
0001
0000
0000
1000
0000
0000
0002
0000
0000
0000
0000
0000
0003
0000
M000
0000
0000
0000
0100
0000
0000
0010
0000
0000
,
0100
0001
1000
0010
1000
0100
0010
0001
1000
0100
1000
0001
0100
0010
1000
0001
,
0100
0001
0010
0100
1000
0001
0010
0001
1000
0100
0010
0100
1000
0001
1000
0010
,
0100
0001
1000
0010
1000
0001
0100
0010
1000
0001
0100
0001
0010
0100
1000
0001
,
1000
0100
0010
0100
1000
0001
0010
0001
1000
0100
1000
0001
1000
0010
0100
0001
,
1000
0100
1000
0001
0100
0010
1000
0001
0100
0001
1000
0100
0010
0001
0100
0001
,
1000
0010
0100
0001
1000
0001
0010
0100
1000
0001
0010
0001
0100
0010
1000
0001
,
1000
0100
0010
0001
1000
0100
1000
0001
0010
0001
1000
0100
0010
0001
1000
0001
,
0100
0010
1000
0001
0100
0001
1000
0010
0100
0001
0100
0010
1000
0001
0010
0001
,
1000
0001
0100
0010
0100
0001
1000
0010
1000
0100
0010
0001
1000
0100
1000
0001
,
0100
0010
1000
0001
0100
0001
1000
0100
0010
0100
1000
0001
0010
0001
0100
0010
,
1000
0001
0100
0001
0010
0100
1000
0001
1000
0010
0100
0001
1000
0100
1000
0001
,
0100
0010
1000
0001
0010
0100
1000
0001
0010
0001
0100
0010
1000
0001
0100
0001
,
1000
0100
1000
0010
1000
0001
0100
0001
0010
0100
1000
0001
0100
0001
1000
0100
,
0010
0001
0100
0001
1000
0100
1000
0010
0100
0001
1000
0010
0100
0001
0100
0010
,
1000
0001
0100
0010
0100
0001
1000
0100
1000
0010
0100
0001
1000
0100
0010
0001
,
1000
0100
1000
0001
0100
0010
1000
0001
0100
0001
0010
0100
1000
0001
1000
0010
,
0100
0002
1003
0200
1300
0040
0130
0002
,
1003
0200
1300
0002
0103
0040
1030
0002
,
0103
0002
1003
0002
0103
0040
1030
0020
,
0130
0040
1030
0004
0103
0004
0013
0400
,
1300
0002
0013
0002
1003
0400
1300
0002
,
1003
0020
0130
0002
1003
0400
1300
0002
,
0013
0002
0103
0020
1030
0040
0130
0002
,
1003
0000
0400
0000
0310
0000
0004
0000
1003
0000
0040
0000
M13M
M000
MMM4
0MM0
,
2MM3
0000
0000
0000
3100
0000
0010
0000
0001
0000
0000
0000
1000
0000
0000
0000
0010
0000
0000
0000
0200
0300
0002
0003
0100
0000
0000
0000
0020
0030
0000
0000
,
2000
0000
0000
0000
3001
0000
0000
0000
1000
0000
0000
0000
0100
0000
0000
0000
0010
0000
0000
0000
0002
0003
2000
3000
0001
0000
0000
0000
0200
0300
0000
0000
,
0020
0000
0000
0000
1030
0000
00M0
0000
0001
0000
0000
0000
1000
0000
0000
0000
0010
0000
0000
0000
0200
0300
0002
0003
0100
0000
0000
0000
0020
0030
0000
0000
,
2M10
0000
0000
0000
3000
0000
0000
0000
10M2
0000
0000
0000
0003
0000
0000
0000
2100
0000
3000
0000
1200
0000
0300
0000
2000
0000
0000
0000
0002
3000
0000
0000
,
2003
0000
0000
0000
3400
0000
0000
0000
0310
0000
0000
0000
0001
0000
0000
0000
1000
0000
0000
0000
0020
0030
0200
0300
0010
0000
0000
0000
0200
0300
0000
0000
,
0001
0000
0000
0000
1000
0000
0000
0000
0001
0000
0000
0000
1000
0000
0000
0000
0000
0000
0000
0000
0000
0000
0000
0000
0010
0000
0000
0000
1000
0000
0000
0000
0010
0000
0000
0000
1000
0000
0000
0000
0000
0000
0000
0000
0000
0000
0000
0000
0100
0000
0000
0000
0000
0000
0010
0000
0000
0000
0000
0000
0002
0000
0000
0003
0000
0000
2000
0000
0000
3000
0000
0000
0001
0000
0000
0000
0000
0000
0010
0000
0000
0000
0000
0000
0200
0000
0000
0300
0000
0000
1000
0000
0000
0000
0000
0000
,
0020
0000
0000
0000
0000
0000
0000
0000
0000
0000
0000
0000
0000
0000
0000
0000
0000
0000
0000
0000
0000
0000
0000
0000
0000
0000
0000
0000
0000
0000
0230
0000
0000
0300
0000
0000
0000
0000
00M0
0000
0000
0000
0001
0000
0000
1000
0000
0000
,
0020
0000
0000
0000
0000
0000
0000
0000
0000
0000
0000
0000
0130
0000
0000
0000
0000
0000
0000
0000
0000
0000
0000
0000
0002
0000
0000
0000
0000
0000
0000
0000
0000
0000
0000
0000
1003
0000
0000
0000
0000
0000
0000
0000
0000
0000
0000
0000
0100
0000
0000
0000
0000
0000
0000
0000
0010
0000
0000
0000
0000
0000
0000
0000
0001
0000
0000
0000
0000
0000
0000
0000
2000
0000
0000
0000
0000
0000
0000
0000
0000
0000
0000
0000
0000
0000
0000
0000
0000
0000
0000
0000
0000
3000
0000
0000
,
0010
0100
0001
1000
0001
0100
0010
0100
0001
1000
0010
1000
0100
0010
0001
1000
,
0100
1000
0001
0100
0010
1000
0100
1000
0001
0010
0001
0100
0010
1000
0001
0100
,
0001
1000
0100
0010
0001
1000
0001
0010
0100
1000
0001
0010
0001
1000
0100
1000
,
0001
1000
0010
0100
0001
1000
0010
1000
0100
0010
0001
1000
0100
1000
0001
0010
,
0001
0100
0010
1000
0001
0100
0010
0100
0001
1000
0010
1000
0100
0010
0001
1000
,
0100
1000
0001
0100
0010
1000
0001
0100
0001
0010
0100
1000
0001
0010
0001
1000
,
0100
1000
0001
0100
0010
0100
0001
1000
0100
0010
0100
1000
0001
1000
0010
0100
,
0001
1000
0100
1000
0010
1000
0001
0100
0001
0010
0100
1000
0001
0010
0001
0100
,
0010
1000
0001
0100
0001
1000
0100
0010
0100
1000
0001
0010
0001
1000
0100
1000
,
0001
1000
0010
0100
0001
1000
0100
1000
0001
0100
0010
1000
0100
1000
0001
0010
,
0001
1000
0100
0010
0001
1000
0100
1000
0010
1000
0001
0100
0010
0100
0001
1000
,
01M0
0000
0000
0000
000M
0000
0000
0000
0M00
0000
00M0
0000
M000
0000
M000
0000
M000
0000
000M
0000
0000
0M00
0000
0000
0010
0000
0001
0000
0000
0000
0100
0000
,
0001
1000
0010
1000
0100
0010
0001
1000
0100
1000
0010
0100
0001
1000
0100
1000
,
0001
0010
0100
1000
0020
0000
0030
0000
M41M
0000
0300
0000
0004
0000
1003
0010
,
0100
0001
1000
0010
1000
0100
0010
0001
1000
0100
1000
0001
0100
0010
0100
0001
,
2000
0000
0000
0000
0000
0000
0000
0000
0000
0000
0000
0000
0000
0000
0000
0000
0000
0000
0000
0000
0000
0000
0000
0000
3000
0000
0000
0000
0000
0000
0000
0000
0000
0000
0000
0000
0000
0000
0000
0000
0000
0000
0000
0000
0000
0000
0000
0000
0020
0000
0000
0000
0000
0000
0000
0000
0000
0000
0000
0000
0000
0000
0000
0000
0000
0000
0000
0000
0000
0000
0000
0000
0000
0000
0000
0000
0000
0000
0000
0000
0000
0000
0000
0000
0030
0000
0000
0000
0000
0000
0000
0000
0000
0000
0000
0000
0200
0000
0000
0000
0000
0000
0000
0000
0000
0000
0000
0000
0000
0000
0000
0000
0000
0000
0000
0000
0000
0000
0000
0300
0200
0000
0000
0000
0000
0000
0000
0000
0000
0000
0000
0000
0000
0000
0000
0000
0000
0000
0000
0000
0000
0000
0000
0300
0200
0000
0000
0000
0000
0000
0000
0000
0000
0000
0000
0000
0000
0000
0000
0000
0000
0000
0000
0000
0000
0000
0000
0000
0000
0000
0000
0000
0000
0000
0000
0000
0000
0000
0000
0000
0000
0000
0000
0000
0000
0000
0000
0000
0000
0000
0000
0000
,
M02M
0030
0000
0000
0000
0000
0000
0000
,
0000
0000
0000
0000
,
0320
0030
2020
3030
0220
0330
0202
0303
,
0002
0000
0000
0000
0000
0000
2003
0000
0000
0000
0000
0000
3200
0000
0000
0000
0000
0000
0320
0000
0000
0000
0000
0000
0032
0000
0000
0000
0003
0000
2000
0000
0000
0000
3000
0000
0002
0000
0000
0003
0000
0000
0200
0000
0000
0300
0000
0000
,
0020
0000
0000
0000
0000
0000
0030
0000
0000
0000
0000
0000
2000
0000
0000
0000
0000
0000
3000
0000
0000
0000
0000
0000
0002
0000
0000
0000
0000
0000
0003
0000
0000
0000
0000
0000
0200
0000
0000
0000
0000
0000
0300
0000
0000
0000
0000
0000
0002
0000
0000
0000
0003
0000
0000
0000
0000
0000
0000
0000
0020
0000
0000
0000
0030
0000
0000
0000
0000
0000
0000
0000
0200
0000
0000
0000
0300
0000
0000
0000
0000
0000
0000
0000
2000
0000
0000
0000
3000
0000
0000
0000
0000
0000
0000
0000
0200
0000
0000
0300
0000
0000
0000
0000
0000
0000
0000
0000
0020
0000
0000
0030
0000
0000
0000
0000
0000
0000
0000
0000
0002
0000
0000
0003
0000
0000
0000
0000
0000
0000
0000
0000
2000
0000
0000
3000
0000
0000
0000
0000
0000
0000
0000
0000
0002
0000
0003
0000
0000
0000
0000
0000
0000
0000
0000
0000
0200
0000
0300
0000
0000
0000
0000
0000
0000
0000
0000
0000
0020
0000
0030
0000
0000
0000
0000
0000
0000
0000
0000
0000
2000
0000
3000
0000
0000
0000
0000
0000
0000
0000
0000
0000
,
0020
0030
0000
0000
0000
0000
0000
0000
0000
0000
0000
0000
0200
0300
0000
0000
0000
0000
0000
0000
0000
0000
0000
0000
0020
0030
0000
0000
0000
0000
0000
0000
0000
0000
0000
0000
2000
3000
0000
0000
0000
0000
0000
0000
0000
0000
0000
0000
0004
0003
0000
0000
0000
0000
0000
0000
0000
0000
0000
0000
0400
0300
0000
0000
0000
0000
0000
0000
0000
0000
0000
0000
0004
0003
0000
0000
0000
0000
0000
0000
0000
0000
0000
0000
4000
3000
0000
0000
0000
0000
0000
0000
0000
0000
0000
0000
0M10
0000
0000
0000
0000
0000
0000
0000
0000
0000
0000
0000
0000
0000
0000
0000
0000
0000
0000
0000
0000
0000
0000
0000
0000
0000
0000
0000
0000
0000
0000
0000
0000
0000
0000
0000
0000
0000
0000
0000
0000
0000
0000
0000
0000
0000
0000
0000
000M
0000
0000
0000
0000
0000
0000
0000
0000
0000
0000
0000
0000
0000
0000
0000
0000
0000
0000
0000
0000
0000
0000
0000
M000
0000
0000
0000
0000
0000
0000
0000
0000
0000
0000
0000
0000
0000
0000
0000
0000
0000
0000
0000
0000
0000
0000
0000
,
M11M
0000
0000
0100
0000
0000
0010
0000
0000
1000
0000
0000
0001
0000
0001
0000
,
0010
0000
0000
0100
0000
0000
1000
0000
0000
0001
0000
0000
0100
0000
0100
0000
,
0010
0000
0000
1000
0000
0000
0010
0000
0000
0100
0000
0000
0001
0000
0001
0000
,
1000
0000
0000
0100
0000
0000
0010
0000
0000
0001
0000
0000
1000
0000
1000
0000
,
0010
0000
0000
0010
0000
0000
0010
0000
0000
0010
0000
0000
0100
0000
0001
0000
,
1000
0000
0000
1000
0000
0000
1000
0000
0000
1000
0000
0000
0100
0000
0010
0000
,
0001
0000
0000
0001
0000
0000
0001
0000
0000
0001
0000
0000
0100
0000
0010
0000
,
1000
0000
0000
1000
0000
0000
1000
0000
0000
0010
0000
0000
0100
0000
0001
0000
,
M1M1
0000
0100
0010
1000
0001
1000
0010
0100
0001
0100
0010
1000
0000
0010
0000
,
0100
0001
1000
0001
0100
0010
0100
0001
1000
0100
0010
0001
1000
0000
0010
0000
,
0100
0001
1000
0001
1000
0100
0010
0001
0100
0010
1000
0001
0100
0000
0010
0000
,
1000
0000
0000
0001
0000
0000
0100
0000
0000
0010
0000
0000
0100
0000
0000
0001
0000
0000
1000
0000
0000
0100
0000
0000
0010
0000
0000
0001
0000
0000
1000
0000
0000
0010
0000
0000
0200
0000
0000
0000
0000
0000
0301
0000
1000
0000
0001
0000
,
1000
0000
0100
0010
0001
1000
0001
0100
0010
1000
0010
0100
0001
0000
1000
0000
,
0100
0010
0001
1000
0010
1000
0100
0010
0001
1000
0100
1000
0001
0100
0010
1000
,
0001
0100
0010
1000
0001
0010
0100
1000
0001
0100
0001
0100
0001
0100
0001
0100
,
0010
0000
0000
1000
0000
0000
0001
0000
0000
1000
0000
0000
0100
0000
0000
0010
0000
0000
0001
0000
0000
1000
0000
0000
0020
0000
0000
0000
0000
0000
0000
0000
0000
0000
0000
0000
0130
0000
0001
0000
0100
0000
0001
0000
0100
0000
0001
0000
,
1000
0010
0100
0001
1000
0010
1000
0100
0010
0001
1000
0100
1000
0001
0100
0010
,
1000
0001
0100
0001
0010
0100
1000
0001
0010
0001
0100
0010
1000
0001
0100
0001
,
1000
0100
0010
0100
1000
0001
0010
0001
1000
0010
1000
0100
0010
0001
1000
0001
,
0100
0010
0100
0001
1000
0100
1000
0001
1000
0100
0010
0001
1000
0010
1000
0001
,
0100
0010
1000
0001
0100
0001
0010
0100
1000
0001
0010
0001
1000
0100
0010
0001
,
1000
0100
1000
0001
1000
0010
0100
0001
1000
0100
1000
0001
0010
0001
1000
0100
,
0010
0001
1000
0100
1000
0001
0010
0001
0100
0010
1000
0001
0100
0001
1000
0100
,
0010
0001
1000
0100
1000
0001
0100
0010
1000
0001
0100
0001
0040
0000
0000
0000
,
0130
1000
0001
1000
0010
0100
0001
1000
,
0100
1000
0001
1000
0100
0010
0001
1000
,
0001
0100
0010
1000
0001
0100
0001
1000
,
0100
0010
0001
1000
0010
0100
0001
1000
,
0100
1000
0001
0010
0001
0100
0010
1000
,
0001
0100
0001
1000
0100
0010
0001
1000
,
0100
1000
0001
0100
0010
1000
0001
0100
,
0001
1000
0100
0010
0001
1000
0100
1000
,
0010
0100
0001
1000
0100
1000
0001
0100
,
0010
1000
0001
0010
0001
1000
0100
1000
,
0001
1000
0100
0010
0001
1000
0010
0100
,
0001
1000
0100
1000
0001
0100
0010
1000
,
0001
0100
0001
0010
0100
1000
0001
0010
,
0001
1000
0100
1000
0001
0100
0010
0100
,
0001
1000
0001
0100
0010
1000
0001
0100
0001
1000
0010
0100
,
0001
1000
0100
0010
0001
1000
0100
1000
0001
0100
0010
1000
,
0002
0000
0003
000M
000M
000M
000M
000M
,
000M
000M
0000
0000
0000
0000
1000
0010
,
0200
0000
0000
0300
M1M2
0000
1003
0100
0000
0010
0001
0000
1000
0001
0000
0100
,
0020
0000
2030
0000
3010
0100
0001
1000
0010
1000
0100
0010
0001
1000
0100
1000
,
0001
1000
0010
0100
0001
1000
0010
1000
0001
0100
0001
0010
0100
1000
0001
0010
,
0001
1000
0100
1000
0001
1000
0010
0100
0001
1000
0100
1000
0001
0100
0010
0100
,
0001
1000
0010
0000
M22M
M00M
M33M
M2M2
M0M0
M3M3
2MM2
3MM3
2MM2
0MM0
3MM3
2M2M
,
0M0M
3M3M
M22M
M33M
M22M
M00M
M33M
M2M2
M0M0
M3M3
2MM2
3MM3
2MM2
0MM0
3MM3
22MM
,
00MM
33MM
M22M
M33M
M21M
M00M
M310
0001
2M00
0000
3010
0100
00M2
0000
1003
0100
,
M010
0000
0000
0001
0000
0000
1000
0000
0000
0010
0000
0000
0200
0000
0000
0000
0000
0000
0300
0000
0000
0000
0000
0000
0000
0000
0000
0000
0000
0000
0000
0000
0000
0000
0000
0000
0000
0000
0000
0000
0000
0000
0001
0000
0100
0000
0010
0000
,
1000
0000
0001
0000
0100
0000
0001
0000
1000
0000
0100
0000
M010
0000
0000
0001
0000
0000
0100
0000
0000
0010
0000
0000
1000
0000
0000
0001
0000
0000
0100
0000
0000
0001
0000
0000
1000
0000
0000
0100
0000
0000
0010
0000
0000
0001
0000
0000
,
0100
0010
1000
0001
0100
0001
0010
0100
1000
0001
0010
0001
0100
0010
1000
0001
,
0100
0001
1000
0100
0010
0001
1000
0100
1000
0001
1000
0010
0100
0001
1000
0100
,
1000
0001
0010
0001
1000
0100
0010
0001
1000
0100
1000
0001
0010
0001
0100
0010
,
1000
0001
0100
0001
1000
0100
0010
0100
1000
0001
0010
0001
1000
0100
0010
0001
,
1000
0100
1000
0001
0100
0010
0100
0001
1000
0010
1000
0001
1000
0010
0100
0001
,
1000
0001
0010
0100
1000
0001
0010
0001
0100
0010
1000
0001
0100
0001
1000
0100
,
0010
0001
1000
0100
1000
0001
0010
0001
0100
0010
1000
0001
0100
0001
0010
0100
,
1000
0001
0100
0010
1000
0000
0010
0100
00M1
1000
0001
0100
0010
0100
0001
1000
,
0100
1000
0001
1000
0100
0010
0001
1000
0100
1000
0001
0010
0001
0100
0010
1000
,
0001
0100
0001
1000
0010
0100
0001
1000
0010
1000
0001
0100
0010
0100
0001
1000
,
0100
0010
0001
1000
0100
1000
0001
1000
0010
0100
0001
1000
0100
0010
0001
1000
,
0001
0010
0100
1000
0001
0010
0001
0100
0010
1000
0001
0100
0001
1000
0100
0010
,
0001
1000
0100
1000
0010
0100
0001
1000
0100
1000
0001
0100
0010
0100
0001
1000
,
0010
1000
0100
0010
0001
1000
0100
1000
0001
0100
0010
1000
0001
0100
0001
0010
,
0100
1000
0001
0010
0001
1000
0100
0010
0001
1000
0100
1000
0001
0100
0001
1000
,
0020
0030
0200
0300
0020
0030
0200
0300
00M1
0000
1000
0000
0100
0000
0010
0000
0001
0000
1000
0000
0100
0000
1000
0000
0001
0000
0100
0000
0010
0000
1000
0000
,
0001
0100
0001
0010
0100
1000
0001
0010
0001
1000
0100
0010
0001
1000
0100
1000
,
0001
1000
0010
0100
0001
1000
0010
1000
0001
0100
0001
0010
0100
1000
0001
0010
,
0001
1000
0100
1000
0001
1000
0010
0100
0001
1000
0100
0010
0001
1000
0100
1000
,
0001
0100
0010
1000
0001
0100
0001
0010
0100
1000
0001
0010
0001
1000
0100
0010
,
0001
1000
0100
1000
0001
1000
0010
0100
0001
1000
0010
1000
0001
0100
0010
1000
,
0001
0100
0001
0010
0100
1000
0001
0010
0001
1000
0100
0010
0001
1000
0010
0100
,
0001
1000
0001
0100
0010
0100
0001
1000
0010
1000
0001
1000
0100
0010
0001
1000
,
0020
0000
0000
0000
M130
0001
0100
0010
1000
0001
1000
0100
0010
0001
1000
0100
,
1000
0001
0100
0010
1000
0001
0100
0001
0010
0100
1000
0001
0010
0001
0100
0010
,
1000
0001
1000
0100
0010
0001
1000
0100
1000
0001
1000
0010
0100
0001
1000
0010
,
1000
0001
0100
0010
1000
0001
0100
0001
0010
0100
1000
0001
0010
0001
1000
0100
,
0010
0001
1000
0010
0400
0000
0302
0000
1003
0100
0020
0000
0031
0000
1000
0010
,
0000
1000
0010
0000
0200
0000
0301
0100
0000
0001
1000
0000
0010
0100
0000
0001
,
1000
0000
0001
1000
0002
0000
0103
0010
0100
0001
1000
0001
0010
0100
1000
0001
,
0100
0010
1000
0001
0100
0001
1000
0100
0010
0001
1000
0010
0100
0001
4000
0000
,
3200
0000
0310
0001
10M0
0001
0100
0010
0100
0001
1000
0010
1000
0100
0010
0001
,
1000
0100
1000
0001
0100
0010
1000
0001
1000
0100
0010
0001
1000
0100
1000
0001
,
0100
0010
1000
0001
0100
0010
1000
0001
0100
0001
0010
0100
1000
0001
0010
0001
,
0100
0010
1000
0001
0010
0001
1000
0001
0100
0010
0100
0001
1000
0001
0100
0010
,
1000
0001
0100
0001
1000
0100
0010
0001
1000
0100
1000
0001
0100
0010
0100
0001
,
1000
0010
1000
0100
0010
0001
1000
0100
1000
0001
0010
0001
0100
0010
1000
0001
,
0100
0010
0100
0001
1000
0100
0010
0001
1000
0100
1000
0001
0010
0001
0100
0010
,
1000
0001
0100
0001
1000
0100
0010
0001
1000
0100
1000
0001
0100
0010
1000
0001
,
2000
0000
3200
0000
0320
0000
0031
1000
0010
0100
0001
1000
0100
1000
0010
0100
,
0001
1000
0010
1000
0001
0100
0001
0010
0100
1000
0001
0010
0001
1000
0100
0010
,
0001
1000
0100
1000
0010
0100
0001
1000
0001
0010
0100
1000
0001
0010
0001
1000
,
0100
1000
0001
0100
0010
1000
0001
0100
0001
0010
0100
1000
0001
1000
0010
0100
,
0001
1000
0100
1000
0001
1000
0010
0100
0001
1000
0001
0010
0100
1000
0001
0100
,
0001
0010
0100
1000
0001
0010
0001
0100
0010
1000
0001
0100
0010
0100
0001
1000
,
0100
1000
0001
0100
0001
0010
0100
1000
0001
1000
0100
0010
0100
1000
0001
1000
,
0010
0100
0001
1000
0100
1000
0001
0100
0010
1000
0001
0010
0001
0100
0010
1000
,
0001
0100
0001
1000
0100
0010
0001
1000
0100
0010
0100
1000
0001
0100
0001
0010
,
0100
1000
0001
0010
0001
1000
0100
0010
0001
1000
0001
0100
0010
1000
0001
0100
,
0001
1000
0100
0010
0001
1000
0100
1000
0001
1000
0010
0100
0010
0100
0001
1000
,
0001
0010
0100
1000
0001
0010
0001
0100
0010
1000
0001
0100
0010
1000
0001
0100
,
0001
1000
0100
0010
0001
1000
0100
1000
0010
0100
0001
1000
0100
1000
0001
1000
,
0010
0100
0010
1000
0001
0100
0001
0010
0100
1000
0001
0100
0010
0100
0001
1000
,
0100
1000
0001
0010
0001
0100
0010
1000
0001
0100
0001
1000
0100
0010
0001
1000
,
0100
1000
0001
0010
0001
0100
0010
1000
0001
0100
0001
0010
0100
1000
0001
1000
,
0100
0010
0001
1000
0100
1000
0001
1000
0010
0100
0010
1000
0001
0100
0001
0010
,
0100
1000
0001
0100
0010
1000
0001
0100
0010
0100
0001
1000
0100
1000
0001
1000
,
0100
0010
0001
0100
0010
1000
0001
0010
0001
1000
0100
0010
0001
1000
0001
0100
,
0010
1000
0001
0100
0001
1000
0100
0010
0001
1000
0100
1000
0010
0100
0001
1000
,
0100
1000
0010
0100
0001
1000
0100
1000
0001
0100
0010
1000
0001
0100
0001
1000
,
0001
0100
0010
0100
0001
1000
0010
1000
0100
0010
0001
1000
0100
1000
0001
0100
,
0010
1000
0001
0100
0001
0010
0100
1000
0001
0010
0001
0100
0010
1000
0001
1000
,
0100
0010
0001
1000
0010
0000
0M00
0000
0000
0000
000M
0M00
2000
0000
3020
0000
,
0230
0000
0000
0300
M0M1
0100
0010
1000
0001
0100
0001
0010
0100
1000
0001
0010
,
0001
0100
0010
1000
0001
0100
0001
1000
0100
0010
0001
1000
0100
1000
0001
1000
,
0100
0010
0001
1000
0010
1000
0001
0100
0010
1000
0001
0100
0001
1000
0100
0010
,
0001
1000
0100
1000
0001
0100
0010
1000
0001
0100
0001
0010
0100
1000
0001
0010
,
0001
1000
0100
0010
0100
1000
0001
0010
0001
1000
0010
0100
0001
1000
0001
0100
,
0010
1000
0001
0100
0001
0010
0100
1000
0001
0010
0001
1000
0100
1000
0010
0100
,
0001
1000
0001
0100
0010
1000
0001
0100
0001
1000
0100
0010
0001
1000
0100
1000
,
0010
0100
0001
1000
0001
0010
0100
1000
0001
0010
0001
0100
0010
1000
0010
0100
,
0001
1000
0100
0010
0001
1000
0100
1000
0010
0100
0001
1000
0001
0010
0100
1000
,
0001
0010
0001
1000
0010
1000
0001
0100
0001
1000
0100
0010
0001
1000
0100
1000
,
0001
0100
0010
1000
0001
0100
0001
1000
0100
0010
0001
1000
0100
1000
0001
0100
,
0010
1000
0001
0100
0001
1000
0010
0100
0001
1000
0100
1000
0001
0010
0001
1000
,
0100
0010
0001
1000
0100
1000
0001
0010
0001
1000
0010
0100
0001
1000
0100
1000
,
0001
0100
0001
1000
0100
1000
0010
0100
0001
1000
0001
0010
0100
1000
0001
0010
,
0001
1000
0100
0010
0001
1000
0100
1000
0001
0100
0010
1000
0001
0100
0001
1000
,
0100
0010
0001
1000
0020
0130
0010
0000
2000
3001
0100
0000
0020
1030
0020
0130
,
0001
0000
1000
0000
0200
0000
0310
0000
M002
0000
0000
0000
0103
0000
0000
0000
0010
0000
0000
0000
1000
0000
0010
0000
1000
0000
0000
0000
0002
0003
0200
0300
,
0010
0000
0000
0000
2000
3000
0000
0000
0002
0000
0000
0000
0013
0000
0000
0000
0100
0000
0000
0000
1000
0000
0001
0000
1000
0000
0000
0000
0020
0030
0200
0300
,
0001
0000
0000
0000
2000
3000
0000
0000
0200
0000
0000
0000
0310
0000
0000
0000
0001
0000
0000
0000
1000
0000
0010
0000
1000
0000
0000
0000
0002
0003
0200
0300
,
0010
0000
0000
0000
0000
0000
0000
0000
0000
0000
0000
0000
0000
0000
0000
0000
0000
0000
0000
0000
0000
0000
0000
0000
2000
0000
0000
0000
0000
0000
3000
0000
0000
0000
0000
0000
0000
0000
0000
0000
0000
0000
0000
0000
0000
0000
0000
0000
0200
0000
0000
0000
0000
0000
0000
0000
0000
0000
0000
0000
0000
0000
0000
0000
0000
0000
0000
0000
0000
0000
0000
0000
0310
0000
0000
0000
0000
0000
0000
0000
0000
0000
0000
0000
0000
0000
0000
0000
0000
0000
0000
0000
0000
0000
0000
0000
0002
0000
0000
0000
0000
0000
0000
0000
0000
0000
0000
0000
0000
0000
0000
0000
0000
0000
0000
0000
0000
0000
0000
0000
1003
0000
0000
0000
0000
0000
0000
0000
0000
0000
0000
0000
0010
0000
0000
0000
0000
0000
0000
0000
0000
0000
0000
0000
2000
0000
0000
0000
0000
0000
0000
0000
0000
0000
0000
0000
0000
0000
0000
0000
0000
0000
0000
0000
0000
0000
0000
3000
2000
0000
0000
0000
0000
0000
0000
0000
0000
0000
0000
0000
0000
0000
0000
0000
0000
0000
0000
0000
0000
0000
0000
0000
,
3010
0000
0000
0000
1000
0000
0000
0000
0002
0000
0000
0000
0013
0000
0000
0000
0100
0000
0000
0000
1000
0000
0001
0000
1000
0000
0000
0000
0200
0300
0020
0030
,
0001
0000
0000
0000
2000
3000
0000
0000
0002
0000
0000
0000
0103
0000
0000
0000
0010
0000
0000
0000
1000
0000
0001
0000
1000
0000
0000
0000
0200
0300
0020
0030
,
0001
0000
1000
0000
0020
0000
0130
0000
0001
0000
1000
0100
1000
0000
0010
0000
,
0100
0000
0000
0000
0000
0000
0000
0000
0000
0000
0000
0000
0000
0000
0000
0000
0000
0000
0000
0000
0000
0000
0000
0000
0001
0000
0000
0000
0000
0000
0000
0000
0000
0000
0000
0000
0000
0000
0000
0000
0000
0000
0000
0000
0000
0000
0000
0000
2000
0000
0000
0000
0000
0000
0000
0000
0000
0000
0000
0000
0000
0000
0000
0000
0000
0000
0000
0000
0000
0000
0000
0000
3100
0000
0000
0000
0000
0000
0000
0000
0000
0000
0000
0000
0000
0000
0000
0000
0000
0000
0000
0000
0000
0000
0000
0000
0020
0000
0000
0000
0000
0000
0000
0000
0000
0000
0000
0000
0000
0000
0000
0000
0000
0000
0000
0000
0000
0000
0000
0000
0031
0000
0000
0000
0000
0000
0000
0000
0000
0000
0000
0000
1000
0000
0000
0000
0000
0000
0000
0000
0000
0000
0000
0000
0002
0000
0000
0000
0000
0000
0000
0000
0000
0000
0000
0000
0000
0000
0000
0000
0000
0000
0000
0000
0000
0000
0000
0003
0002
0000
0000
0000
0000
0000
0000
0000
0000
0000
0000
0000
0000
0000
0000
0000
0000
0000
0000
0000
0000
0000
0000
0000
,
0103
0000
0000
0000
0010
0000
0000
0000
1M2M
0000
0000
0000
1030
0000
0000
0000
0001
0000
0000
0000
0100
0000
0010
0000
0100
0000
0000
0000
0002
0003
2000
3000
,
0010
0000
0000
0000
0200
0300
0000
0000
0002
0000
0000
0000
1003
0000
0000
0000
0100
0000
0000
0000
0010
0000
0001
0000
0010
0000
0000
0000
0200
0300
2000
3000
,
0001
0000
0000
0000
2000
3000
0000
0000
0020
0000
0000
0000
0130
0000
0000
0000
0001
0000
0000
0000
1000
0000
0001
0000
1000
0000
0000
0000
0200
0300
0020
0030
,
0001
0000
0000
0000
0000
0000
0000
0000
0000
0000
0000
0000
0000
0000
0000
0000
0000
0000
0000
0000
0000
0000
0000
0000
2000
0000
0000
0000
0000
0000
3000
0000
0000
0000
0000
0000
0000
0000
0000
0000
0000
0000
0000
0000
0000
0000
0000
0000
0020
0000
0000
0000
0000
0000
0000
0000
0000
0000
0000
0000
0000
0000
0000
0000
0000
0000
0000
0000
0000
0000
0000
0000
0130
0000
0000
0000
0000
0000
0000
0000
0000
0000
0000
0000
0000
0000
0000
0000
0000
0000
0000
0000
0000
0000
0000
0000
0020
0000
0000
0000
0000
0000
0000
0000
0000
0000
0000
0000
0000
0000
0000
0000
0000
0000
0000
0000
0000
0000
0000
0000
1030
0000
0000
0000
0000
0000
0000
0000
0000
0000
0000
0000
0001
0000
0000
0000
0000
0000
0000
0000
0000
0000
0000
0000
2000
0000
0000
0000
0000
0000
0000
0000
0000
0000
0000
0000
0000
0000
0000
0000
0000
0000
0000
0000
0000
0000
0000
3000
2000
0000
0000
0000
0000
0000
0000
0000
0000
0000
0000
0000
0000
0000
0000
0000
0000
0000
0000
0000
0000
0000
0000
0000
,
3100
0000
0000
0000
0010
0000
0000
0000
0002
0000
0000
0000
1003
0000
0000
0000
0010
0000
0000
0000
0100
0000
0001
0000
0100
0000
0000
0000
0020
0030
2000
3000
,
0001
0000
0000
0000
0020
0030
0000
0000
0200
0000
0000
0000
1300
0000
0000
0000
0001
0000
0000
0000
1000
0000
0010
0000
1000
0000
0000
0000
0200
0300
0020
0030
,
0001
0000
0000
0000
2000
3000
0000
0000
0020
0000
0000
0000
0130
0000
0000
0000
0001
0000
0000
0000
1000
0000
0100
0000
1000
0000
0000
0000
0010
0000
0000
0000
,
0100
0000
0000
0000
0000
0000
0000
0000
0000
0000
0000
0000
0000
0000
0000
0000
0000
0000
0000
0000
0000
0000
0000
0000
0001
0000
0000
0000
0000
0000
0000
0000
0000
0000
0000
0000
0000
0000
0000
0000
0000
0000
0000
0000
0000
0000
0000
0000
2000
0000
0000
0000
0000
0000
0000
0000
0000
0000
0000
0000
0000
0000
0000
0000
0000
0000
0000
0000
0000
0000
0000
0000
3100
0000
0000
0000
0000
0000
0000
0000
0000
0000
0000
0000
0000
0000
0000
0000
0000
0000
0000
0000
0000
0000
0000
0000
2000
0000
0000
0000
0000
0000
0000
0000
0000
0000
0000
0000
0000
0000
0000
0000
0000
0000
0000
0000
0000
0000
0000
0000
3010
0000
0000
0000
0000
0000
0000
0000
0000
0000
0000
0000
0100
0000
0000
0000
0000
0000
0000
0000
0000
0000
0000
0000
0020
0000
0000
0000
0000
0000
0000
0000
0000
0000
0000
0000
0000
0000
0000
0000
0000
0000
0000
0000
0000
0000
0000
0030
0020
0000
0000
0000
0000
0000
0000
0000
0000
0000
0000
0000
0000
0000
0000
0000
0000
0000
0000
0000
0000
0000
0000
0000
,
1030
0000
0001
0000
M000
000M
0000
0000
M000
0000
0000
00M0
0000
0000
0M00
0000
,
0000
0000
000M
0000
0000
0000
0000
0000
M000
0000
0000
0000
0000
0000
0M00
0000
0000
0000
0000
0000
00M0
0000
0000
0000
MMMM
MMMM
MMMM
0000
0000
0000
0000
0000
;
