#TITLE:Brave Warrior;
#SUBTITLE:;
#ARTIST:Xi;
#TITLETRANSLIT:;
#SUBTITLETRANSLIT:;
#ARTISTTRANSLIT:;
#CREDIT:;
#BANNER:bravewarrior-bn.png;
#BACKGROUND:bravewarrior-bg.png;
#LYRICSPATH:;
#CDTITLE:!shadowgod-cdTitle.png;
#MUSIC:bw-xi.mp3;
#OFFSET:-1.510;
#SAMPLESTART:70.360;
#SAMPLELENGTH:11.960;
#SELECTABLE:YES;
#BPMS:0.000=154.990;
#STOPS:;
#BGCHANGES:;
// cache tags:
#FIRSTBEAT:0.000;
#LASTBEAT:326.000;
#SONGFILENAME:Songs/Astronomic Metal Collection 2/(Shadowgod) Brave Warrior/hahaha.sm;
#HASMUSIC:1;
#HASBANNER:1;
#MUSICLENGTH:129.285;
// end cache tags

//---------------dance-single - HEAVY----------------
#NOTES:
     dance-single:
     HEAVY:
     Hard:
     10:
     1.000,1.000,0.186,1.000,1.000,846.000,24.000,213.000,0.000,25.000:




1001
0000
0000
0000
1001
0000
0000
0000
0001
0010
0100
1000
0101
0000
0000
0000
0200
0000
0000
0000
0010
0000
0000
0000
0000
0000
0001
0000
0010
0000
0000
0000
,
0001
0000
0010
0001
0000
0000
0010
0000
0310
1000
0010
1000
0010
1000
0010
1000
,
0010
0001
0010
0001
0010
0001
0010
0001
0200
0000
0010
0000
0000
0001
0010
0000
,
0001
0000
0010
0001
0000
0000
0010
0000
1300
0001
1000
0001
1000
0001
1000
0001
,
1000
0010
1000
0010
1000
0010
1000
0010
0200
0000
0010
0000
0000
0001
0010
0000
,
0001
0000
0010
0001
0000
0000
0010
0000
0310
1000
0010
1000
0010
1000
0010
1000
,
0010
0100
0010
0100
0010
0100
0010
0100
0010
0001
0010
0001
0010
0001
0010
0001
,
0010
0000
0001
0000
0010
0000
0001
0000
0010
0000
0001
0000
0010
0000
0001
0000
0010
0000
0001
0000
0100
0000
0001
0000
1000
0000
0001
0000
1000
0100
0010
0001
,
1000
0100
0010
0001
0010
0100
1000
0000
0000
0000
0000
0000
1000
0000
0000
0100
0000
0000
1000
0000
0000
0010
0000
0000
0200
0000
0000
0000
0000
0000
0010
0000
0000
0000
0000
0000
0000
0000
0000
0000
0000
0000
0001
0000
0000
0000
0000
0000
,
0302
0000
0000
0000
0000
0000
0000
0000
0000
0000
0000
0000
0000
0000
0000
0000
0000
0000
0000
0000
0000
0000
0000
0000
0010
0000
0000
0000
0000
0000
0000
0000
0000
0000
0000
0000
0000
0000
0000
0000
0000
0000
0000
0000
0000
0000
0000
0000
0000
0000
0000
0000
0000
0000
0000
0000
0000
0000
0000
0000
0000
0000
0000
0000
0000
0000
0000
0000
0000
0000
0000
0000
0100
0000
0000
0000
0000
0000
0000
0000
0000
0000
0000
0000
0000
0000
0000
0000
0000
0000
0000
0000
0000
0000
0000
0000
2003
0000
0000
0000
0000
0000
0000
0000
0000
0000
0000
0000
0000
0000
0000
0000
0000
0000
0000
0000
0000
0000
0000
0000
0100
0000
0000
0000
0000
0000
0000
0000
0000
0000
0000
3000
2000
0000
0000
0000
0000
0000
0000
0000
0000
0000
0000
0000
0000
0000
0000
0000
0000
0000
0000
0000
0000
0000
0000
0000
0000
0000
0000
0000
0000
0000
0000
0000
0000
0000
0000
0000
3020
0000
0000
0000
0000
0000
0000
0000
0000
0000
0000
0000
0230
0000
0000
0000
0000
0000
0000
0000
0000
0000
0000
0000
,
2300
0010
0000
0100
3200
0010
0000
1000
,
0302
0000
0000
0000
0000
0000
0000
0000
0000
0000
0000
0000
0000
0000
0000
0000
0000
0000
0000
0000
0000
0000
0000
0000
0010
0000
0000
0000
0000
0000
0000
0000
0000
0000
0000
0000
0000
0000
0000
0000
0000
0000
0000
0000
0000
0000
0000
0000
0000
0000
0000
0000
0000
0000
0000
0000
0000
0000
0000
0000
0000
0000
0000
0000
0000
0000
0000
0000
0000
0000
0000
0000
0010
0000
0000
0000
0000
0000
0000
0000
0000
0000
0000
0000
0000
0000
0000
0000
0000
0000
0000
0000
0000
0000
0000
0000
0023
0000
0000
0000
0000
0000
0000
0000
0000
0000
0000
0000
0000
0000
0000
0000
0000
0000
0000
0000
0000
0000
0000
0000
0100
0000
0000
0000
0000
0000
0000
0000
0000
0000
0000
0030
0020
0000
0000
0000
0000
0000
0000
0000
0000
0000
0000
0000
0000
0000
0000
0000
0000
0000
0000
0000
0000
0000
0000
0000
0000
0000
0000
0000
0000
0000
0000
0000
0000
0000
0000
0000
2030
0000
0000
0000
0000
0000
0000
0000
0000
0000
0000
0000
3200
0000
0000
0000
0000
0000
0000
0000
0000
0000
0000
0000
,
0320
0000
0100
0000
0000
0000
0100
0000
2030
0000
3010
0100
0000
0100
1000
0000
,
2000
0000
3010
0100
0000
0100
1000
0000
0010
0100
0010
0100
2000
0000
3010
0200
,
0000
0000
0000
0000
0000
0000
0000
0000
0000
0000
0000
0000
0000
0000
0000
0000
0000
0000
0000
0000
0000
0000
0000
0300
0100
0000
0000
0000
0000
0000
0000
0000
0000
0000
0000
0000
0010
0000
0000
0000
0000
0000
0000
0000
0000
0000
0000
0000
0001
0000
0000
0000
0000
0000
0000
0000
0000
0000
0000
0000
1000
0000
0000
0000
0000
0000
0000
0000
0000
0000
0000
0000
0001
0000
0000
0000
0000
0000
0000
0000
0000
0000
0000
0000
0010
0000
0000
0000
0000
0000
0000
0000
0000
0000
0000
0000
2000
0000
0000
0000
0000
0000
0000
0000
0000
0000
0000
0000
0000
0000
0000
0000
0000
0000
0000
0000
0000
0000
0000
0000
3100
0000
0000
0000
0000
0000
0000
0000
0000
0000
0000
0000
0001
0000
0000
0000
0000
0000
0000
0000
0000
0000
0000
0000
0000
0000
0000
0000
0000
0000
0000
0000
0000
0000
0000
0000
0010
0000
0000
0000
0000
0000
0000
0000
0000
0000
0000
0000
0100
0000
0000
0000
0000
0000
0000
0000
0000
0000
0000
0000
0000
0000
0000
0000
0000
0000
0000
0000
0000
0000
0000
0000
,
2000
0000
3100
0001
0000
0010
0100
0000
0001
0000
0010
0000
2000
0000
3010
0002
,
0000
0000
0013
0100
1000
0100
1000
0100
1020
0000
1000
0032
0010
0000
0023
0000
,
2030
0000
0100
3020
0100
0000
0032
0000
0013
0100
1000
0100
2000
0000
3001
0200
,
0000
0000
0310
0100
1000
0100
1000
0100
0020
0000
0100
0032
0100
0000
0023
0000
,
2030
0000
0100
3002
0100
0000
0023
0000
0031
0000
0100
0000
0010
0000
0001
0020
,
1000
0100
0031
0100
1000
0100
0001
0010
0200
0000
0000
0000
1001
0000
0000
0000
,
0001
0000
0000
0010
1001
0000
0000
0000
2300
0000
0000
0000
0011
0000
0000
0000
,
0001
0000
0000
0010
0101
0000
0020
0000
3032
0100
0010
1000
0100
1000
0010
0100
,
0020
0000
0030
0020
0000
0030
0000
0000
0100
0010
1000
0100
1000
0010
0100
0010
,
2000
0000
3000
2000
0000
3000
2000
0000
3203
0000
0000
0000
1011
0000
0000
0000
,
0010
0000
0000
0010
1001
0000
0000
0000
2300
0000
0000
0000
0111
0000
0000
0000
,
3200
0000
0000
0000
0000
0000
0000
0000
0000
0000
0000
0000
0000
0000
0000
0000
0000
0000
0000
0000
0000
0000
0000
0000
0000
0000
0000
0000
0000
0000
0000
0000
0000
0000
0000
0000
0302
0000
0000
0000
0000
0000
0000
0000
0000
0000
0000
0000
0010
0000
0000
0000
0000
0000
0000
0000
0000
0000
0000
0000
0000
0000
0000
0000
0000
0000
0000
0000
0000
0000
0000
0003
0002
0000
0000
0000
0000
0000
0000
0000
0000
0000
0000
0000
0000
0000
0000
0000
0000
0000
0000
0000
0000
0000
0000
0000
0203
0000
0000
0000
0000
0000
0000
0000
0000
0000
0000
0000
0000
0000
0000
0000
0000
0000
0000
0000
0000
0000
0000
0000
0010
0000
0000
0000
0000
0000
0000
0000
0000
0000
0000
0000
0000
0000
0000
0000
0000
0000
0000
0000
0000
0000
0000
0000
2300
0000
0000
0000
0000
0000
0000
0000
0000
0000
0000
0000
0000
0000
0000
0000
0000
0000
0000
0000
0000
0000
0000
0000
0010
0000
0000
0000
0000
0000
0000
0000
0000
0000
0000
0000
0000
0000
0000
0000
0000
0000
0000
0000
0000
0000
0000
0000
,
3200
0000
0001
0320
0000
0000
0230
0000
0302
0000
1000
0023
0000
0000
0032
0000
,
0203
0000
0301
0020
0000
0000
0032
0000
0023
0000
0130
0010
0000
0010
0100
0001
,
0200
0000
0310
1000
0000
1000
0010
0001
0200
0000
0301
1000
0000
1000
0001
0010
,
0200
0000
0320
0000
0032
0000
0023
0000
0230
0000
0310
1000
0000
1000
0100
0010
,
0200
0000
0301
0010
0000
0010
0001
1000
0200
0000
0301
0100
0000
0100
0001
1000
,
0020
0000
0230
0000
2300
0000
3020
0000
0230
0000
1300
0100
0000
0100
1000
0001
,
0200
0000
0310
0100
0000
0100
0010
1000
0200
0000
0310
1000
0000
1000
0100
0001
,
0200
0000
0320
0000
0032
0000
0023
0000
0230
0000
0310
0100
0000
0100
0001
1000
,
0200
0000
0310
1000
0000
1000
0001
0010
0200
0000
0301
1000
0000
1000
0001
1000
,
0020
0000
0000
0032
0000
0000
0203
0000
2300
0000
0010
0000
0000
0001
0010
0000
,
0001
0000
0000
0000
0000
0000
0000
0000
0000
0000
0000
0000
0000
0000
0000
0000
0000
0000
0000
0000
0000
0000
0000
0000
0010
0000
0000
0000
0000
0000
0000
0000
0000
0000
0000
0000
0001
0000
0000
0000
0000
0000
0000
0000
0000
0000
0000
0000
0000
0000
0000
0000
0000
0000
0000
0000
0000
0000
0000
0000
0000
0000
0000
0000
0000
0000
0000
0000
0000
0000
0000
0000
0010
0000
0000
0000
0000
0000
0000
0000
0000
0000
0000
0000
0000
0000
0000
0000
0000
0000
0000
0000
0000
0000
0000
3000
1000
0000
0000
0000
0000
0000
0000
0000
0000
0000
0000
0000
0100
0000
0000
0000
0000
0000
0000
0000
0000
0000
0000
0000
1000
0000
0000
0000
0000
0000
0000
0000
0000
0000
0000
0000
0100
0000
0000
0000
0000
0000
0000
0000
0000
0000
0000
0000
1000
0000
0000
0000
0000
0000
0000
0000
0000
0000
0000
0000
0100
0000
0000
0000
0000
0000
0000
0000
0000
0000
0000
0000
1000
0000
0000
0000
0000
0000
0000
0000
0000
0000
0000
0000
0100
0000
0000
0000
0000
0000
0000
0000
0000
0000
0000
0000
,
0010
0100
0010
0100
0010
0100
0010
0100
0020
0000
0001
0000
0000
0100
0001
0000
,
0100
0000
0001
0100
0000
0000
0001
0000
1030
0001
1000
0001
1000
0001
1000
0001
,
0100
0010
0100
0010
0100
0010
0100
0010
0200
0000
0010
0000
0000
0001
0010
0000
,
0001
0000
0010
0001
0000
0000
0010
0000
1300
0100
1000
0100
1000
0100
1000
0100
,
0010
0100
0010
0100
0010
0100
0010
0100
0010
0001
0010
0001
0010
0001
0010
0001
,
0010
0000
0001
0000
0010
0000
0001
0000
0010
0000
0001
0000
0010
0000
0001
0000
0001
0000
0010
0000
0001
0000
0100
0000
0001
0000
0100
0000
1000
0100
0010
0001
,
1000
0100
0010
0001
1000
0100
0010
0000
0000
0000
0000
0000
1000
0000
0000
0100
0000
0000
1000
0000
0000
0010
0000
0000
0200
0000
0000
0000
0000
0000
0010
0000
0000
0000
0000
0000
0000
0000
0000
0000
0000
0000
0001
0000
0000
0000
0000
0000
,
0302
0000
0000
0000
0000
0000
0000
0000
0000
0000
0000
0000
0000
0000
0000
0000
0000
0000
0000
0000
0000
0000
0000
0000
0010
0000
0000
0000
0000
0000
0000
0000
0000
0000
0000
0000
0000
0000
0000
0000
0000
0000
0000
0000
0000
0000
0000
0000
0000
0000
0000
0000
0000
0000
0000
0000
0000
0000
0000
0000
0000
0000
0000
0000
0000
0000
0000
0000
0000
0000
0000
0000
0100
0000
0000
0000
0000
0000
0000
0000
0000
0000
0000
0000
0000
0000
0000
0000
0000
0000
0000
0000
0000
0000
0000
0000
2003
0000
0000
0000
0000
0000
0000
0000
0000
0000
0000
0000
0000
0000
0000
0000
0000
0000
0000
0000
0000
0000
0000
0000
0000
0000
0000
0000
0000
0000
0000
0000
0000
0000
0000
3000
2000
0000
0000
0000
0000
0000
0000
0000
0000
0000
0000
0000
0000
0000
0000
0000
0000
0000
0000
0000
0000
0000
0000
0000
0000
0000
0000
0000
0000
0000
0000
0000
0000
0000
0000
0000
3020
0000
0000
0000
0000
0000
0000
0000
0000
0000
0000
0000
0230
0000
0000
0000
0000
0000
0000
0000
0000
0000
0000
0000
,
2300
0100
0000
0010
3200
0001
0000
0010
,
0302
0000
0000
0000
0000
0000
0000
0000
0000
0000
0000
0000
0000
0000
0000
0000
0000
0000
0000
0000
0000
0000
0000
0000
0100
0000
0000
0000
0000
0000
0000
0000
0000
0000
0000
0000
0000
0000
0000
0000
0000
0000
0000
0000
0000
0000
0000
0000
0000
0000
0000
0000
0000
0000
0000
0000
0000
0000
0000
0000
0000
0000
0000
0000
0000
0000
0000
0000
0000
0000
0000
0000
1000
0000
0000
0000
0000
0000
0000
0000
0000
0000
0000
0000
0000
0000
0000
0000
0000
0000
0000
0000
0000
0000
0000
0000
0023
0000
0000
0000
0000
0000
0000
0000
0000
0000
0000
0000
0000
0000
0000
0000
0000
0000
0000
0000
0000
0000
0000
0000
0100
0000
0000
0000
0000
0000
0000
0000
0000
0000
0000
0030
0020
0000
0000
0000
0000
0000
0000
0000
0000
0000
0000
0000
0000
0000
0000
0000
0000
0000
0000
0000
0000
0000
0000
0000
0000
0000
0000
0000
0000
0000
0000
0000
0000
0000
0000
0000
2030
0000
0000
0000
0000
0000
0000
0000
0000
0000
0000
0000
3200
0000
0000
0000
0000
0000
0000
0000
0000
0000
0000
0000
,
0320
0000
0000
0000
0000
0000
0000
0000
2030
0000
3010
0100
0000
0100
1000
0000
,
2000
0000
3010
0100
0000
0100
1000
0000
0010
0100
0010
0100
2000
0000
3010
0200
,
0000
0000
0000
0000
0000
0000
0000
0000
0000
0000
0000
0000
0000
0000
0000
0000
0000
0000
0000
0000
0000
0000
0000
0300
0100
0000
0000
0000
0000
0000
0000
0000
0000
0000
0000
0000
0010
0000
0000
0000
0000
0000
0000
0000
0000
0000
0000
0000
0001
0000
0000
0000
0000
0000
0000
0000
0000
0000
0000
0000
1000
0000
0000
0000
0000
0000
0000
0000
0000
0000
0000
0000
0001
0000
0000
0000
0000
0000
0000
0000
0000
0000
0000
0000
0010
0000
0000
0000
0000
0000
0000
0000
0000
0000
0000
0000
2000
0000
0000
0000
0000
0000
0000
0000
0000
0000
0000
0000
0000
0000
0000
0000
0000
0000
0000
0000
0000
0000
0000
0000
3100
0000
0000
0000
0000
0000
0000
0000
0000
0000
0000
0000
0001
0000
0000
0000
0000
0000
0000
0000
0000
0000
0000
0000
0000
0000
0000
0000
0000
0000
0000
0000
0000
0000
0000
0000
0010
0000
0000
0000
0000
0000
0000
0000
0000
0000
0000
0000
0100
0000
0000
0000
0000
0000
0000
0000
0000
0000
0000
0000
0000
0000
0000
0000
0000
0000
0000
0000
0000
0000
0000
0000
,
2000
0000
3100
0001
0000
0010
0100
0000
0001
0000
0010
0000
2000
0000
3010
0002
,
0000
0000
0013
0100
1000
0100
1000
0100
0020
0000
0100
0032
0000
0000
0023
0000
,
2030
0000
0100
3020
0000
0000
0032
0000
0013
0100
1000
0100
2000
0000
3001
0200
,
0000
0000
0310
0100
1000
0100
1000
0100
0020
0000
0100
0032
0000
0000
0023
0000
,
2030
0000
0100
3002
0000
0000
0023
0000
0031
0000
0100
0000
0010
0000
0001
0020
,
1000
0100
0031
0100
1000
0100
0001
0010
0200
0000
0000
0000
1011
0000
0000
0000
,
1001
0000
0000
0010
1001
0000
0000
0000
2300
0000
0000
0000
0111
0000
0000
0000
,
0101
0000
0000
0010
0101
0000
0020
0000
3032
0100
0010
1000
0100
1000
0010
0100
,
0020
0000
0030
0020
0000
0030
0000
0000
0100
0010
1000
0100
1000
0010
0100
0010
,
2000
0000
3000
2000
0000
3000
2000
0000
3203
0000
0000
0000
1011
0000
0000
0000
,
0011
0000
0000
1000
0011
0000
0000
0000
2300
0000
0000
0000
0111
0000
0000
0000
,
3200
0000
0000
0000
0000
0000
0000
0000
0000
0000
0000
0000
0000
0000
0000
0000
0000
0000
0000
0000
0000
0000
0000
0000
0000
0000
0000
0000
0000
0000
0000
0000
0000
0000
0000
0000
0302
0000
0000
0000
0000
0000
0000
0000
0000
0000
0000
0000
0010
0000
0000
0000
0000
0000
0000
0000
0000
0000
0000
0000
0000
0000
0000
0000
0000
0000
0000
0000
0000
0000
0000
0003
0002
0000
0000
0000
0000
0000
0000
0000
0000
0000
0000
0000
0000
0000
0000
0000
0000
0000
0000
0000
0000
0000
0000
0000
0203
0000
0000
0000
0000
0000
0000
0000
0000
0000
0000
0000
0000
0000
0000
0000
0000
0000
0000
0000
0000
0000
0000
0000
0001
0000
0000
0000
0000
0000
0000
0000
0000
0000
0000
0000
0000
0000
0000
0000
0000
0000
0000
0000
0000
0000
0000
0000
2300
0000
0000
0000
0000
0000
0000
0000
0000
0000
0000
0000
0000
0000
0000
0000
0000
0000
0000
0000
0000
0000
0000
0000
0100
0000
0000
0000
0000
0000
0000
0000
0000
0000
0000
0000
0000
0000
0000
0000
0000
0000
0000
0000
0000
0000
0000
0000
,
3200
0000
0001
0320
0000
0000
0230
0000
0302
0000
0100
0023
0000
0000
0032
0000
,
0203
0010
1000
0320
0001
0100
1032
0010
0200
0000
1303
0001
0000
0001
1000
0010
,
0200
0000
0310
0001
0000
0001
0010
1000
0200
0000
0301
0100
0000
0100
0001
0010
,
0200
0000
0320
0000
0032
0000
0023
0000
0230
0000
0310
1000
0000
1000
0100
0010
,
0200
0000
0301
0010
0000
0010
0001
1000
0200
0000
0301
0100
0000
0100
0001
1000
,
0020
0000
0230
0000
2300
0000
3020
0000
0230
0000
1300
0100
0000
0100
1000
0001
,
0200
0000
0310
0100
0000
0100
0010
1000
0200
0000
0310
1000
0000
1000
0100
0001
,
0200
0000
0320
0000
0032
0000
0023
0000
0230
0000
0310
0100
0000
0100
0001
1000
,
0200
0000
0310
1000
0000
1000
0001
0010
0200
0000
0301
1000
0000
1000
0001
1000
,
0002
0000
0000
0000
0000
0000
0000
0000
0000
0000
0000
0000
0000
0000
0000
0000
0000
0000
0000
0000
0000
0000
0000
0000
0000
0000
0000
0000
0000
0000
0000
0000
0000
0000
0000
0000
0023
0000
0000
0000
0000
0000
0000
0000
0000
0000
0000
0000
0000
0000
0000
0000
0000
0000
0000
0000
0000
0000
0000
0000
0000
0000
0000
0000
0000
0000
0000
0000
0000
0000
0000
0000
0230
0000
0000
0000
0000
0000
0000
0000
0000
0000
0000
0000
0000
0000
0000
0000
0000
0000
0000
0000
0000
0000
0000
0300
0200
0000
0000
0000
0000
0000
0000
0000
0000
0000
0000
0000
0000
0000
0000
0000
0000
0000
0000
0000
0000
0000
0000
0000
0301
0000
0000
0000
0000
0000
0000
0000
0000
0000
0000
0000
0010
0000
0000
0000
0000
0000
0000
0000
0000
0000
0000
0000
0000
0000
0000
0000
0000
0000
0000
0000
0000
0000
0000
0000
0010
0000
0000
0000
0000
0000
0000
0000
0000
0000
0000
0000
0001
0000
0000
0000
0000
0000
0000
0000
0000
0000
0000
0000
1000
0000
0000
0000
0000
0000
0000
0000
0000
0000
0000
0000
,
0200
0000
0310
1000
0000
1000
0010
0001
0200
0000
0301
1000
0000
1000
0001
0010
,
0200
0000
0320
0000
0032
0000
0023
0000
0230
0000
0310
1000
0000
1000
0100
0010
,
0200
0000
0301
0010
0000
0010
0001
1000
0200
0000
0301
0100
0000
0100
0001
1000
,
0020
0000
0230
0000
2300
0000
3020
0000
0230
0000
1300
0100
0000
0100
1000
0001
,
0200
0000
0310
0100
0000
0100
0010
1000
0200
0000
0310
1000
0000
1000
0100
0001
,
0200
0000
0320
0000
0032
0000
0023
0000
0230
0000
0310
0100
0000
0100
0001
1000
,
0200
0000
0310
1000
0000
1000
0001
0010
0200
0000
0301
1000
0000
1000
0001
1000
,
0200
0010
0001
0320
0001
0100
0032
0100
2023
0000
0000
0000
0000
0000
0000
0000
,
0000
0000
0000
0000
0000
0000
3130
0010
1001
0000
0000
0000
0000
0000
0000
0000
;

//---------------dance-single - HEAVY----------------
#NOTES:
     dance-single:
     HEAVY:
     Challenge:
     12:
     1.000,1.000,1.000,1.000,1.000,924.000,135.000,166.000,0.000,70.000:

0001
0000
0000
0000
0001
0000
0000
0000
0001
0010
0100
1000
0001
0000
0000
0000
0020
0000
0000
0000
0001
0000
0000
0000
0000
0000
0001
0000
1000
0000
0000
0000
,
0001
0000
1000
0001
0000
0000
0001
0000
1030
0100
1000
0100
1000
0100
1000
0100
,
0010
0001
0010
0001
0010
0001
0010
0001
0020
0000
0001
0000
0000
0001
1000
0000
,
0001
0000
1000
0001
0000
0000
0001
0000
1030
0100
1000
0100
1000
0100
1000
0100
,
0010
0001
0010
0001
0010
0001
0010
0001
0020
0000
0001
0000
0000
0001
1000
0000
,
0001
0000
1000
0001
0000
0000
0001
0000
1030
0100
1000
0100
1000
0100
1000
0100
,
0010
0001
0010
0001
0010
0001
0010
0001
1000
0001
1000
0001
1000
0001
1000
0001
,
1000
0000
0001
0000
1000
0000
0001
0000
1000
0000
0001
0000
1000
0000
0001
0000
0001
0000
0100
0000
0010
0000
1000
0000
0010
0000
0100
0000
0001
0010
0100
1000
,
0001
0010
0100
1000
0001
0010
0100
0000
0000
0000
0000
0000
1000
0000
0000
0100
0000
0000
0010
0000
0000
0100
0000
0000
0020
0000
0000
0000
0000
0000
1000
0000
0000
0000
0000
0000
0000
0000
0000
0000
0000
0000
1030
0000
0000
0000
0000
0000
,
0002
0000
0000
0000
0000
0000
0000
0000
1000
0000
0000
0000
0000
0000
0000
0000
0000
0000
0000
0000
0000
0000
0000
0000
1000
0000
0000
0000
0000
0000
0000
0000
2003
0000
0000
0000
0000
0000
0000
0000
0001
0000
0000
3000
2000
0000
0000
0000
0000
0000
0000
0000
0000
0000
0000
0000
3010
0000
0000
0000
0100
0000
0000
0000
,
2000
0001
0000
0001
3200
0001
0000
0001
,
0320
0000
0000
0000
0000
0000
0000
0000
1000
0000
0000
0000
0000
0000
0000
0000
0000
0000
0000
0000
0000
0000
0000
0000
1000
0000
0000
0000
0000
0000
0000
0000
0032
0000
0000
0000
0000
0000
0000
0000
1000
0000
0000
0003
0002
0000
0000
0000
0000
0000
0000
0000
0000
0000
0000
0000
0013
0000
0000
0000
0100
0000
0000
0000
,
0002
0000
1000
0000
0000
0000
1000
0000
2003
0000
3110
0011
0000
0011
0110
0000
,
2000
0000
3101
0011
0000
0011
0101
0000
0001
0010
0100
0010
2000
0000
3001
0200
,
0000
0000
0310
0001
0010
0100
0010
0100
2000
0000
3110
0011
0000
0011
0110
0000
,
2000
0000
3101
0011
0000
0011
0101
0000
0002
0003
0020
0030
2000
0000
3200
0302
,
0000
0000
0013
0001
0010
0100
0010
0100
2000
0000
0001
3020
0000
0000
1032
0000
,
2003
0000
0000
0000
0000
0000
0000
0000
3001
0000
0000
0000
0020
0000
0000
0000
0000
0000
0000
0000
0000
0000
0000
0000
1032
0000
0000
0000
0000
0000
0000
0003
0001
0000
0000
0000
0010
0000
0000
0000
0100
0000
0000
0000
0010
0000
0000
0000
1000
0000
0000
0000
0000
0000
0000
0000
0001
0000
0000
0000
0200
0000
0000
0000
,
0000
0000
0310
0001
0010
0100
0010
0100
2000
0000
0001
3020
0000
0000
0032
0000
,
2003
0000
0000
0000
0000
0000
0000
0000
0001
0000
0000
0000
3020
0000
0000
0000
0000
0000
0000
0000
0000
0000
0000
0000
0032
0000
0000
0000
0000
0000
0000
0003
0002
0000
0000
0000
0003
0000
0000
0000
0020
0000
0000
0000
0030
0000
0000
0000
2000
0000
0000
0000
3000
0000
0000
0000
0200
0000
0000
0000
0302
0000
0000
0000
,
1003
0100
0010
0100
0010
0001
0010
0100
0020
0000
0000
0000
1101
0000
0000
0000
,
1001
0000
0000
0100
1001
0000
0000
0000
0230
0000
0000
0000
1011
0000
0000
0000
,
0302
0000
0000
0023
1101
0000
0230
0000
2300
0010
0100
0001
0010
0001
0100
0010
,
0100
0000
0000
0001
0000
0000
0000
0000
0100
0001
0010
0001
0100
0010
0100
0001
,
0010
0000
0000
0010
0000
0000
0010
0000
3200
0000
0000
0000
1011
0000
0000
0000
,
0001
0000
0000
0010
1001
0000
0000
0000
2300
0000
0000
0000
0111
0000
0000
0000
,
0002
0000
0000
0023
3101
0000
0032
0000
0203
0000
0310
0000
2000
0000
3000
0000
,
2000
0000
0000
3200
0000
0000
0320
0000
0032
0000
0000
2003
0000
0000
3020
0000
,
0230
0000
0000
0320
0000
0000
0032
0000
2003
0000
3110
0001
0000
0010
0110
0100
,
2000
0000
3110
0001
0000
0010
0110
0100
2000
0000
3110
0001
0000
0010
0110
0100
,
0001
0001
0010
0010
0001
0001
0100
0100
2000
0000
3110
0001
0000
0010
0110
0100
,
2000
0000
3110
0001
0000
0010
0110
0100
2000
0000
3110
0001
0000
0001
0110
0100
,
1000
1000
0100
0100
0010
0010
0001
0001
2000
0000
3110
0001
0000
0010
0110
0100
,
2000
0000
3110
0001
0000
0010
0110
0100
2000
0000
3110
0001
0000
0010
0110
0100
,
0001
0001
0010
0010
0001
0001
0100
0100
2000
0000
3110
0001
0000
0010
0110
0100
,
2000
0000
3110
0001
0000
0010
0110
0100
2000
0000
3110
0001
0000
0010
0110
0100
,
1000
0000
0010
0000
0100
0000
0001
0000
1000
0100
0010
0001
1000
0100
0010
0001
0020
0000
0000
0000
0001
0000
0000
0000
0000
0000
0001
0000
1000
0000
0000
0000
,
0001
0000
1000
0001
0000
0000
0001
0000
1030
0100
1000
0100
1000
0100
1000
0100
,
0010
0001
0010
0001
0010
0001
0010
0001
0020
0000
0001
0000
0000
0001
1000
0000
,
0001
0000
1000
0001
0000
0000
0001
0000
1030
0100
1000
0100
1000
0100
1000
0100
,
0010
0001
0010
0001
0010
0001
0010
0001
0020
0000
0001
0000
0000
0001
1000
0000
,
0001
0000
1000
0001
0000
0000
0001
0000
1030
0100
1000
0100
1000
0100
1000
0100
,
0010
0001
0010
0001
0010
0001
0010
0001
0010
0100
0010
0100
0010
0100
0010
0100
,
0010
0000
0100
0000
0010
0000
0100
0000
0010
0000
0100
0000
0010
0000
0100
0000
0011
0000
0101
0000
0110
0000
1010
0000
0110
0000
1100
0000
0001
0010
0100
1000
,
0001
0000
0000
0000
0010
0000
0000
0000
0100
0000
0000
0000
1000
0000
0000
0000
0000
0000
0001
0000
0000
0000
0000
0000
0010
0000
0000
0000
0000
0000
0000
0000
0000
0000
0000
0000
0000
0000
0000
0000
0000
0000
0000
0000
0000
0000
0000
0000
1000
0000
0000
0000
0000
0000
0000
0000
0000
0000
0000
0000
0100
0000
0000
0000
0000
0000
0000
0000
0000
0000
0000
0000
0010
0000
0000
0000
0000
0000
0000
0000
0000
0000
0000
0000
0100
0000
0000
0000
0000
0000
0000
0000
0000
0000
0000
0000
0020
0000
0000
0000
0000
0000
0000
0000
0000
0000
0000
0000
0000
0000
0000
0000
0000
0000
0000
0000
0000
0000
0000
0000
1000
0000
0000
0000
0000
0000
0000
0000
0000
0000
0000
0000
0000
0000
0000
0000
0000
0000
0000
0000
0000
0000
0000
0000
0000
0000
0000
0000
0000
0000
0000
0000
0000
0000
0000
0000
0000
0000
0000
0000
0000
0000
0000
0000
0000
0000
0000
0000
1030
0000
0000
0000
0000
0000
0000
0000
0000
0000
0000
0000
0000
0000
0000
0000
0000
0000
0000
0000
0000
0000
0000
0000
,
0002
0000
0000
0000
0000
0000
0000
0000
1000
0000
0000
0000
0000
0000
0000
0000
0000
0000
0000
0000
0000
0000
0000
0000
1000
0000
0000
0000
0000
0000
0000
0000
2003
0000
0000
0000
0000
0000
0000
0000
0001
0000
0000
3000
2000
0000
0000
0000
0000
0000
0000
0000
0000
0000
0000
0000
3010
0000
0000
0000
0100
0000
0000
0000
,
2000
0001
0000
0001
3200
0001
0000
0001
,
0320
0000
0000
0000
0000
0000
0000
0000
1000
0000
0000
0000
0000
0000
0000
0000
0000
0000
0000
0000
0000
0000
0000
0000
1000
0000
0000
0000
0000
0000
0000
0000
0032
0000
0000
0000
0000
0000
0000
0000
1000
0000
0000
0003
0002
0000
0000
0000
0000
0000
0000
0000
0000
0000
0000
0000
0013
0000
0000
0000
0100
0000
0000
0000
,
0002
0000
1000
0000
0000
0000
1000
0000
2003
0000
3110
0011
0000
0011
0110
0000
,
2000
0000
3101
0011
0000
0011
0101
0000
0001
0010
0100
0010
2000
0000
3001
0200
,
0000
0000
0310
0001
0010
0100
0010
0100
2000
0000
3110
0011
0000
0011
0110
0000
,
2000
0000
3101
0011
0000
0011
0101
0000
0002
0003
0020
0030
2000
0000
3200
0302
,
0000
0000
0013
0001
0010
0100
0010
0100
2000
0000
0001
3020
0100
0000
1032
0000
,
2003
0000
0000
0000
0000
0000
0000
0000
3001
0000
0000
0000
0020
0000
0000
0000
1000
0000
0000
0000
0000
0000
0000
0000
1032
0000
0000
0000
0000
0000
0000
0003
0001
0000
0000
0000
0010
0000
0000
0000
0100
0000
0000
0000
0010
0000
0000
0000
1000
0000
0000
0000
0000
0000
0000
0000
0001
0000
0000
0000
0200
0000
0000
0000
,
0000
0000
0310
0001
0010
0100
0010
0100
2000
0000
0001
3020
0001
0000
0032
0000
,
2003
0000
0000
0000
0000
0000
0000
0000
0001
0000
0000
0000
3020
0000
0000
0000
1000
0000
0000
0000
0000
0000
0000
0000
0032
0000
0000
0000
0000
0000
0000
0003
0002
0000
0000
0000
0003
0000
0000
0000
0020
0000
0000
0000
0030
0000
0000
0000
2000
0000
0000
0000
3000
0000
0000
0000
0200
0000
0000
0000
0302
0000
0000
0000
,
1003
0100
0010
0100
0010
0001
0010
0100
0020
0000
0000
0000
1101
0000
0000
0000
,
1001
0000
0000
0100
1001
0000
0000
0000
0230
0000
0000
0000
1011
0000
0000
0000
,
0302
0000
0000
0023
1101
0000
0230
0000
2300
0010
0100
0001
0010
0001
0100
0010
,
0100
0000
0000
0001
0000
0000
0000
0000
0100
0001
0010
0001
0100
0010
0100
0001
,
0010
0000
0000
0010
0000
0000
0010
0000
3200
0000
0000
0000
1011
0000
0000
0000
,
0001
0000
0000
0010
1001
0000
0000
0000
2300
0000
0000
0000
0111
0000
0000
0000
,
0002
0000
0000
0023
3101
0000
0032
0000
0203
0000
0310
0000
2000
0000
3000
0000
,
2000
0000
0001
3200
0000
0000
0320
0000
0032
0000
0100
2003
0000
0000
3020
0000
,
0230
1000
0001
0320
1000
0100
0032
0010
2003
0000
3110
0001
0000
0010
0110
0100
,
2000
0000
3110
0001
0000
0010
0110
0100
2000
0000
3110
0001
0000
0010
0110
0100
,
0001
0001
0010
0010
0001
0001
0100
0100
2000
0000
3110
0001
0000
0010
0110
0100
,
2000
0000
3110
0001
0000
0010
0110
0100
2000
0000
3110
0001
0000
0001
0110
0100
,
1000
1000
0100
0100
0010
0010
0001
0001
2000
0000
3110
0001
0000
0010
0110
0100
,
2000
0000
3110
0001
0000
0010
0110
0100
2000
0000
3110
0001
0000
0010
0110
0100
,
0001
0001
0010
0010
0001
0001
0100
0100
2000
0000
3110
0001
0000
0010
0110
0100
,
2000
0000
3110
0001
0000
0010
0110
0100
2000
0000
3110
0001
0000
0010
0110
0100
,
0001
0000
0100
0000
0100
0000
0001
0000
1000
0100
0010
0001
1000
0100
0010
0000
2100
0000
0001
0000
3110
0000
0001
0000
0100
0000
0010
0000
0110
0000
0100
0000
,
2000
0001
3110
0001
0100
0010
0110
0100
2000
0010
3101
0001
0100
0010
0110
0100
,
0001
0001
0010
0010
0001
0001
0100
0100
2000
0001
3110
0001
0100
0001
0110
0100
,
2000
0001
3110
0001
0100
0010
0110
0100
2000
0010
3101
0001
0100
0010
0110
0100
,
1000
1000
0100
0100
0010
0010
0001
0001
2000
0001
3110
0001
0100
0010
0110
0100
,
2000
0001
3110
0001
0100
0010
0110
0100
2000
0010
3101
0001
0100
0010
0110
0100
,
0001
0001
0010
0010
0001
0001
0100
0100
2000
0001
3110
0001
0100
0010
0110
0100
,
2000
0001
3110
0001
0100
0010
0110
0100
2000
0001
3110
0001
0100
0010
0110
0100
,
1000
0000
0100
0000
0010
0001
0010
0100
1000
0001
0010
0100
1000
0000
0010
0000
2002
0000
0000
0000
0000
0000
0000
0000
0000
0000
0000
0000
0000
0000
0000
0000
,
0000
0000
0000
0000
0000
0000
3103
0010
1101
0000
0000
0000
0000
0000
0000
0000
;
