#TITLE:A;
#SUBTITLE:(Jello);
#ARTIST:DJ AMURO;
#TITLETRANSLIT:;
#SUBTITLETRANSLIT:;
#ARTISTTRANSLIT:;
#CREDIT:;
#BANNER:A-bn.png;
#BACKGROUND:A-bg.png;
#LYRICSPATH:;
#CDTITLE:!jelloTitle.png;
#MUSIC:A.mp3;
#OFFSET:2.460;
#SAMPLESTART:61.896;
#SAMPLELENGTH:12.000;
#SELECTABLE:YES;
#BPMS:0.000=93.000,87.500=80.000,87.750=70.000,88.000=60.000,88.250=50.000,88.500=45.000,88.750=24.000,89.000=191.000;
#STOPS:;
#BGCHANGES:;
// cache tags:
#FIRSTBEAT:4.000;
#LASTBEAT:293.000;
#SONGFILENAME:Songs/Essential Sim Collection/(Jello) A/Jellos A.sm;
#HASMUSIC:1;
#HASBANNER:1;
#MUSICLENGTH:124.006;
// end cache tags

//---------------dance-single - ----------------
#NOTES:
     dance-single:
     :
     Hard:
     12:
     1.000,0.975,0.879,0.210,1.000,801.000,109.000,26.000,0.000,0.000:  // measure 1
0000
0000
0000
0000
,  // measure 2
1001
1000
0010
1001
0100
0011
0000
1010
,  // measure 3
0100
0000
0001
0000
0010
0000
1001
0000
0010
0000
1000
0000
0100
0000
1000
0100
,  // measure 4
0001
1001
0100
0001
1100
0100
0000
1001
,  // measure 5
0100
1010
0100
0011
0001
0100
1001
1000
,  // measure 6
0100
0011
1000
1100
0010
1001
0000
0101
,  // measure 7
1000
1010
0100
1001
0010
0101
1000
0100
,  // measure 8
0010
0000
0100
0000
0101
0000
0010
0000
1001
0000
0110
0000
0000
0000
0100
0001
,  // measure 9
0100
0000
0001
0000
1000
0000
1000
0000
0001
0000
0000
0100
1010
0000
0010
0000
,  // measure 10
0101
0000
0000
0000
0000
0000
0000
0000
0000
0001
0000
0000
1100
0000
0000
0000
0000
0000
0010
0000
0000
0000
0000
0000
1000
0000
0000
0000
0100
0000
0010
0000
0000
0000
0001
0000
0010
0000
0000
0000
0100
0000
2000
0000
0000
3000
0000
0000
,  // measure 11
0100
0000
0000
0000
0000
0000
0000
0000
0000
0000
0000
0000
0000
0000
0000
0000
0010
0000
0000
0000
0000
0000
0000
0000
0001
0000
0000
0000
0000
0000
0000
0000
0000
0000
0000
0000
0000
0000
0000
0000
0100
0000
0000
0000
0000
0000
0000
0000
1000
0000
0000
0000
0000
0000
0000
0000
0000
0000
0000
0000
0000
0000
0000
0000
0001
0000
0000
0000
0000
0000
0000
0000
0200
0000
0000
0000
0000
0000
0300
0000
0000
0000
0000
0000
0000
0000
0000
0000
0000
0000
0000
0000
0000
0000
0000
0000
1000
0000
0000
0000
0000
0000
0000
0000
0000
0000
0000
0000
0000
0000
0000
0000
0100
0000
0000
0000
0000
0000
0000
0000
0010
0000
0000
0000
0000
0000
0000
0000
0000
0000
0000
0000
0000
0000
0000
0000
0001
0000
0000
0000
0000
0000
0000
0000
0010
0000
0000
0000
0000
0000
0000
0000
0000
0000
0000
0000
0000
0000
0000
0000
1000
0000
0000
0000
0000
0000
0000
0000
0002
0000
0000
0000
0000
0000
0003
0000
0000
0000
0000
0000
0000
0000
0000
0000
0000
0000
0000
0000
0000
0000
0000
0000
,  // measure 12
1000
0000
0000
0000
0001
0000
0100
0000
0000
0000
0100
0000
0010
0000
0000
0000
1000
0000
0010
0000
0000
0000
0000
0000
1000
0000
0000
0000
0001
0000
0100
0000
0000
0000
0010
0000
1000
0000
0000
0000
0100
0000
2000
0000
0000
3000
0000
0000
,  // measure 13
0100
0000
0000
0000
0000
0000
0000
0000
0000
0000
0000
0000
0000
0000
0000
0000
0010
0000
0000
0000
0000
0000
0000
0000
0001
0000
0000
0000
0000
0000
0000
0000
0000
0000
0000
0000
0000
0000
0000
0000
0100
0000
0000
0000
0000
0000
0000
0000
1000
0000
0000
0000
0000
0000
0000
0000
0000
0000
0000
0000
0000
0000
0000
0000
0100
0000
0000
0000
0000
0000
0000
0000
0020
0000
0000
0000
0000
0000
0030
0000
0000
0000
0000
0000
0000
0000
0000
0000
0000
0000
0000
0000
0000
0000
0000
0000
1000
0000
0000
0000
0000
0000
0000
0000
0000
0000
0000
0000
0000
0000
0000
0000
0001
0000
0000
0000
0000
0000
0000
0000
1000
0000
0000
0000
0000
0000
0000
0000
0000
0000
0000
0000
0000
0000
0000
0000
0100
0000
0000
0000
0000
0000
0000
0000
0010
0000
0000
0000
0000
0000
0000
0000
0000
0000
0000
0000
0000
0000
0000
0000
1000
0000
0000
0000
0000
0000
0000
0000
0200
0000
0000
0000
0000
0000
0300
0000
0000
0000
0000
0000
0000
0000
0000
0000
0000
0000
0000
0000
0000
0000
0000
0000
,  // measure 14
0001
0000
0000
0000
1000
0000
0010
0000
0000
0000
0100
0000
0010
0000
0000
0000
0001
0000
0010
0000
0000
0000
0000
0000
0100
0000
0000
0000
0100
0000
0010
0000
0000
0000
1000
0000
0100
0000
0000
0000
0001
0000
0020
0000
0000
0030
0000
0000
,  // measure 15
1000
0000
0000
0000
0000
0000
0000
0000
0000
0000
0000
0000
0000
0000
0000
0000
0001
0000
0000
0000
0000
0000
0000
0000
0010
0000
0000
0000
0000
0000
0000
0000
0000
0000
0000
0000
0000
0000
0000
0000
0100
0000
0000
0000
0000
0000
0000
0000
0010
0000
0000
0000
0000
0000
0000
0000
0000
0000
0000
0000
0000
0000
0000
0000
1000
0000
0000
0000
0000
0000
0000
0000
0200
0000
0000
0000
0000
0000
0300
0000
0000
0000
0000
0000
0000
0000
0000
0000
0000
0000
0000
0000
0000
0000
0000
0000
0000
0000
0000
0000
0000
0000
0000
0000
0000
0000
0000
0000
0000
0000
0000
0000
0000
0000
0000
0000
0000
0000
0000
0000
0010
0000
0000
0000
0000
0000
0000
0000
0000
0000
0000
0000
0000
0000
0000
0000
0000
0000
0000
0000
0000
0000
0000
0000
1000
0000
0000
0000
0000
0000
0000
0000
0000
0000
0000
0000
0000
0000
0000
0000
0000
0000
0000
0000
0000
0000
0000
0000
0001
0000
0000
0000
0000
0000
0000
0000
0000
0000
0000
0000
0000
0000
0000
0000
0000
0000
0000
0000
0000
0000
0000
0000
,  // measure 16
1000
0000
0000
0000
0000
0000
1001
0000
0000
0000
0000
0000
0100
0000
0000
0000
0000
0000
1001
0000
0000
0000
0000
0000
0100
0000
0000
0000
0010
0000
0001
0000
0000
0000
1000
0000
0100
0000
0000
0000
0001
0000
0020
0000
0000
0030
0000
0000
,  // measure 17
1000
0000
0000
0000
0000
0000
0000
0000
0000
0000
0000
0000
0000
0000
0000
0000
0100
0000
0000
0000
0000
0000
0000
0000
0010
0000
0000
0000
0000
0000
0000
0000
0000
0000
0000
0000
0000
0000
0000
0000
0001
0000
0000
0000
0000
0000
0000
0000
0010
0000
0000
0000
0000
0000
0000
0000
0000
0000
0000
0000
0000
0000
0000
0000
0100
0000
0000
0000
0000
0000
0000
0000
2000
0000
0000
0000
0000
0000
3000
0000
0000
0000
0000
0000
0000
0000
0000
0000
0000
0000
0000
0000
0000
0000
0000
0000
0010
0000
0000
0000
0000
0000
0000
0000
0000
0000
0000
0000
0000
0000
0000
0000
1000
0000
0000
0000
0000
0000
0000
0000
0100
0000
0000
0000
0000
0000
0000
0000
0000
0000
0000
0000
0000
0000
0000
0000
0100
0000
0000
0000
0000
0000
0000
0000
0010
0000
0000
0000
0000
0000
0000
0000
0000
0000
0000
0000
0000
0000
0000
0000
0010
0000
0000
0000
0000
0000
0000
0000
0002
0000
0000
0000
0000
0000
0000
0000
0000
0000
0000
0000
0003
0000
0000
0000
0000
0000
0000
0000
0000
0000
0000
0000
,  // measure 18
1000
0100
0010
1010
0100
0002
0003
1010
,  // measure 19
0100
0011
0001
1010
0100
0120
1030
0100
,  // measure 20
0001
2001
3100
0011
0100
2010
3000
0101
,  // measure 21
1010
0100
1001
0210
0301
0100
0001
1000
,  // measure 22
1010
0001
0100
2001
3001
0101
0000
2002
,  // measure 23
0000
0000
0000
0000
0000
3003
0000
0000
0000
0000
0000
0000
0000
0000
0000
0000
0101
0000
0000
0000
0010
0000
0000
0000
1001
0000
0000
0000
1000
0000
0001
0000
,  // measure 24
0110
0000
0101
0000
0020
0030
0000
0000
1010
0000
0100
0000
0101
0000
0001
0010
,  // measure 25
1100
0000
1100
0000
0010
0000
0010
0000
1001
0000
0100
0000
0011
0000
1000
0001
,  // measure 26
0110
0000
1001
0000
0110
0000
0000
0000
1010
0000
0100
0000
0010
0000
1000
0100
,  // measure 27
0011
0000
1010
0000
0100
0000
0100
0000
0011
0000
1000
0000
1010
0000
1000
0100
,  // measure 28
0011
0000
1010
0000
0200
0300
0000
0000
0011
0000
1000
0000
0100
0000
0001
0010
,  // measure 29
1100
0000
0011
0000
1000
0000
1000
0000
0110
0000
1000
0000
0011
0000
1000
0010
,  // measure 30
0100
0000
0011
0000
2000
3000
0000
0000
0001
1000
0010
0000
0100
0000
0001
1000
,  // measure 31
0000
0010
1000
0000
0001
0100
1000
0000
0001
0000
0010
0000
1100
0000
0010
0001
,  // measure 32
1100
0000
0010
0000
0101
0000
0000
0000
1100
0000
0010
0000
0100
0000
1000
0001
,  // measure 33
0110
0000
1000
0000
1010
0000
0000
0000
0001
0000
0101
0000
1010
0000
0001
0010
,  // measure 34
1000
0000
0100
0000
1000
0000
0000
0000
0011
0000
1000
0000
0110
0000
0001
0100
,  // measure 35
0010
0000
1010
0000
0110
0000
0000
0000
0011
0000
0100
0000
1001
0000
1000
0100
,  // measure 36
0010
0000
0011
0000
1001
0000
0000
0000
1000
0000
1100
0000
0101
0000
0100
0010
,  // measure 37
1000
0000
0011
0000
1001
0000
0000
0000
1000
0000
1100
0000
1001
0000
0001
1000
,  // measure 38
0100
0000
0000
0000
0011
0000
0000
1000
0100
0010
0001
0000
0000
0000
0000
0000
1000
0000
0100
0000
0010
0000
0000
0000
0011
0000
0000
0000
1000
0000
0001
0000
,  // measure 39
0000
0001
1000
0000
0001
0100
0010
0000
1100
0010
0001
0010
0100
0000
0010
1000
,  // measure 40
0000
1000
0010
0000
0001
0100
0000
0010
1000
0000
1000
0100
0010
0001
0010
0100
,  // measure 41
1001
0000
0100
0010
1100
0000
1100
0000
0010
1000
0001
0100
0000
0010
1000
0001
,  // measure 42
1100
0000
1100
0000
0001
0100
0000
0010
1000
0000
1000
0001
0100
0010
0001
0000
,  // measure 43
1000
0100
0010
0100
0001
1000
0100
0000
0001
1000
0100
0010
1000
0000
0010
0000
,  // measure 44
1000
0010
0000
0001
1000
0000
0001
1000
0000
0000
0100
0001
1000
0000
0010
0000
,  // measure 45
1000
0100
0010
0000
0001
0100
1000
0000
0010
0000
1000
0100
0000
0010
0100
0000
,  // measure 46
1000
0000
0010
0000
1000
0010
0100
0000
1000
0100
0001
0000
0001
0010
1000
0000
,  // measure 47
1000
0010
0100
0000
0001
1000
0100
0000
1001
0010
0100
0010
0100
0000
0010
1000
,  // measure 48
0000
0100
0010
0000
1000
0001
0000
0100
0001
0000
1000
0100
1000
0001
0100
0010
,  // measure 49
1001
0000
0100
1000
0011
0000
0011
0000
0010
1000
0100
0010
0000
0010
1000
0001
,  // measure 50
0110
0000
0110
0000
1000
0100
0000
0100
0001
0000
0100
0001
0100
0010
0001
0000
,  // measure 51
1000
0100
1000
0010
0001
1000
0100
0000
0001
1000
0100
0010
1000
0000
0010
0000
,  // measure 52
0001
0100
0000
0010
1000
0000
0001
1000
0000
0000
0100
0001
1000
0000
0010
0000
,  // measure 53
1000
0100
0010
0000
0001
0100
1000
0000
0010
0000
1000
0100
0000
0010
0100
0000
,  // measure 54
1000
0000
0000
0000
0000
0000
1000
0100
0010
0001
0000
0000
0000
0000
0000
0000
2002
0000
0000
0000
0000
0000
0000
0000
3003
0000
0000
0000
0000
0000
0000
0000
,  // measure 55
1000
0010
0100
1000
0001
0100
0010
1000
0010
0000
1000
0000
1001
0000
0000
0000
,  // measure 56
1000
0100
1000
0100
0001
0010
0100
1000
0001
0010
0100
1000
0010
0100
0010
0100
,  // measure 57
0010
1000
0100
1000
0010
0100
1000
0010
0100
1000
0001
1000
0010
0100
0001
1000
,  // measure 58
0010
0100
0001
1000
0010
0100
0001
1000
0010
1000
0100
0010
0001
1000
0100
0010
,  // measure 59
0001
1000
0100
0010
0001
0100
0010
1000
0001
0010
0001
0010
0100
0010
0100
0010
,  // measure 60
0100
1000
0100
1000
0001
1000
0010
1000
0100
1000
0001
0100
1000
0100
0010
1000
,  // measure 61
0010
0100
1000
0001
0100
0010
0001
1000
0001
0010
1000
0100
0001
0100
0010
1000
,  // measure 62
0100
0001
0100
0010
0100
1000
0001
0100
0010
0001
0010
0001
1000
0100
1000
0100
,  // measure 63
0001
0010
0001
0010
0100
1000
0100
1000
0010
0100
1000
0010
1000
0100
0010
0100
,  // measure 64
0001
0010
1000
0100
0010
0100
1000
0001
0010
0100
1000
0010
0100
0010
0001
0010
,  // measure 65
1000
0010
0100
0001
0100
0010
1000
0100
0010
0100
1000
0010
1000
0100
0010
0001
,  // measure 66
1000
0100
0010
0100
0010
0100
0010
0001
1010
0000
0100
0000
1001
0000
0010
0000
,  // measure 67
1000
0100
0010
0001
0010
0100
1000
0100
0001
0010
0001
0010
1000
0100
1000
0100
,  // measure 68
0010
0100
0010
0100
1000
0001
1000
0001
0100
0010
1000
0100
0010
0100
1000
0001
,  // measure 69
0100
0010
1000
0010
0100
0001
1000
0100
0001
0010
0100
1000
0001
0010
0100
1000
,  // measure 70
0100
0010
0001
1000
0100
0010
0001
1000
0001
0100
0010
0001
1000
0010
0100
1000
,  // measure 71
0001
0010
0100
1000
0100
0010
1000
0000
1000
0100
0010
0001
1000
0100
0010
0001
,  // measure 72
1000
0001
0100
0010
1000
0001
0100
0010
0001
0010
0100
1000
0001
0010
0100
1000
,  // measure 73
0100
1000
0001
0100
0001
0010
0000
0000
2002
0000
0000
0000
0000
0000
0000
0000
,  // measure 74
0000
3003
0000
0000
;
