#TITLE:Black Betty;
#SUBTITLE:;
#ARTIST:Loffciamcore;
#TITLETRANSLIT:;
#SUBTITLETRANSLIT:;
#ARTISTTRANSLIT:;
#CREDIT:B. Abear;
#BANNER:Bn-Betty.png;
#BACKGROUND:Bg-Betty.png;
#LYRICSPATH:;
#CDTITLE:;
#MUSIC:Black Betty.ogg;
#OFFSET:-0.020;
#SAMPLESTART:7.040;
#SAMPLELENGTH:15.000;
#SELECTABLE:YES;
#BPMS:0.000=240.000;
#STOPS:;
#BGCHANGES:;
// cache tags:
#FIRSTBEAT:32.000;
#LASTBEAT:708.000;
#SONGFILENAME:Songs/SPEEEDCOOOORE 2/Black Betty - [CosmicPope]/Black Betty.sm;
#HASMUSIC:1;
#HASBANNER:1;
#MUSICLENGTH:177.175;
// end cache tags

//---------------dance-single - B. Abear----------------
#NOTES:
     dance-single:
     B. Abear:
     Challenge:
     16:
     1.000,1.000,0.626,0.147,0.821,1143.000,111.000,26.000,46.000,0.000:
0000
0000
0000
0000
,
0000
0000
0000
0000
,
0000
0000
0000
0000
,
0000
0000
0000
0000
,
0000
0000
0000
0000
,
0000
0000
0000
0000
,
0000
0000
0000
0000
,
0000
0000
0000
0000
,
0001
0100
0010
1000
0001
0000
0010
0000
,
1100
0001
0100
0001
,
1000
0100
0010
0001
1000
0000
0010
0000
,
0101
0000
1000
0000
0001
0001
1000
0000
,
0100
0010
0001
0100
0010
0000
0100
0000
,
1010
0001
1000
0001
,
0100
0010
1000
0100
0010
0000
0100
0000
,
0012
0000
2003
3000
0100
0000
0010
0000
,
0001
0100
0010
1000
0001
1000
0010
0100
0001
1000
0001
0100
0010
1000
0001
1000
,
0100
0010
0001
1000
0001
0010
0100
1000
0001
0010
0001
1000
0100
0010
0001
1000
,
0010
0100
0001
0100
0001
1000
0010
0100
0001
1000
0100
1000
0001
0100
0010
1000
,
0001
0010
0100
1000
0001
1000
0100
1000
0004
0000
0000
0000
4003
0000
0000
0000
,
3001
0100
0010
0100
0001
1000
0010
1000
0001
0100
0010
1000
0010
0100
0001
1000
,
0001
0010
0100
1000
0001
0010
0001
1000
0100
1000
0001
0010
0100
1000
0001
1000
,
0010
0100
0010
1000
0001
0100
0010
0100
0001
1000
0010
0100
0001
1000
0001
0010
,
0100
0100
1000
0001
,
1000
0010
0100
0001
1000
0010
1000
0001
0100
0010
1000
0010
0100
0001
1000
0001
,
1000
0100
0010
0001
1000
0001
0010
0001
1000
0100
0010
0001
1000
0100
1000
0001
,
0100
0010
0100
0001
1000
0010
0100
0001
1000
0010
0100
0010
1000
0001
0100
0001
,
4000
3400
0340
0034
,
1003
0010
0100
0001
1000
0010
1000
0001
0100
0010
1000
0001
0100
0001
1000
0001
,
0010
0100
1000
0001
0010
0001
1000
0100
0010
0001
1000
0001
0010
0001
1000
0100
,
1000
0001
0100
0001
,
1001
1000
0001
0010
,
1100
0000
1000
0001
0100
0000
0010
0000
,
0100
0000
0001
0000
1000
0001
0100
0000
,
0101
0000
0001
1000
0100
0000
0010
0000
,
0001
0000
1000
0000
1100
0100
0010
0000
,
0011
0001
1000
0010
0100
0000
0001
0000
,
2000
0000
3001
0000
0100
0010
1000
0000
,
0101
0001
1000
0100
0010
0000
0100
0000
,
2000
0000
3010
0000
0110
0100
0001
0000
,
1001
1000
0001
0010
0100
0000
1000
0000
,
0020
0000
0130
0000
0001
0100
0010
0000
,
0101
0100
0001
1000
0100
0000
1000
0000
,
0002
0013
0110
0100
,
1100
1000
0001
0100
0001
0000
1000
0000
,
0200
0310
0100
1000
,
0101
0001
0100
0010
1000
0000
0001
0000
,
0020
0000
0000
0000
0130
0000
0000
0000
10MM
0000
0000
00MM
0000
0MM0
0000
0MM0
,
0001
0100
0010
1000
0010
0100
0010
1000
0001
0100
0001
1000
0010
0100
0001
1000
,
0001
0010
0100
1000
0001
0010
0001
1000
0100
1000
0001
0010
0100
1000
0001
1000
,
0001
0100
0010
0100
0001
1000
0010
0100
0001
1000
0001
1000
0010
0100
0001
1000
,
0001
0010
0100
1000
0001
0010
0001
1000
0100
0010
0100
1000
0001
0010
0001
1000
,
0100
0010
0001
1000
0010
0100
0001
1000
,
0200
1300
0001
0100
0010
0100
0001
1000
,
0001
0010
0100
1000
0001
0010
0001
1000
,
0020
0030
0100
0000
0001
0000
1001
0000
,
1000
0010
0100
0001
1000
0100
1000
0001
0010
0100
1000
0001
0100
0001
1000
0010
,
0100
0001
1001
1000
,
0001
0010
0100
1000
0001
1000
0010
0100
0010
1000
0001
1000
0100
0010
0001
1000
,
0001
0010
0100
1000
0001
0100
0001
0000
,
4000
0000
0000
0000
3004
0000
0000
0000
1003
0010
0100
0001
1000
0100
1000
0001
,
0100
0010
1000
0001
1000
0100
0010
0001
1000
0001
1000
0010
0100
0001
1000
0001
,
0040
0000
0000
0000
0430
0000
0000
0000
1300
0001
1000
0010
0100
0001
1000
0010
,
1000
0001
0010
0100
1000
0001
1000
0100
0010
0000
M00M
0000
0000
M00M
0000
0000
,
0021
0031
1000
0010
,
0100
0001
1000
0001
,
1000
0100
0010
0001
1000
0001
0100
0001
1000
0010
0100
0001
1000
0100
0010
0001
,
1000
0001
0010
0001
,
1000
0100
0010
0001
1000
0001
0100
0001
1000
0010
0100
0001
0100
0010
0100
0001
,
1000
0100
1000
0001
0010
0100
1000
0001
1000
0000
0100
0000
1000
0000
0001
0000
,
0100
0010
0100
0001
1000
0010
0100
0001
1000
0100
1000
0001
0010
0100
1000
0001
,
1000
0100
0010
0001
1000
0010
1000
0001
0100
0000
0000
0000
0100
0000
0000
0000
,
0001
0010
0100
1000
0001
0100
0001
1000
,
0200
0000
0310
0000
0001
0000
1000
0000
0010
0000
1000
0000
0001
1000
0001
1000
,
0001
0010
0100
1000
0001
1000
0010
0100
,
0002
1003
0100
0010
0001
1000
0004
0000
,
4003
0000
0000
0000
3400
0000
0000
0000
1300
0001
0010
0001
1000
0100
0010
0001
,
1000
0001
0100
0010
0100
0001
1000
0010
0100
0001
1000
0001
0010
0100
1000
0001
,
4000
0000
3004
0000
0403
0340
4030
3004
,
0043
0000
0000
0000
0430
0000
0000
0000
4300
0000
0000
0000
3004
0000
0000
0000
0043
0000
0000
0000
0000
0000
0000
0000
0430
0000
0000
0000
0000
0000
0000
0300
,
1100
0000
0000
00MM
,
0000
0000
0000
0000
,
0000
0000
0000
00MM
,
0000
0000
0000
0000
,
0000
0000
0000
00MM
,
0000
0000
0000
0000
,
0000
0000
0000
00MM
,
0000
0000
0000
0000
,
1001
0000
1000
0000
0010
0000
0100
0000
0001
0000
0000
0000
0020
0000
0000
0030
,
1100
0001
0100
0100
,
1010
0000
0010
0000
0100
0000
0001
0000
1000
0000
0000
0000
0200
0000
0000
0300
,
0011
1000
0010
0100
,
1001
0000
0001
0000
0010
0000
0100
0000
1000
0000
0000
0000
0002
0000
0000
0003
,
1100
1000
0010
0100
,
1001
0000
0001
0000
1000
0000
0100
0000
0010
0000
0000
0000
0200
0000
0000
0300
,
0011
0000
1000
0000
0MM0
0MM0
0MM0
0MM0
,
0001
0100
0010
1000
0001
0010
0100
1000
,
1001
0001
0100
0010
1000
0010
1000
0100
,
0010
0001
1000
0100
1000
0001
0100
0010
,
1000
0010
0100
0001
1000
0100
1000
0001
0100
0010
1000
0001
0010
0100
1000
0001
,
1000
0100
0010
0001
1000
0001
0010
0100
,
1100
1000
0001
0100
0010
0100
0001
1000
,
0001
0010
0100
0010
0001
1000
0001
0100
,
0101
0001
0010
0100
1000
0000
1000
0000
,
1001
0000
0101
0000
,
0110
0000
1010
0000
,
2002
3003
0000
0000
1100
0000
0000
0000
,
0110
0100
1000
0001
,
1001
0000
1010
0000
,
0110
0000
0101
0000
,
2002
3003
0000
0000
1100
0000
0000
0000
,
0110
0100
0010
0001
,
1000
0010
0100
0001
1000
0001
0100
0010
,
0110
0100
0001
1000
0100
0010
0001
1000
,
0001
0010
0100
1000
0001
0100
0001
0010
,
0011
0000
0001
0000
1000
0000
0010
0000
1000
0010
0100
0001
1000
0010
1000
0001
,
1000
0100
0010
0001
1000
0100
1000
0001
,
0101
0100
0010
1000
0001
0010
0100
1000
,
0002
1003
0100
0010
0001
1000
0010
0100
,
0001
1000
0100
1000
,
1001
0001
0010
0100
1000
0000
0001
0000
,
1010
1000
0100
0100
,
1001
1000
0010
0100
0001
0000
1000
0000
,
0101
0010
1000
0001
,
1100
1000
0100
0010
0001
0000
1000
0000
,
0101
1000
0010
0100
,
M0M1
0000
0000
0000
,
0000
0000
0000
0000
1MM0
0MM0
0MM0
0MM0
,
1001
0000
1100
0000
,
0110
0000
0011
0000
,
1001
0000
0101
0000
,
0110
0000
1010
0000
,
1001
0000
1100
0000
,
0110
0000
0011
0000
,
1001
0000
1010
0000
,
0110
0000
0101
0000
,
1001
1000
0001
0010
0110
0000
0100
0000
,
1100
1000
1001
0001
,
0101
0100
0010
1000
1010
0000
0010
0000
,
0110
0100
0101
0001
,
1001
1000
0100
0010
0011
0000
0001
0000
,
1001
1000
1010
0010
,
0110
0100
0001
0010
0011
0000
0001
0000
,
1100
0000
1000
0000
0MM1
0MM0
0MM1
0MM0
,
1000
0010
0100
0001
1000
0010
0100
0001
1000
0100
0010
0001
1000
0001
0100
0001
,
1000
0100
0010
0001
1000
0100
1000
0001
0010
0100
1000
0001
0100
0001
1000
0010
,
0100
0001
1000
0010
0100
0001
1000
0100
1000
0001
0010
0100
1000
0001
0100
0001
,
1000
0100
1000
0001
0100
0010
1000
0001
4000
0000
0000
0000
3004
0000
0000
0000
,
1003
0100
0010
0001
1000
0001
0100
0001
1000
0100
1000
0001
0100
0010
1000
0010
,
0100
0001
0100
0001
1000
0100
1000
0001
0010
0100
1000
0001
0010
0001
1000
0001
,
0010
0100
1000
0001
0100
0010
1000
0010
0100
0001
1000
0010
1000
0001
0100
0001
,
1000
1000
0001
0011
,
0010
0100
1000
0001
0100
0010
0100
0001
,
1001
1000
0100
0010
0001
1000
0001
0100
,
0010
0100
0001
1000
0100
0010
0001
1000
,
1100
0100
0010
0001
4000
0000
3004
0000
,
1003
0010
0100
0001
1000
0010
0100
0001
1000
0001
1000
0100
1000
0001
0010
0100
,
1000
0001
0010
0001
1000
0010
1000
0001
0100
0010
0100
0001
1000
0010
0100
0001
,
1000
0100
0010
0001
1000
0000
0100
0000
,
0012
0000
2003
3000
0010
0000
0100
0000
,
0101
0001
1000
0001
0010
0000
0100
0000
,
0011
1000
0010
0100
,
1001
0001
0010
0100
1000
0000
0001
0000
,
0100
0001
1100
1000
,
0101
0001
0100
0010
1000
0000
0001
0000
,
0010
0001
0100
0001
,
1100
1000
0001
0100
0010
0000
1000
0000
,
0011
0001
1010
1000
,
1001
0000
0000
0000
,
0000
0000
0000
0000
,
1001
0000
0000
0000
,
0000
0000
1001
0000
,
1001
0000
0000
0000
,
0000
0000
0000
0000
,
1001
0000
0000
0000
,
2010
0000
3002
0003
0010
0000
0100
1000
,
1001
0000
0000
0000
;

//---------------dance-single - J. Nero----------------
#NOTES:
     dance-single:
     J. Nero:
     Hard:
     14:
     0.939,1.000,0.638,0.463,0.409,945.000,113.000,82.000,10.000,4.000:
0000
0000
0000
0000
,
0000
0000
0000
0000
,
0000
0000
0000
0000
,
0000
0000
0000
0000
,
0000
0000
0000
0000
,
0000
0000
0000
0000
,
0000
0000
0000
0000
,
0000
0000
0000
0000
,
1001
0001
0100
0010
0100
0000
0001
0000
,
1001
1000
1100
0001
,
0101
0100
0010
1000
0100
0000
0010
0000
,
1001
1000
0110
0001
,
1001
1000
0100
0010
0100
0000
1000
0000
,
1001
0001
1100
1000
,
1010
0010
0100
0001
0010
0000
0100
0000
,
1200
0000
1300
0000
0001
0000
0100
0001
,
1000
0001
0100
0001
1000
0000
0000
0000
0001
0100
0010
0100
0001
0000
0000
0000
,
1000
0001
0100
0001
1000
0000
0000
0000
0100
1000
0001
1000
0100
0000
0000
0000
,
1000
0100
0010
0001
1000
0000
0000
0000
0001
0010
0100
1000
0001
0000
0000
0000
,
1000
0010
1000
0010
0100
0000
0000
0000
0004
0000
0000
0000
0043
0000
0000
0000
,
0130
1000
0001
1000
0100
0000
0000
0000
1000
0010
0100
0010
1000
0000
0000
0000
,
0001
0100
0001
1000
0100
0000
0000
0000
1000
0100
0010
0001
1000
0000
0000
0000
,
0001
0100
0001
1000
0100
0000
0000
0000
1000
0001
0100
0001
1000
0000
0000
0000
,
1001
0001
0100
0010
,
1000
0001
1000
0001
0100
0000
0001
0000
0100
0001
0010
0100
1000
0000
0010
0000
,
0100
0001
0100
0001
1000
0000
0100
0000
0010
0001
1000
0001
1000
0000
0010
0000
,
0100
0001
0100
0010
1000
0000
0001
0000
0100
0001
0010
0100
1000
0000
0001
0000
,
4000
3400
4300
3004
,
1003
0010
1000
0001
0100
0001
0100
0010
1000
0010
1000
0001
0100
0001
1000
0010
,
1000
0001
0010
0001
0010
0100
1000
0001
1000
0100
0010
0100
0010
0001
1000
0001
,
1000
0000
0000
0000
,
1001
0000
0000
0000
,
2001
3000
0001
0000
0100
0000
0001
0000
,
1001
0000
1000
0000
0100
1000
0000
0000
,
1100
0000
0100
0000
0010
0000
0001
0100
,
0110
0010
1001
1000
,
0110
0010
1000
0001
0010
0100
1000
0000
,
0002
0103
0010
0100
,
1001
0001
0010
0100
1000
0000
0010
0000
,
0200
0301
1100
1000
,
0101
0100
0001
1000
0010
0000
0100
0001
,
0020
0130
1000
0001
,
1001
1000
0100
1000
0001
0000
0010
0100
,
2000
3001
0101
1000
,
1010
0010
0100
0001
0010
0000
0100
1000
,
0020
0000
0130
0000
0001
1000
0100
0000
,
1100
0100
1000
0010
0100
0000
0001
0000
,
0020
0130
1000
0001
,
0400
0000
0000
0000
0301
0000
0010
0100
,
1000
0000
0001
0000
0100
0001
0000
0001
,
4000
0000
0000
0000
3001
0000
0100
0010
,
1000
0000
0100
0000
1000
0001
0010
0000
,
0100
1000
0001
0100
0001
1000
0100
0010
,
0002
1003
0100
1000
0001
0100
0010
0100
,
0001
1000
0100
0010
0001
1000
0001
0100
,
0101
0001
1000
1001
,
0001
0100
0001
0100
0010
1000
0001
1000
0001
0100
0010
0100
0001
1000
0001
1000
,
0001
0000
1001
0000
,
1000
0100
0010
0001
0010
0001
1000
0100
1000
0001
0010
0001
1000
0100
0010
0001
,
1000
0001
0100
0001
1000
0010
0100
0010
,
4000
0000
3004
0000
0013
0000
0100
1000
,
0002
0003
0100
0000
0010
0100
0000
0000
,
0004
0000
0043
0000
0130
0000
1000
0001
,
0200
0310
2000
3000
,
1002
0103
0010
0100
,
0101
0001
0010
0100
,
1000
0010
1000
0010
0100
0001
0100
0010
1000
0001
1000
0001
0100
0010
0100
0001
,
1000
0001
1000
0100
,
1000
0100
0010
0001
0010
0001
1000
0100
1000
0001
0010
0100
1000
0001
1000
0100
,
0010
0100
0010
0001
1000
0100
0010
0001
4000
0000
3004
0000
0403
0000
0340
0000
,
1030
0001
1000
0001
0100
0010
0100
0010
1000
0001
0100
0001
1000
0010
1000
0010
,
0100
0001
0100
0010
1000
0001
1000
0001
1000
0000
0000
0000
0001
0000
0000
0000
,
1000
0100
1000
0001
0010
0100
1000
0001
,
1000
0000
0010
0000
0100
0000
0001
0000
0100
0000
0010
0000
0100
0001
0100
0001
,
1000
0100
0010
0100
0010
0001
1000
0001
,
2000
3010
0100
0001
1000
0100
0040
0000
,
0034
0000
0000
0000
4003
0000
0000
0000
3001
0100
0001
0100
0010
1000
0001
0100
,
0001
1000
0010
1000
0001
0100
0001
0100
0010
1000
0001
1000
0001
0100
0010
1000
,
0004
0000
0043
0000
0430
4300
3400
0340
,
0034
0000
4003
0000
3040
0000
0430
0000
0304
0000
0000
0000
4003
0000
0000
3000
,
1001
0000
0000
0MM0
,
0000
0000
0000
0000
,
0000
0000
0000
0MM0
,
0000
0000
0000
0000
,
0000
0000
0000
0MM0
,
0000
0000
0000
0000
,
0000
0000
0000
0MM0
,
0000
0000
0000
0000
,
1001
0001
0100
0010
0100
0000
0002
0000
,
1103
1000
0001
0100
,
0110
0010
1000
0001
0010
0000
0200
0000
,
1301
1000
0101
0100
,
0110
0010
1000
0001
1000
0000
0200
0000
,
0311
0001
0100
0010
,
1010
1000
0100
0010
0001
0000
2000
0000
,
3101
0000
0000
0000
,
0001
0100
0001
1000
0100
1000
0001
0100
,
0010
0100
0001
1000
0001
0100
0010
1000
,
0100
0010
0100
0010
0001
1000
0001
1000
,
0100
0010
0001
1000
0001
1000
0100
0010
0001
1000
0001
0010
0100
1000
0001
1000
,
0001
0100
0010
0100
0001
1000
0010
0100
,
0001
0010
0100
1000
0001
1000
0001
0010
,
0100
0010
0100
1000
0001
1000
0100
0010
,
0100
1000
0100
0010
0001
0000
1000
0000
,
2002
3003
0000
0000
0202
0303
0000
0000
,
0220
0330
0000
0000
2020
3030
0000
0000
,
2002
3003
0000
0000
0022
0033
0000
0000
,
0220
0330
0100
0000
1000
0000
0001
0000
,
0202
0303
0000
0000
2020
3030
0000
0000
,
2200
3300
0000
0000
0220
0330
0000
0000
,
0022
0033
0000
0000
2002
3003
0000
0000
,
1001
1000
0001
0100
,
0001
0010
0001
0010
0100
1000
0001
1000
,
0100
0010
0001
1000
0001
0100
0010
0100
,
0001
1000
0001
1000
0100
0010
0100
1000
,
0001
0000
1000
0000
0010
0000
0100
0000
0001
0100
0001
1000
0010
1000
0001
0100
,
0001
0100
0010
1000
0100
1000
0001
0010
,
0100
0010
0001
1000
0100
1000
0001
0100
,
0010
0100
0001
1000
0001
0100
0010
0100
,
0001
1000
0010
0110
,
1001
1000
0100
0010
0100
0000
1000
0000
,
1001
0001
0100
0010
,
2000
0000
3001
0100
0010
0000
0100
0000
,
0101
0001
0010
0100
,
1100
1000
0001
0100
0001
0000
0100
0000
,
0110
0010
1000
0001
,
2000
3000
0000
0000
0000
0000
0000
0000
,
0000
0000
0MM0
0000
,
2002
3003
0000
0000
0022
0033
0000
0000
,
0220
0330
0000
0000
2200
3300
0000
0000
,
2002
3003
0000
0000
0202
0303
0000
0000
,
0220
0330
0000
0000
2002
3003
0000
0000
,
2200
3300
0000
0000
0220
0330
0000
0000
,
0022
0033
0000
0000
0202
0303
0000
0000
,
2020
3030
0000
0000
0220
0330
0000
0000
,
0202
0303
0000
0000
2002
3003
0000
0000
,
1001
1000
0100
0010
0001
0000
0100
0000
,
0110
0010
1000
0001
,
0011
0010
0100
1000
0001
0000
0100
0000
,
0101
0001
1000
1100
,
1001
0001
1000
0010
0100
0000
0001
0000
,
0011
0010
0100
1000
,
1001
0001
0010
0100
1000
0000
0010
0000
,
0101
0100
0001
1000
,
0001
0100
0100
1000
0001
0100
0010
0010
,
0100
1000
0100
0100
0001
1000
0010
0010
,
0100
1000
0100
0100
0001
1000
0010
0010
,
0001
0100
0100
1000
0004
0000
0043
0000
,
0031
0100
0100
1000
0001
1000
0010
0010
,
0001
0100
0100
1000
0100
1000
0010
0010
,
0001
0100
0100
1000
0001
1000
0010
0010
,
0001
0100
0010
1010
,
1000
0100
1000
0001
0010
0100
1000
0001
,
1000
0010
0100
0001
0100
0010
1000
0001
,
0010
0100
0010
0100
1000
0001
1000
0100
,
0010
0100
0010
0001
4000
0000
3004
0000
,
1003
0100
0010
0001
1000
0001
0010
0100
1000
0001
1000
0100
0010
0100
0010
0001
,
1000
0001
0100
0001
1000
0010
1000
0010
0100
0001
0100
0010
1000
0001
1000
0001
,
0100
0000
0000
0000
,
0002
0000
1003
0000
0010
0000
0100
0001
,
1001
1000
0100
1000
0001
0000
0010
0000
,
0110
0100
1000
0001
,
1001
1000
0001
0010
0100
0000
1000
0000
,
1001
0001
0101
0100
,
1010
0010
1000
0100
0010
0000
0001
0000
,
1001
1000
0001
0010
,
0110
0100
1000
0001
1000
0000
0010
0000
,
0101
0100
1001
0000
,
1001
0000
0000
0000
,
0000
0000
0000
0000
,
0101
0000
0000
0000
,
0000
0000
1001
0000
,
1100
0000
0000
0000
,
0000
0000
0000
0000
,
1001
0000
0000
0000
,
0002
0000
1003
0000
0010
0000
0100
0001
,
2002
0000
0000
3003
;

//---------------dance-single - J. Nero----------------
#NOTES:
     dance-single:
     J. Nero:
     Medium:
     10:
     0.812,0.948,0.598,0.502,0.006,787.000,106.000,89.000,10.000,4.000:
0000
0000
0000
0000
,
0000
0000
0000
0000
,
0000
0000
0000
0000
,
0000
0000
0000
0000
,
0000
0000
0000
0000
,
0000
0000
0000
0000
,
0000
0000
0000
0000
,
0000
0000
0000
0000
,
1000
0001
0010
0100
1000
0000
0001
0000
,
1001
1000
0010
0100
,
0001
0100
0001
1000
0100
0000
0010
0000
,
0011
0001
1000
1010
,
0010
1000
0100
0010
0100
0000
1000
0000
,
1001
0001
0101
0100
,
0010
1000
0100
1000
0001
0000
0100
0000
,
0020
0000
1030
0000
0001
0000
0100
0001
,
1000
0100
0100
0001
1000
0001
0010
0010
,
1000
0100
0100
0001
1000
0100
0010
0010
,
1000
0100
0100
0001
1000
0001
0010
0010
,
0100
0001
0100
0100
4000
0000
3004
0000
,
1003
0100
0100
0001
1000
0001
0010
0010
,
1000
0100
0100
0001
1000
0100
0010
0010
,
1000
0100
0100
0001
1000
0100
0010
0010
,
1001
0001
0100
0010
,
1000
0100
0100
0001
1000
0100
0010
0010
,
1000
0100
0100
0001
1000
0001
0010
0010
,
1000
0100
0100
0001
1000
0100
0010
0010
,
4000
3400
4300
3004
,
1003
0100
0100
0001
1000
0100
0010
0010
,
1000
0100
0100
0001
1000
0001
0010
0010
,
1001
0000
0000
0000
,
1001
0000
0000
0000
,
2001
3000
0001
0000
0100
0000
0001
1000
,
1100
0000
0100
0000
1000
0010
0000
0000
,
0110
0000
0100
0000
0001
0000
0010
0100
,
1100
1000
1001
0001
,
0101
0100
0001
1000
0100
0010
0002
0003
,
0200
0000
0310
0000
0100
0010
0000
0000
,
0110
0100
0001
0010
0100
1000
0001
0000
,
0200
0000
0301
0000
0010
0100
0000
0000
,
1100
0000
1000
0001
0100
0000
0001
0100
,
0020
0000
0130
0000
0001
1000
0000
0000
,
1001
0000
0001
1000
0100
0000
1000
0001
,
0200
0310
0101
1000
,
1100
0000
0100
0000
1000
0000
0001
0100
,
0020
0000
0130
0000
0001
0100
0000
0000
,
0101
0000
0001
0000
0010
0000
0100
1000
,
0020
0130
0002
0003
,
4000
0000
0000
0000
3001
0000
0010
0100
,
1000
0000
0001
0000
0100
0001
0000
0001
,
4000
0000
0000
0000
3001
0000
0100
0010
,
1000
0000
0100
0000
0010
0001
0000
0001
,
0100
0010
1000
0001
0010
0100
1000
0001
,
2000
3001
0100
0010
1000
0001
0010
0100
,
1000
0001
1000
0010
0100
0001
1000
0100
,
1000
0000
0001
0000
1000
0001
0000
0000
,
0001
0200
0000
0300
0010
0000
0100
0001
,
1000
0000
1001
0000
,
1000
0200
0000
0300
1000
0000
0100
0010
,
0001
0100
0001
1000
0010
0100
0001
1000
,
0004
0000
4003
0000
3010
0000
0100
0001
,
0020
0000
0130
0000
1000
0100
0000
0000
,
4000
0000
3040
0000
0130
0000
0001
1000
,
0200
1300
0020
0030
,
1002
0103
0010
0100
,
0101
0000
0001
0000
0010
0100
0000
0000
,
1000
0000
0001
0000
1000
0000
0100
1000
,
1100
0000
0100
0000
0010
0001
0000
0000
,
1000
0000
0010
0000
0100
0001
0010
0000
,
0200
0000
1300
0000
0004
4003
3040
0430
,
0301
0000
0010
0000
0100
1000
0001
0000
,
0200
0000
0310
0000
1000
0001
0000
0000
,
1000
0100
1000
0001
0010
0100
1000
0001
,
1000
0000
0010
0000
0100
0000
0001
0000
0100
0000
0010
0000
0100
0001
0100
0001
,
1000
0100
0010
0100
0010
0001
1000
0001
,
2000
3010
0100
0001
1000
0100
0040
0000
,
0034
0000
4003
0000
3001
0000
0010
0100
,
2000
0000
3010
0000
0100
0010
0000
0000
,
0400
0000
0304
0000
4003
3400
0340
0034
,
4003
3040
0430
0304
4003
0000
3040
0000
,
1031
0000
0000
0MM0
,
0000
0000
0000
0000
,
0000
0000
0000
0MM0
,
0000
0000
0000
0000
,
0000
0000
0000
0MM0
,
0000
0000
0000
0000
,
0000
0000
0000
0MM0
,
0000
0000
0000
0000
,
1001
0001
0100
0010
0100
0000
0002
0000
,
1103
1000
0001
0100
,
0110
0010
1000
0001
0010
0000
0200
0000
,
1301
1000
0101
0100
,
0110
0010
1000
0001
1000
0000
0200
0000
,
0311
0001
0100
0010
,
1010
1000
0100
0010
0001
0000
2000
0000
,
3101
0000
0000
0000
,
0001
0100
0001
1000
0100
1000
0001
0100
,
0010
0100
0001
1000
0001
0100
0010
1000
,
0100
0010
0100
0010
0001
1000
0001
1000
,
0001
0100
1000
0100
0001
0010
1000
0010
,
0001
0100
0010
0100
0001
1000
0010
0100
,
0001
0010
0100
1000
0001
1000
0001
0010
,
0100
0010
0100
1000
0001
1000
0100
0010
,
0100
1000
0100
0010
0001
0000
1000
0000
,
2002
3003
0000
0000
0202
0303
0000
0000
,
0220
0330
0000
0000
2020
3030
0000
0000
,
2002
3003
0000
0000
0022
0033
0000
0000
,
0220
0330
0100
0000
1000
0000
0001
0000
,
0202
0303
0000
0000
2020
3030
0000
0000
,
2200
3300
0000
0000
0220
0330
0000
0000
,
0022
0033
0000
0000
2002
3003
0000
0000
,
1001
1000
0001
0100
,
0001
0010
0001
0010
0100
1000
0001
1000
,
0100
0010
0001
1000
0001
0100
0010
0100
,
0001
1000
0001
1000
0100
0010
0100
1000
,
0001
1000
0010
0100
0001
0010
1000
0010
,
0001
0100
0010
1000
0100
1000
0001
0010
,
0100
0010
0001
1000
0100
1000
0001
0100
,
0010
0100
0001
1000
0001
0100
0010
0100
,
0001
1000
0010
0110
,
1001
1000
0100
0010
0100
0000
1000
0000
,
1001
0001
0100
0010
,
2000
0000
3001
0100
0010
0000
0100
0000
,
0101
0001
0010
0100
,
1100
1000
0001
0100
0001
0000
0100
0000
,
0110
0010
1000
0001
,
2000
3000
0000
0000
0000
0000
0000
0000
,
0000
0000
0MM0
0000
,
2002
3003
0000
0000
0022
0033
0000
0000
,
0220
0330
0000
0000
2200
3300
0000
0000
,
2002
3003
0000
0000
0202
0303
0000
0000
,
0220
0330
0000
0000
2002
3003
0000
0000
,
2200
3300
0000
0000
0220
0330
0000
0000
,
0022
0033
0000
0000
0202
0303
0000
0000
,
2020
3030
0000
0000
0220
0330
0000
0000
,
0202
0303
0000
0000
2002
3003
0000
0000
,
1001
1000
0100
0010
0001
0000
0100
0000
,
0110
0010
1000
0001
,
0011
0010
0100
1000
0001
0000
0100
0000
,
0101
0001
1000
1100
,
1001
0001
1000
0010
0100
0000
0001
0000
,
0011
0010
0100
1000
,
1001
0001
0010
0100
1000
0000
0010
0000
,
0101
0100
0001
1000
,
0001
0100
0100
1000
0001
0100
0010
0010
,
0100
1000
0100
0100
0001
1000
0010
0010
,
0100
1000
0100
0100
0001
1000
0010
0010
,
0001
0100
0100
1000
0004
0000
0043
0000
,
0031
0100
0100
1000
0001
1000
0010
0010
,
0001
0100
0100
1000
0100
1000
0010
0010
,
0001
0100
0100
1000
0001
1000
0010
0010
,
0001
0100
0010
1010
,
1000
0100
1000
0001
0010
0100
1000
0001
,
1000
0010
0100
0001
0100
0010
1000
0001
,
0010
0100
0010
0100
1000
0001
1000
0100
,
0010
0100
0010
0001
4000
0000
3004
0000
,
1003
0100
0001
0100
1000
0010
0001
0010
,
1000
0100
0001
1000
0010
0001
0100
0010
,
1000
0000
0000
0000
,
0002
0000
1003
0000
0010
0000
0100
0001
,
1001
1000
0100
1000
0001
0000
0010
0000
,
0110
0100
1000
0001
,
1001
1000
0001
0010
0100
0000
1000
0000
,
1001
0001
0101
0100
,
1010
0010
1000
0100
0010
0000
0001
0000
,
1001
1000
0001
0010
,
0110
0100
1000
0001
1000
0000
0010
0000
,
0101
0100
1001
0000
,
1001
0000
0000
0000
,
0000
0000
0000
0000
,
0101
0000
0000
0000
,
0000
0000
1001
0000
,
1100
0000
0000
0000
,
0000
0000
0000
0000
,
1001
0000
0000
0000
,
0002
0000
1003
0000
0010
0000
0100
0001
,
2002
0000
0000
3003
;

//---------------dance-single - J. Nero----------------
#NOTES:
     dance-single:
     J. Nero:
     Easy:
     7:
     0.571,0.898,0.299,0.423,0.000,570.000,53.000,75.000,10.000,3.000:
0000
0000
0000
0000
,
0000
0000
0000
0000
,
0000
0000
0000
0000
,
0000
0000
0000
0000
,
0000
0000
0000
0000
,
0000
0000
0000
0000
,
0000
0000
0000
0000
,
0000
0000
0000
0000
,
1000
0000
0010
0100
0010
0000
0100
0000
,
1001
0001
1000
0100
,
0010
0000
0001
0010
0001
0000
0010
0000
,
0110
0100
1000
1010
,
0010
0000
0100
0001
0100
0000
0001
0000
,
1001
1000
1100
0100
,
1000
0000
0010
0100
0010
0000
1000
0000
,
0002
0000
0013
0000
0100
0000
1000
0001
,
1000
0100
1000
0000
0001
0100
0001
0000
,
1000
0010
0100
0000
0001
0100
0001
0000
,
0100
0010
0100
0000
0001
1000
0001
0000
,
1000
0100
1000
0000
0004
0000
0043
0000
,
0130
1000
0100
0000
1000
0001
1000
0000
,
0001
0010
0001
0000
0010
0100
0010
0000
,
0100
1000
0100
0000
1000
0001
1000
0000
,
1001
0001
0100
0010
,
1000
0010
1000
0000
0001
0100
0001
0000
,
0100
0010
0100
0000
0001
1000
0001
0000
,
1000
0100
1000
0000
0100
0010
0001
0000
,
4000
3400
4300
3004
,
1003
0010
1000
0000
0010
0100
0010
0000
,
0100
0001
0100
0000
0001
1000
0001
0000
,
1001
0000
0000
0000
,
1001
0000
0000
0000
,
2002
3003
0001
0000
0100
0000
0001
1000
,
0000
0000
0100
0000
1000
0100
0000
0000
,
1200
0000
0300
0000
1000
0000
0001
0010
,
0000
0000
0001
0000
0100
0010
0000
0000
,
0100
0001
1000
0100
1000
0001
0200
0300
,
0020
0000
0030
0000
0100
0010
0000
0000
,
0100
0001
0000
0000
0010
0000
0100
0000
,
2000
0000
3001
0000
0100
0001
0000
0000
,
1000
0001
0000
0000
1000
0000
0100
0010
,
0002
0000
0103
0000
0010
0100
0000
0000
,
0001
0100
0010
0000
1000
0000
0001
0010
,
0200
0000
1300
0000
0010
0100
0000
0000
,
0210
0000
0301
0000
1000
0000
0001
1000
,
0200
0000
1300
0000
0001
0100
0000
0000
,
0201
0000
0301
0000
1000
0000
0100
0010
,
0002
0103
0020
0030
,
2000
0000
0000
3000
0001
0000
0010
0100
,
0000
0000
0100
0000
1000
0001
0000
0000
,
0200
0000
0000
0300
0001
0000
1000
0100
,
0000
0000
0100
0000
0010
0001
0000
0000
,
0001
0000
0100
0000
0010
1000
0010
0000
,
2000
3000
0100
0000
0010
0001
0000
0010
,
0001
1000
0010
1000
,
0001
0000
0100
0000
0001
0100
0000
0000
,
0001
0200
0000
0300
0010
0000
0100
0001
,
1000
0000
1001
0000
,
1000
0200
0000
0300
1000
0000
0100
0010
,
0000
0000
0010
0000
0001
1000
0000
0000
,
0004
0000
4003
0000
3010
0000
0100
0001
,
0200
0000
0310
0000
1000
0100
0000
0000
,
4000
0000
3400
0000
0310
0000
0001
1000
,
0020
1030
0200
0300
,
2100
0000
3000
0000
0100
0000
1000
0001
,
0000
0000
0001
0000
0100
0001
0000
0000
,
0010
0000
0100
0000
1000
0000
0100
1000
,
0000
0000
0001
0000
0010
0001
0000
0000
,
0010
0000
0001
0000
1000
0001
1000
0000
,
0020
0000
0130
0000
0001
1000
0000
0000
,
0001
0000
1000
0000
0100
1000
0100
0000
,
2000
0000
3100
0000
0010
0001
0000
0000
,
1000
0001
0000
0000
1000
0000
0010
0100
,
0002
0003
0100
0000
0001
0100
0000
0000
,
0001
1000
0000
0000
0001
0000
0100
0010
,
0200
0000
0301
0000
1000
0100
0000
0000
,
2000
0000
3000
0000
0001
0000
1000
0100
,
0020
0000
0031
0000
1000
0001
0000
0000
,
0200
0000
0301
0000
0010
0000
0100
1000
,
0000
0000
0100
0000
1000
0001
0000
0000
,
1001
0000
0000
0MM0
,
0000
0000
0000
0000
,
0000
0000
0000
0MM0
,
0000
0000
0000
0000
,
0000
0000
0000
0MM0
,
0000
0000
0000
0000
,
0000
0000
0000
0MM0
,
0000
0000
0000
0000
,
1001
0000
0000
0000
,
0101
0000
0000
0000
,
0110
0000
0000
0200
,
1301
0000
0000
0000
,
1001
0000
0000
0002
,
1103
0000
0000
0000
,
0011
0000
0000
0002
,
0113
0000
0000
0000
,
0002
0000
0000
0000
0000
0003
0000
0000
,
0010
0000
0100
1000
,
0000
0000
0001
0000
,
1000
0000
0400
0000
0000
0000
0000
0300
,
2000
0000
0000
0000
0000
3000
0000
0000
,
0001
0000
1000
0100
,
0000
0000
1000
0000
,
0001
0100
0000
0000
,
0002
0003
0000
0000
0020
0030
0000
0000
,
0200
0300
0000
0000
2000
3000
0000
0000
,
2002
3003
0000
0000
0002
0003
0000
0000
,
0010
0100
1000
0001
,
2000
3000
0000
0000
0200
0300
0000
0000
,
0020
0030
0000
0000
0002
0003
0000
0000
,
2002
3003
0000
0000
2000
3000
0000
0000
,
0100
1000
0001
0100
,
0001
2000
0000
0000
,
3100
0000
1000
0001
,
0202
0303
0000
0000
0100
0000
0000
0000
,
0001
0000
1000
0000
0400
0000
0000
0300
,
0000
0000
2000
0000
0000
3000
0000
0000
,
0001
0000
1000
0100
,
2000
3000
0001
0000
,
0100
0001
0010
0100
,
1100
0000
0000
1000
,
1001
0000
0001
0100
,
0020
0030
0100
0000
,
0001
1000
0100
0010
,
0011
0000
0000
0001
,
1001
1000
0010
0100
,
0002
0003
0000
0000
0000
0000
0000
0000
,
0000
0000
0MM0
0000
,
2000
3000
0000
0000
0200
0300
0000
0000
,
0020
0030
0000
0000
0002
0003
0000
0000
,
0200
0300
0000
0000
0020
0030
0000
0000
,
0200
0300
0000
0000
0002
0003
0000
0000
,
0020
0030
0000
0000
0200
0300
0000
0000
,
2000
3000
0000
0000
0002
0003
0000
0000
,
0200
0300
0000
0000
0020
0030
0000
0000
,
0200
0300
0000
0000
0002
0003
0000
0000
,
1000
0000
0100
1000
0100
0000
1000
0000
,
1001
0001
0100
0010
,
0100
0000
0001
0100
0001
0000
0010
0000
,
0110
0100
1000
1001
,
0001
0000
0100
0010
0100
0000
0001
0000
,
1001
1000
0100
1000
,
0001
0000
0010
0100
0010
0000
0100
0000
,
1100
1000
0001
1001
,
1000
0100
1000
0000
0001
0100
0001
0000
,
0100
0010
0100
0000
0010
1000
0010
0000
,
1000
0001
0100
0000
0001
1000
0100
0000
,
1000
0100
0010
0000
0004
0000
0043
0000
,
0031
1000
0001
0000
1000
0100
0010
0000
,
0001
0010
0001
0000
1000
0010
1000
0000
,
0001
0100
0010
0000
0100
0001
0100
0000
,
0001
0010
0100
1100
,
1000
0100
1000
0000
0010
0000
0100
0001
,
0100
0000
0001
0000
0100
0000
0010
1000
,
0010
0000
0100
0000
0001
0000
0010
0100
,
1000
0001
4000
3004
,
1003
0100
1000
0100
1000
0001
0100
0001
,
0100
0001
1000
0001
1000
0001
1000
0001
,
1000
0000
0000
0000
,
0002
0000
1003
0000
0010
0000
0100
0001
,
0100
0000
0001
1000
0001
0000
1000
0000
,
0100
1000
0001
0100
,
0101
0000
0001
0100
0001
0000
0100
0000
,
0010
1000
1100
0000
,
1100
0000
0100
1000
0100
0000
1000
0000
,
0001
0010
0100
1000
,
1001
0000
0001
0100
0001
0000
0100
0000
,
0010
1000
1001
0000
,
1001
0000
0000
0000
,
0000
0000
0000
0000
,
0101
0000
0000
0000
,
0000
0000
1001
0000
,
1100
0000
0000
0000
,
0000
0000
0000
0000
,
1001
0000
0000
0000
,
0002
0000
1003
0000
0010
0000
0100
0001
,
2000
0000
0000
3000
;

//---------------dance-single - Easy----------------
#NOTES:
     dance-single:
     Easy:
     Beginner:
     4:
     0.366,0.500,0.119,0.175,0.000,396.000,21.000,31.000,0.000,0.000:
0000
0000
0000
0000
,
0000
0000
0000
0000
,
0000
0000
0000
0000
,
0000
0000
0000
0000
,
0000
0000
0000
0000
,
0000
0000
0000
0000
,
0000
0000
0000
0000
,
0000
0000
0000
0000
,
1000
0001
0001
0000
,
1001
0000
1000
0010
,
0100
0001
0001
0000
,
0101
0100
0001
0001
,
1000
0100
0100
0000
,
1100
1000
0100
0010
,
0001
1000
1000
0000
,
0002
0000
0103
0001
,
1000
0100
1000
0100
,
0100
1000
0001
0100
,
0100
0001
0010
0001
,
0001
0010
0400
4300
,
3001
0100
0010
1000
,
1000
0001
0100
0001
,
0001
1000
0100
1000
,
1000
0000
0001
0000
,
1000
0100
1000
0001
,
0001
0100
0010
0100
,
0100
0001
0100
0001
,
4000
3400
0340
0034
,
1003
0100
1000
0010
,
0010
0100
0001
1000
,
1000
0000
0000
0000
,
1001
0000
0000
0000
,
0002
0003
0100
0001
,
0100
0000
0001
0000
,
1001
0000
1000
0100
,
1000
0000
0001
0000
,
1001
0000
0001
0100
,
0002
0003
1000
0000
,
0010
0100
0010
0100
,
0002
0003
0100
0000
,
0101
0000
0001
1000
,
0002
0003
1000
0000
,
0001
0010
0100
1000
,
0020
0030
0100
0000
,
0110
0000
0010
1000
,
0002
0003
1000
0000
,
0001
0010
0001
0010
,
0002
0003
0000
0000
,
2000
0000
0000
3000
0001
0000
1000
0000
,
0001
0100
0100
0001
,
2000
0000
3100
1000
,
0000
0001
0001
0100
,
0001
0010
0001
0010
,
0200
0300
1000
0100
,
1000
0001
1000
0001
,
2000
3000
0001
0100
,
0002
0000
0000
0000
,
1003
0000
1001
0000
,
0002
0000
0000
0000
,
1003
0000
0100
1000
,
0002
0000
0103
0001
,
2000
3100
0010
0001
,
2000
0000
3010
0100
,
0002
0003
0000
0000
,
2002
3003
0001
1000
,
0000
0001
0100
0001
,
1000
0100
1000
0100
,
0000
0010
0001
0010
,
0001
1000
0001
1000
,
0000
0001
0100
0001
,
1000
0100
1000
0100
,
0000
1000
0010
1000
,
0001
0100
0001
0001
,
0000
0100
0010
0100
,
0001
0010
0001
0010
,
0000
0001
1000
0001
,
2000
0000
0000
3000
0001
0000
0001
0000
,
0000
0100
0001
0100
,
0002
0000
0000
0003
1000
0000
0001
0000
,
0000
1000
0100
1000
,
0001
0000
0000
0000
,
0000
0000
0000
0000
,
0000
0000
0000
0000
,
0000
0000
0000
0000
,
0000
0000
0000
0000
,
0000
0000
0000
0000
,
0000
0000
0000
0000
,
0000
0000
0000
0000
,
0001
0000
0000
0000
,
0100
0000
0000
0000
,
0010
0000
0000
1000
,
1000
0000
0000
0000
,
0001
0000
0000
0100
,
0100
0000
0000
0000
,
0001
0000
0000
1000
,
1000
0000
0000
0000
,
0002
0000
0000
0000
0000
0003
0000
0000
,
0010
0000
0100
0100
,
0000
0000
1000
0000
,
0001
0100
0000
0000
,
0002
0000
0000
0003
,
1000
0000
0100
0100
,
0000
0000
1000
0000
,
0001
0100
0000
0000
,
0001
0000
0100
0000
,
0001
0000
1000
0000
,
0001
0000
1000
0000
,
0001
0000
0000
0000
,
1000
0000
0100
0000
,
1000
0000
0100
0000
,
1000
0000
0001
0000
,
1000
0000
0000
0000
,
0000
0002
0000
0000
,
0103
0000
0001
0001
,
0000
0000
1000
0000
,
0100
0100
0000
0000
,
0000
2000
0000
3000
,
0001
0000
0010
0010
,
0000
0000
0001
0000
,
1000
0001
0000
0000
,
1001
0000
0000
0000
,
1001
0000
0000
0000
,
0002
0003
0000
0000
,
1000
0000
0100
0100
,
1000
0000
0000
0000
,
1001
0000
0000
0000
,
0002
0003
0000
0000
0000
0000
0000
0000
,
0000
0000
0000
0000
,
1000
0000
0100
0000
,
1000
0000
0100
0000
,
0010
0000
0100
0000
,
0010
0000
0001
0000
,
0010
0000
0001
0000
,
1000
0000
0001
0000
,
1000
0000
0010
0000
,
1000
0000
0010
0000
,
1000
0001
0001
0000
,
1001
0000
1000
0000
,
0001
0100
0100
0000
,
0101
0000
0001
0001
,
1000
0100
0100
0000
,
1100
0000
1000
0000
,
0001
0100
0100
0000
,
0101
0000
0001
0001
,
1000
0100
1000
0100
,
0100
1000
0001
0100
,
0100
0001
0010
0001
,
0001
0010
0400
4300
,
3001
1000
0001
1000
,
1000
0100
0010
0100
,
0100
1000
0001
0100
,
0100
0000
0001
0001
,
1000
0000
0010
0100
,
0001
0000
1000
0100
,
1000
0000
0001
0010
,
0001
0000
4000
3004
,
1003
0100
1000
0001
,
0001
0100
0001
0100
,
0100
0000
0001
0000
,
2000
3000
0001
0100
,
0100
0000
0001
0000
,
0100
0000
0001
0000
,
1000
0000
0100
0000
,
1000
0000
0001
0000
,
0001
0000
0100
0000
,
0001
0100
0001
1000
,
0001
0000
1000
0000
,
0010
0000
1000
0000
,
1000
0000
0000
0000
,
0000
0000
0000
0000
,
0001
0000
0000
0000
,
0000
0000
0010
0000
,
0010
0000
0000
0000
,
0000
0000
0000
0000
,
0100
0000
0000
0000
,
2000
3000
0100
0010
,
0002
0000
0000
0000
,
0003
0000
0000
0000
;
