#TITLE:Thank You For Playing;
#SUBTITLE:;
#ARTIST:SUPER STAR -MITSURU-;
#TITLETRANSLIT:;
#SUBTITLETRANSLIT:;
#ARTISTTRANSLIT:;
#CREDIT:Kingdaro;
#BANNER:../owenviau1 Simfiles 5-bn.png;
#BACKGROUND:../owenviau1 Simfiles 5-bg.png;
#LYRICSPATH:;
#CDTITLE:;
#MUSIC:Thank You For Playing.ogg;
#OFFSET:-0.600;
#SAMPLESTART:36.832;
#SAMPLELENGTH:12.000;
#SELECTABLE:YES;
#DISPLAYBPM:170.000;
#BPMS:0.000=170.000,264.500=160.000,266.500=145.000,267.000=140.000,268.000=128.000,269.000=117.000,270.000=99.000,271.000=65.000,271.500=35.000,272.000=100.000;
#STOPS:;
#BGCHANGES:0.000=intro=1.000=0=0=1,
32.000=enter=1.000=0=0=1,
36.000=stars=1.000=0=0=1,
40.000=bouncespin=1.000=0=0=1,
99999=-nosongbg-=1.000=0=0=0 // don't automatically add -songbackground-
;
// cache tags:
#FIRSTBEAT:40.000;
#LASTBEAT:276.125;
#SONGFILENAME:Songs/owenviau1 Simfiles 5/Thank You For Playing - [Kingdaro] v1.2/Thank You For Playing.sm;
#HASMUSIC:1;
#HASBANNER:1;
#MUSICLENGTH:107.075;
// end cache tags

//---------------dance-single - ----------------
#NOTES:
     dance-single:
     :
     Hard:
     10:
     0.682,0.827,0.271,0.121,0.476,461.000,29.000,13.000,12.000,4.000:
0000
0000
0000
0000
,
0000
0000
0000
0000
,
0000
0000
0000
0000
,
0000
0000
0000
0000
,
0000
0000
0000
0000
,
0000
0000
0000
0000
,
0000
0000
0000
0000
,
0000
0000
0000
0000
,
0000
0000
0000
0000
,
0000
0000
0000
0000
,
1000
0010
1000
0000
0001
0100
0001
0000
1000
0010
1000
0000
0001
0100
0001
0000
,
0010
0100
1000
0010
0110
0100
0001
0010
,
0001
0010
0001
0000
1000
0100
1000
0000
0001
0010
0001
0000
1000
0100
1000
0000
,
0001
1000
0010
1000
1100
0100
0010
0001
,
1000
0100
1000
0000
0001
1000
0001
0000
0100
0001
0100
0000
0001
1000
0001
0000
,
0010
0100
1000
0010
1010
1000
0001
0010
,
0100
0000
1000
0000
0001
0000
0100
0000
1000
0000
0100
0000
0001
1000
0001
1000
,
0001
0000
0040
0000
0130
0000
4000
0000
3001
0010
0000
0010
0001
0000
1000
0000
,
0010
0000
0100
0001
0100
0000
0001
0010
0001
0000
1000
0010
1000
0000
0100
1000
,
0100
0010
0001
1000
1001
0001
0100
0010
,
1000
0000
0010
1000
0010
0000
0100
0001
0100
0000
0001
0010
0001
0000
1000
0001
,
1000
0010
0100
0001
0011
0010
0100
1000
,
0001
0000
1000
0010
1000
0000
0100
1000
0100
0000
0010
0100
0010
0000
0001
0010
,
0001
0000
1000
0001
1000
0000
0010
0100
0010
0000
1000
0000
0001
0000
0010
0000
,
0100
0000
1000
0000
0010
0000
0001
0000
0010
0000
1000
0000
0100
0010
0100
0010
,
0100
0000
2000
0000
3001
0000
0200
0000
0301
1000
0000
1000
0001
0000
0010
0100
,
0010
0000
0100
0000
1000
0001
1000
0001
0000
0000
0010
0000
0100
1000
0100
1000
,
0000
0000
0001
0000
0100
0010
0100
0010
1000
0000
0100
0000
0001
0000
0100
0000
,
1000
0000
0010
0000
0100
0001
0100
0001
0000
0000
0010
0000
0100
0010
0100
0010
,
0000
0000
0001
0000
1000
0010
1000
0010
1000
0000
0001
0000
0010
0000
0100
0000
,
0010
0000
0001
0000
0100
0010
0100
0010
0000
0000
1000
0000
0001
0010
0001
0010
,
0000
0000
0100
0000
1000
0001
1000
0001
0100
0000
1000
0000
0100
0000
0001
0000
,
0010
0000
0100
0000
1000
0000
0001
0000
0100
0000
0100
0000
0100
0010
0100
0010
,
0100
0000
0004
0000
1003
0000
0040
0000
0130
0001
0000
0001
1000
0000
0010
1000
,
0001
0010
0100
0010
0001
1000
0020
2030
,
3001
0010
0100
0020
2030
3020
0032
1003
,
1010
0000
0000
0110
0000
0000
0101
0000
0001
0000
1000
0000
0100
0000
0010
0001
,
1000
0000
0010
0000
0100
0000
0001
0000
1000
0001
1000
0001
0100
0010
0100
0010
,
1000
000M
0000
0M00
0000
M000
0000
10M0
,
1000
000M
0000
M001
0001
00M0
0000
1M00
,
0004
0000
0000
0003
4000
0000
0000
3000
,
0040
0000
0000
0030
0400
0000
0000
0300
,
0001
1000
0001
1000
0001
1000
0001
1000
0010
0100
0010
0100
0010
0100
0010
0100
,
0000
0001
0000
1000
0001
0000
0100
0010
0000
0100
0010
0000
2000
0000
0000
0000
,
3001
0100
1000
0100
0000
0100
0010
1000
,
0010
0001
1000
0010
1010
1000
0001
0010
,
0011
0001
0100
0010
0000
0010
0100
1000
,
0010
0000
0100
0000
0001
0000
0100
0000
0101
0000
0000
0001
1000
0000
0100
0000
,
1100
0100
1000
0010
0000
0010
0001
1000
,
0001
0100
0010
0100
0110
0010
1000
0001
,
0010
0000
1000
0000
0010
0000
0001
0000
1000
0000
1000
0000
0001
0010
0100
1000
,
0001
0000
0400
0000
0310
0000
4000
0000
3100
0010
0000
0010
0100
0000
1000
0000
,
1100
0000
0000
0110
0000
0000
0011
0000
0001
0000
0100
0000
0010
0000
1000
0001
,
1000
0000
0001
0010
0001
0000
1000
0010
1000
0000
0001
0100
0001
0000
0010
0000
,
0100
0000
0000
1000
0000
0000
0010
0000
0002
0000
0000
0000
0000
0000
0013
1000
,
0001
0000
0010
0000
0100
0000
1000
0000
0001
0000
0001
1000
0010
0000
0100
0000
,
0010
1000
0001
0010
1000
0010
0001
1000
,
0010
0000
0100
0000
0010
0000
1000
0000
0100
1000
0100
1000
0001
0010
0001
0010
,
0001
1000
0001
0000
0100
0000
0001
1000
0001
0000
0100
0000
0001
1000
0001
0000
,
0010
0100
1000
0010
0100
0001
0010
0100
,
1001
0000
0000
0000
,
0000
0000
111M
0000
,
M111
0000
0000
0000
,
0000
0000
11M1
0000
,
1M11
0000
0000
0000
,
0000
0000
0110
0000
,
2000
0000
0000
3200
0000
0000
0320
0000
,
0031
0100
1000
0100
0110
0010
0001
0010
,
0000
0000
0000
0000
0000
1000
0000
0000
0000
0000
0000
0010
0000
0000
0000
0100
0000
0000
0000
0001
0000
0000
0000
0000
0000
1000
0000
0000
0000
0100
0000
0000
0000
0000
0000
0000
0000
0000
0000
0000
0000
0000
0000
0000
0000
0000
0000
0000
0000
0000
0000
0000
0000
0000
0000
0000
0000
0000
0000
0000
0000
0000
0000
0000
0000
0000
0000
0000
0000
0000
0000
0000
0000
0000
0000
0000
0000
0000
0000
0000
0000
0000
0000
0000
0000
0000
0000
0000
0000
0000
0000
0000
0000
0000
0000
0000
0000
0000
0000
0000
0000
0000
0000
0000
0000
0000
0000
0000
0000
0000
0000
0000
0000
0000
0000
0000
0000
0000
0000
0000
0000
0000
0000
0000
0000
0000
0000
0000
0000
0000
0000
0000
0000
0000
0000
0000
0000
0000
0000
0000
0000
0000
0000
0000
0000
0000
0000
0000
0000
0000
0000
0000
0000
0000
0000
0000
0000
0000
0000
0000
0000
0000
0000
0000
0000
0000
0000
0000
0000
0000
0000
0000
0000
0000
0000
0000
0000
0000
0000
0000
0000
0000
0000
0000
0000
0000
0000
0000
0000
0000
0000
0000
;

//---------------dance-single - Index----------------
#NOTES:
     dance-single:
     Index:
     Challenge:
     14:
     1.000,1.000,0.252,0.000,1.000,744.000,27.000,0.000,45.000,0.000:
0000
0000
0000
0000
,
0000
0000
0000
0000
,
0000
0000
0000
0000
,
0000
0000
0000
0000
,
0000
0000
0000
0000
,
0000
0000
0000
0000
,
0000
0000
0000
0000
,
0000
0000
0000
0000
,
0000
0000
0000
0000
,
0000
0000
0000
0000
,
0001
0100
0010
1000
0001
0100
0010
1000
0001
0100
0010
1000
0001
0100
0010
1000
,
0001
1000
0010
0100
0101
0001
0010
0100
,
1000
0010
0100
0001
1000
0010
0100
0001
1000
0010
0100
0001
1000
0010
0100
0001
,
1000
0000
0001
0000
0010
0000
0001
0000
0011
0000
0010
0001
1000
0000
0010
0000
,
1000
0100
0010
0001
1000
0100
0010
0001
1000
0100
0010
0001
1000
0100
0010
0001
,
1000
0001
0100
0010
1010
0010
1100
0110
,
0001
0010
0001
0010
0001
1000
0001
1000
0010
1000
0100
1000
0010
0100
0001
0010
,
0001
0000
0000
0000
1000
0010
1000
0010
1000
0000
0000
0000
0001
0100
0001
0100
0001
0000
0010
0000
0000
0000
0100
0000
1000
0000
0000
0000
1001
0000
0000
0000
,
1000
0010
0100
0001
0010
0001
0010
0001
1000
0010
0100
0010
1000
0100
1000
0100
,
1000
0001
0010
0100
0010
0001
0010
0001
1000
0000
0010
0000
0100
0000
0001
0000
,
1000
0001
1000
0010
1000
0010
0100
0010
1000
0001
0010
0001
0010
0100
0010
0001
,
1000
0010
0100
0010
0100
0010
1000
0001
0010
0000
0100
1000
0010
0000
1010
0000
,
0010
0100
0010
0100
1000
0100
1000
0100
0001
0100
0001
0010
0001
0010
0100
0010
,
0001
1000
0010
1000
0001
0010
0100
1000
0001
0000
1000
0000
0010
0000
0100
0000
,
0001
0010
0001
1000
0010
1000
0010
1000
0001
0010
0001
0100
0001
1000
0010
1000
,
0001
0000
0000
0000
0010
0100
0010
0100
0010
0000
0000
0000
0001
1000
0001
1000
0001
0000
1000
0000
0000
0000
0010
0000
0100
0000
0000
0000
0001
0000
0000
0000
,
1001
0000
0000
0000
1000
0000
0000
0000
0001
0000
1000
0000
0010
0000
0100
0000
0000
M00M
0000
0000
0100
0000
0000
0000
1000
0000
0001
0000
1000
0000
0010
0000
,
0000
M00M
0000
0000
0010
0000
0000
0000
0001
0000
1000
0000
0100
0000
0010
0000
0001
0000
1000
0000
0010
0000
1000
0000
0001
0000
0100
0000
0001
0000
0010
0000
,
0100
0000
0000
0000
1000
0000
0000
0000
0010
0000
1000
0000
0001
0000
0100
0000
0000
M00M
0000
0000
0100
0000
0000
0000
1000
0000
0001
0000
1000
0000
0010
0000
,
0000
M00M
0000
0000
0010
0000
0000
0000
0001
0000
1000
0000
0010
0000
0100
0000
0001
0000
0010
0000
0100
0000
0010
0000
0001
0000
1000
0000
0010
0000
0100
0000
,
0010
0000
0000
0000
1000
0000
0000
0000
0010
0000
0100
0000
0001
0000
0010
0000
0000
M00M
0000
0000
0010
0000
0000
0000
1000
0000
0001
0000
1000
0000
0100
0000
,
0000
M00M
0000
0000
0100
0000
0000
0000
0010
0000
1000
0000
0001
0000
0010
0000
0001
0000
1000
0000
0100
0000
1000
0000
0010
0000
0100
0000
0001
0000
0010
0000
,
0001
1000
0001
0010
0100
1000
0010
1000
0100
0010
0001
0010
0001
1000
0010
1000
,
0100
0000
0000
0000
0010
0001
0010
0001
0010
0000
0000
0000
0100
1000
0100
1000
0100
0000
1000
0000
0000
0000
0001
0000
0100
0000
0000
0000
0010
0000
0000
0000
,
1000
0100
1000
0100
0010
0001
0010
0001
1000
0010
1000
0010
0100
0001
0100
0001
,
1000
0010
0100
0001
0010
0001
1000
0100
1000
0010
0100
0001
0010
0100
0010
0001
,
1000
0001
1000
0001
0010
0100
0010
0100
1000
0010
1000
0010
1000
0001
0010
0001
,
0010
0100
0010
0100
1000
0001
1000
0001
0100
0010
1000
0001
0100
0001
1000
0010
,
1000
000M
0000
0M00
0000
00M0
0000
M001
,
0010
0M00
0000
010M
1000
00M0
0000
M110
,
1000
0100
0010
0001
1000
0100
0010
0001
1000
0010
0100
0001
1000
0010
0100
0001
,
0100
0010
0100
0001
0010
0001
0100
0010
1000
0100
1000
0010
0100
0010
1000
0001
,
1000
0001
0100
0010
1000
0001
0100
0010
1000
0010
0100
0001
1000
0010
0100
0001
0100
0010
1000
0001
0010
0100
1000
0001
,
0000
M1M1
0000
0100
M01M
0000
0010
1M0M
0000
1000
0MM1
0000
MMMM
0000
0000
0000
,
1000
0001
0100
0010
1000
0001
0010
0100
1000
0010
0100
0010
1000
0100
0010
0001
,
0100
0010
0100
0010
1000
0001
1000
0001
1000
0100
0010
0001
1000
0100
0010
0001
,
1000
0001
0100
0001
1000
0010
1000
0001
0010
0001
1000
0100
0010
0100
1000
0010
,
1000
0001
1000
0001
0100
0001
0010
0001
1000
0010
0100
0001
1000
0000
1001
0000
,
0001
0100
0001
0010
0100
1000
0100
1000
0010
1000
0001
1000
0001
0100
0001
0010
,
0001
1000
0010
0100
0010
1000
0001
0010
0100
1000
0001
0010
0001
0100
0001
0010
,
0100
1000
0100
1000
0010
0100
0001
0010
0001
1000
0010
0100
0001
0010
0100
1000
,
0001
0000
0000
0000
1000
0001
1000
0001
1000
0000
0000
0000
0010
0100
0010
0100
0010
0000
0100
0000
0000
0000
0001
0000
1000
0000
0000
0000
1001
0000
0000
0000
,
0101
0000
0100
0010
1000
0000
1010
0000
1000
0001
0010
0100
1000
0010
0100
0001
,
1000
0000
0001
0100
0010
0000
1000
0001
0010
0000
0001
0010
0100
0000
1000
0000
,
0010
0000
1000
0001
0100
0000
0011
0000
1000
0001
0100
0001
0010
0001
1000
0010
,
0100
0000
1000
0000
0100
0000
0001
0000
0010
0000
0100
1000
0001
0000
1001
0000
,
0110
0000
0010
1000
0001
1000
0100
0010
,
0001
0000
0100
0000
1000
0000
0100
0000
0010
1000
0001
0100
0010
0100
0001
0010
,
0001
0010
MM01
0010
0100
1000
0001
0010
MM01
0010
0100
1000
0001
0010
MM01
0010
,
0001
0100
0010
1000
0001
1000
0100
0010
0001
1000
0010
0100
0001
1000
0001
1000
,
0001
0100
0010
1000
0000
1000
0010
0100
,
0001
0010
0001
1000
1001
0001
0100
0010
,
1010
0010
0100
0001
0000
0001
0010
0100
,
0010
0001
0100
0010
1010
1000
0001
1000
,
1001
0001
0010
0100
0000
0100
1000
0010
,
0100
0001
1000
0010
0110
0100
0001
0010
,
0011
0100
1000
1010
0000
0100
1001
0001
,
0110
0100
1000
0010
0101
0001
1000
0010
,
0000
0000
0000
0000
0000
1000
0000
0000
0000
0000
0000
0010
0000
0000
0000
0100
0000
0000
0000
0001
0000
0000
0000
0000
0000
1000
0000
0000
0000
0100
0000
0000
0000
0000
0000
0000
0000
0000
0000
0000
0000
0000
0000
0000
0000
0000
0000
0000
0000
0000
0000
0000
0000
0000
0000
0000
0000
0000
0000
0000
0000
0000
0000
0000
0000
0000
0000
0000
0000
0000
0000
0000
0000
0000
0000
0000
0000
0000
0000
0000
0000
0000
0000
0000
0000
0000
0000
0000
0000
0000
0000
0000
0000
0000
0000
0000
M000
0000
0000
0000
0000
0000
0000
0000
0000
0000
0000
0000
0000
0000
0000
0000
0000
0000
0000
0000
0000
0000
0000
0000
000M
0000
0000
0000
0000
0000
0000
0000
0000
0000
0000
0000
0M00
0000
0000
0000
0000
0000
0000
0000
0000
0000
0000
0000
0000
0000
0000
0000
0000
0000
0000
0000
0000
0000
0000
0000
0000
0000
0000
0000
0000
0000
0000
0000
0000
0000
0000
0000
0000
0000
0000
0000
0000
0000
0000
0000
0000
0000
0000
0000
0000
0000
0000
0000
0000
0000
0000
0000
0000
0000
0000
0000
,
0000
MMMM
0000
0000
0000
0000
0000
0000
0000
0000
0000
0000
0000
0000
0000
0000
0000
0000
0000
0000
0000
0000
0000
0000
0000
0000
0000
0000
0000
0000
0000
0000
;
