#TITLE:Colors;
#SUBTITLE:;
#ARTIST:dj TAKA;
#TITLETRANSLIT:;
#SUBTITLETRANSLIT:;
#ARTISTTRANSLIT:;
#CREDIT:;
#BANNER:Colors.PNG;
#BACKGROUND:Colors-bg.PNG;
#LYRICSPATH:;
#CDTITLE:bmagetitle.png;
#MUSIC:Colors.mp3;
#OFFSET:-1.510;
#SAMPLESTART:52.710;
#SAMPLELENGTH:12.500;
#SELECTABLE:YES;
#BPMS:0.000=150.000;
#STOPS:;
#BGCHANGES:;
// cache tags:
#FIRSTBEAT:0.000;
#LASTBEAT:676.000;
#SONGFILENAME:Songs/Community Keyboard Megapack - Volume 3/(annon) Colors/Colors.sm;
#HASMUSIC:1;
#HASBANNER:1;
#MUSICLENGTH:287.039;
// end cache tags

//---------------dance-single - ----------------
#NOTES:
     dance-single:
     :
     Hard:
     10:
     1.000,1.000,0.150,0.014,1.000,2018.000,43.000,4.000,0.000,0.000:  // measure 1
0010
1000
0000
1000
0000
1000
0000
1000
,  // measure 2
0000
1000
0000
1000
0000
1000
0000
1000
,  // measure 3
0000
1000
0000
1000
0000
1000
0000
1000
,  // measure 4
0000
1000
0000
1000
0000
1000
0010
1000
,  // measure 5
0000
1000
0000
1000
0000
1000
0000
1000
,  // measure 6
0000
1000
0000
1000
0000
1000
0000
1000
,  // measure 7
0000
1000
0000
1000
0000
1000
0000
1000
,  // measure 8
0000
0000
1000
0000
0000
0000
1000
0000
0000
0001
1000
0000
0100
0010
0001
0000
,  // measure 9
1000
0010
1000
0000
0100
0010
0100
0000
0001
1000
0001
0000
0010
0100
0010
0000
,  // measure 10
1000
0001
1000
0000
0010
1000
0010
0000
0100
0010
0100
0000
0001
0100
0001
0000
,  // measure 11
1000
0100
1000
0000
0010
0100
0010
0000
0001
0010
0001
0000
1000
0010
1000
0000
,  // measure 12
0100
0010
0100
0000
0001
1000
0001
0000
0100
0001
0100
0000
0010
0100
0010
0000
,  // measure 13
1000
0010
1000
0000
0001
0100
0001
0000
1000
0100
1000
0000
0001
0010
0001
0000
,  // measure 14
1000
0010
1000
0000
0100
0010
0100
0000
0001
1000
0001
0000
0010
1000
0010
0000
,  // measure 15
0100
0001
0100
0000
1000
0010
1000
0000
0001
0010
0001
0000
0100
0010
0100
0000
,  // measure 16
0001
1000
0001
0000
0100
0010
0100
0000
0001
0010
0001
0000
1000
0100
1000
0000
,  // measure 17
0001
0010
0100
1000
0001
0100
0010
0100
0001
0010
0100
0010
0001
1000
0010
0100
,  // measure 18
0001
0010
0100
0010
0001
1000
0010
0100
0001
0010
0100
1000
0010
0100
0001
1000
,  // measure 19
0100
0010
0100
1000
0001
0010
0100
1000
0001
0010
0100
0010
0001
1000
0100
0010
,  // measure 20
0001
0100
0010
1000
0100
0010
0001
1000
0010
0100
0010
1000
0001
0100
0010
0100
,  // measure 21
1000
0100
0010
0001
1000
0010
0100
0010
1000
0001
0010
0100
0010
0001
1000
0100
,  // measure 22
0010
0001
0100
0010
1000
0001
0010
0100
0010
0001
1000
0100
0010
0100
1000
0001
,  // measure 23
0100
0010
0100
0001
1000
0100
0010
0001
0100
0010
1000
0001
0010
0100
0010
0001
,  // measure 24
1000
0010
0100
0010
1000
0100
0010
0001
1000
0100
0010
0100
1000
0010
0100
0010
,  // measure 25
1001
0100
0010
1000
0001
0100
0010
0100
0001
0010
0100
1000
0001
0010
0100
0010
,  // measure 26
0001
1000
0010
0100
0010
1000
0001
0010
0100
0010
0001
1000
0100
0010
0001
0100
,  // measure 27
0010
1000
0001
0010
0100
0010
0001
1000
0010
0100
0001
1000
0100
0010
0001
0100
,  // measure 28
0010
1000
0001
0010
0100
0010
0001
0100
0010
1000
0001
0010
0100
0010
0001
0100
,  // measure 29
1001
0100
0010
0001
0100
0010
0100
0001
1000
0100
1000
0010
0100
0010
1000
0100
,  // measure 30
1001
0010
0001
0100
0010
1000
0001
0010
0100
1000
0001
0100
0010
1000
0100
0010
,  // measure 31
0001
0000
1000
0000
0001
0000
1000
0000
0000
0001
0000
0000
1000
0000
0000
0001
0000
0000
1000
0000
0000
0001
0000
0000
1000
0000
0001
0000
1000
0000
0001
0000
0000
1000
0000
0000
0001
0000
0000
1000
0000
0000
0001
0000
0000
1000
0000
0000
,  // measure 32
0001
0000
1000
0000
0001
0000
1000
0000
0000
0001
0000
0000
1000
0000
0000
0001
0000
0000
1000
0000
0000
0001
0000
0000
1000
0000
0001
0000
1000
0000
0001
0000
1000
0000
0001
0000
1000
0000
0001
0000
1000
0000
0001
0000
1000
0000
0001
0000
,  // measure 33
1000
0000
1000
0010
0100
0001
1000
0100
,  // measure 34
0000
0000
0100
0000
0010
0000
0001
0000
1000
0001
1000
0001
1000
0100
0010
0001
,  // measure 35
0100
0010
1000
0001
1000
0100
0000
0010
0000
0001
1000
0010
0100
0001
0010
0100
,  // measure 36
1000
0100
0011
0000
0110
0000
1100
0000
,  // measure 37
1001
0000
1000
0100
0000
0100
0000
0000
,  // measure 38
1000
0001
0001
0001
0001
0000
0000
0000
,  // measure 39
0010
0100
1000
0001
0000
0001
0010
0100
,  // measure 40
1000
1010
0110
0101
,  // measure 41
0001
0000
1000
0001
0000
1000
0001
0000
1000
0000
0001
1000
0000
0001
1000
0000
,  // measure 42
0010
0000
0100
0010
0000
0100
0010
0000
0100
0000
0010
0100
0000
0010
0100
0000
,  // measure 43
0001
0000
0010
0001
0000
0010
0001
0000
0010
0000
0001
0010
0000
0001
0010
0000
,  // measure 44
0100
0000
0000
0000
0000
0000
1000
0000
0000
0100
0000
0000
0000
0000
0000
1000
0000
0000
0100
0000
0000
0000
0000
0000
1000
0000
0100
0000
1000
0000
0100
0000
1000
0000
0100
0000
1000
0000
0000
0000
0000
0000
0100
0000
0000
1000
0000
0000
,  // measure 45
0100
1000
1001
0001
0100
0010
1001
1000
,  // measure 46
0100
0000
1000
0000
1001
0000
0010
0000
0100
1000
0001
0000
1001
0000
0010
0000
,  // measure 47
1000
0001
1000
0001
1000
0001
1000
0001
1000
0001
1000
0001
1000
0001
1000
0001
,  // measure 48
1000
0000
0001
0000
1000
0000
0001
0000
0000
1000
0000
0000
0001
0000
0000
1000
0000
0000
0001
0000
0000
1000
0000
0000
0001
0000
1000
0000
0001
0000
1000
0000
0001
0000
1000
0000
0001
0000
1000
0000
0001
0000
1000
0000
0001
0000
1000
0000
,  // measure 49
0001
0000
0001
0000
0100
0010
0000
0100
0010
0000
0010
0100
0000
0100
0010
0000
,  // measure 50
0100
0001
0010
0000
1000
0010
0000
1000
0010
0000
0010
1000
0000
1000
0010
0000
,  // measure 51
0100
0001
0100
0000
0001
1000
0000
0001
1000
0000
1000
0001
0000
0001
1000
0000
,  // measure 52
1000
0100
0010
0001
1000
0100
0010
0001
1000
0010
0100
0001
1000
0010
0100
0001
,  // measure 53
1000
0001
0100
0010
1000
0010
0000
1000
0010
0100
0010
1000
0000
1000
0001
0000
,  // measure 54
1000
0100
0010
0001
0100
0010
0000
1000
0100
0010
0001
0100
0000
0010
1000
0000
,  // measure 55
0001
0010
0100
0010
0001
0100
0000
0010
1000
0100
0010
0001
0000
1000
0010
0000
,  // measure 56
0001
0010
0100
1000
0001
0010
0100
1000
0001
0100
0010
1000
0001
0100
0010
1000
,  // measure 57
0001
0010
0100
0010
0001
1000
0100
0010
0001
0010
0100
1000
0001
0010
0100
0010
,  // measure 58
0001
1000
0010
0100
0010
1000
0001
0010
0100
0010
0001
1000
0100
0010
0001
0100
,  // measure 59
0010
1000
0001
0010
0100
0010
0001
1000
0100
0010
0100
1000
0001
0100
0010
1000
,  // measure 60
0001
0010
0100
0010
0001
1000
0010
0100
0001
1000
0100
0010
0001
1000
0010
0100
,  // measure 61
0010
1000
0100
0010
0100
1000
0001
0100
0010
1000
0001
0010
0100
0010
0001
1000
,  // measure 62
0010
0100
0001
1000
0100
1000
0010
0100
0010
1000
0001
1000
0001
0100
0010
1000
,  // measure 63
0100
0010
0001
0010
0100
1000
0001
0100
0010
1000
0001
1000
0100
0010
0001
0100
,  // measure 64
0010
1000
0001
0010
0100
1000
0010
0100
0001
1000
0100
1000
0010
0100
0001
1000
,  // measure 65
0100
1000
0010
0100
0001
0010
0001
1000
0100
1000
0010
0100
0001
1000
0100
1000
,  // measure 66
0001
0100
0010
1000
0100
0010
0001
0100
0010
1000
0001
0010
0100
0010
0001
1000
,  // measure 67
0100
0010
0001
1000
0010
0100
0001
1000
0100
1000
0001
0100
0010
1000
0100
1000
,  // measure 68
0001
0100
0010
0100
0001
1000
0100
0010
0001
0100
0010
1000
0001
0010
0100
0010
,  // measure 69
0001
1000
0010
0100
0001
1000
0100
1000
0010
0100
0001
1000
0100
0010
0001
0100
,  // measure 70
0010
1000
0001
0010
0100
0010
0001
1000
0100
0010
0001
0010
0100
1000
0010
0100
,  // measure 71
0001
1000
0001
1000
0001
1000
0001
1000
0001
1000
0001
1000
0001
1000
0001
1000
,  // measure 72
0001
0000
1000
0000
0001
0000
1000
0000
0000
0001
0000
0000
1000
0000
0000
0001
0000
0000
1000
0000
0000
0001
0000
0000
1000
0000
0001
0000
1000
0000
0001
0000
1000
0000
0001
0000
1000
0000
0001
0000
1000
0000
0001
0000
1000
0000
0001
0000
,  // measure 73
1000
0000
0000
1000
0000
0000
0100
0000
0001
0000
0000
0001
0000
0000
0100
0000
,  // measure 74
0100
0000
0000
0100
0000
0000
0010
0000
0001
0000
0000
0001
0000
0000
1000
0000
,  // measure 75
0010
0000
0000
0010
0000
0000
0100
0000
1000
0000
0000
1000
0000
0000
0001
0000
,  // measure 76
0010
0000
0000
0010
0000
0000
0100
0000
0001
0000
0000
0001
0000
0000
1000
0000
,  // measure 77
0010
0000
0000
0100
0000
0000
0001
0000
0010
0000
0000
0100
0000
0000
1000
0000
,  // measure 78
0001
0000
0000
0100
0000
0000
0010
0000
1000
0000
0000
0100
0000
0000
0010
0000
,  // measure 79
0001
0000
0000
0001
0000
0000
0001
0000
1000
0000
0000
1000
0000
0000
1000
0000
,  // measure 80
0010
0000
0000
0010
0000
0000
0010
0000
0100
0000
0000
0100
0000
0000
0100
0000
,  // measure 81
0001
0000
1000
0000
0100
1000
0010
1000
0001
0000
0100
0000
0010
1000
0100
0010
,  // measure 82
0001
0000
0100
0000
0001
1000
0010
1000
0100
0000
1000
0000
0001
0100
0010
0100
,  // measure 83
0001
0000
1000
0000
0100
0010
0001
0010
0100
0000
1000
0000
0001
0100
0010
0100
,  // measure 84
0001
0000
0010
0000
0100
1000
0010
1000
0100
0000
0010
0000
0001
0100
0010
1000
,  // measure 85
0001
0010
0001
0010
0001
0010
0001
0010
0001
0010
0001
0010
0001
0010
0001
0010
,  // measure 86
0100
1000
0100
1000
0100
1000
0100
1000
0100
1000
0100
1000
0100
1000
0100
1000
,  // measure 87
0001
0000
0010
0000
0001
0000
0010
0000
0000
0001
0000
0000
0010
0000
0000
0001
0000
0000
0010
0000
0000
0001
0000
0000
1000
0000
0100
0000
1000
0000
0100
0000
1000
0000
0100
0000
1000
0000
0100
0000
1000
0000
0100
0000
1000
0000
0100
0000
,  // measure 88
2002
0000
0000
3003
,  // measure 89
1000
0001
1000
0100
0000
0010
0001
0100
0001
0010
0100
1000
0000
0010
0100
0001
,  // measure 90
1000
0010
1000
0100
0000
0010
0001
0100
0010
1000
0001
1000
0000
0001
0100
0001
,  // measure 91
0010
0100
1000
0001
0000
0010
0100
1000
0001
0100
0010
0100
0000
0001
0010
0100
,  // measure 92
1000
0001
1000
0100
0000
0010
0001
0100
0010
1000
0001
1000
0000
0010
0100
0001
,  // measure 93
1000
0010
0100
0010
0000
1000
0010
0100
0001
0010
0100
1000
0000
0100
0010
0001
,  // measure 94
0100
0010
1000
0100
0000
0010
0001
1000
0010
0100
0001
0010
0000
0100
0010
0100
,  // measure 95
1000
0001
0100
0010
0000
1000
0001
0010
0100
0010
0001
0100
0000
0010
1000
0001
,  // measure 96
0010
0100
1000
0001
0000
0100
0010
1000
0100
0010
0001
0100
0000
0010
0100
0001
,  // measure 97
0010
0100
1000
0010
0000
0100
0010
1000
0100
1000
0001
0010
0000
0100
1000
0010
,  // measure 98
0100
0001
1000
0010
0000
0100
0001
1000
0100
0010
0001
0100
0000
0010
1000
0001
,  // measure 99
0100
0001
0010
0100
0000
1000
0001
0100
0010
1000
0100
0010
0000
0001
0100
0010
,  // measure 100
0100
0001
0010
0100
0000
1000
0001
0100
0010
1000
0001
0010
0000
0100
1000
0001
,  // measure 101
0100
0010
0100
0001
0000
1000
0100
0010
0001
0010
0100
1000
0000
0001
0010
0100
,  // measure 102
1000
0100
0010
0001
0000
0100
0010
1000
0001
0010
0100
1000
0000
0001
0100
0010
,  // measure 103
1000
0100
1000
0100
1000
0100
1000
0100
0010
0001
0010
0001
0010
0001
0010
0001
,  // measure 104
1000
0000
0100
0000
1000
0000
0100
0000
0000
1000
0000
0000
0100
0000
0000
1000
0000
0000
0100
0000
0000
1000
0000
0000
0001
0000
0010
0000
0001
0000
0010
0000
0001
0000
0010
0000
0001
0000
0010
0000
0001
0000
0010
0000
0001
0000
0010
0000
,  // measure 105
0001
0000
0010
1000
0100
0001
0010
0100
,  // measure 106
0000
0000
0100
0000
1000
0000
0001
0000
0010
0001
0010
0001
0010
0100
1000
0001
,  // measure 107
1000
0100
0010
0001
0010
0100
0000
1000
0000
0001
0010
0100
1000
0001
1000
0100
,  // measure 108
0010
0100
1001
0000
1100
0000
0110
0000
,  // measure 109
0011
0000
0010
0100
0000
0100
0000
0000
,  // measure 110
0010
0001
0001
0001
0001
0000
0000
0000
,  // measure 111
1000
0100
0010
0001
0000
0001
1000
0100
,  // measure 112
0010
1010
1100
0101
,  // measure 113
0011
0000
0100
0001
1000
0010
0100
1000
,  // measure 114
0000
0000
1000
0000
0001
0000
0010
0000
0100
0010
0100
0010
0100
1000
0001
0010
,  // measure 115
0100
1000
0010
0100
0001
1000
0000
0001
0000
0010
0100
1000
0001
0010
0100
1000
,  // measure 116
0010
1000
0011
0000
1001
0000
1100
0000
,  // measure 117
0110
0000
0100
1000
0000
1000
0000
0000
,  // measure 118
0100
0010
0010
0010
0010
0000
0000
0000
,  // measure 119
0001
0010
0001
0010
0001
0010
0001
0010
0100
1000
0100
1000
0100
1000
0100
1000
,  // measure 120
0001
0000
0010
0000
0001
0000
0010
0000
0000
0001
0000
0000
0010
0000
0000
0001
0000
0000
0010
0000
0000
0001
0000
0000
1000
0000
0100
0000
1000
0000
0100
0000
1000
0000
0100
0000
1000
0000
0100
0000
1000
0000
0100
0000
1000
0000
0100
0000
,  // measure 121
1000
0001
0100
0010
1000
0001
0010
0100
0010
0001
1000
0100
0010
0001
0010
0100
,  // measure 122
1000
0001
0010
0100
0010
0001
1000
0010
0100
0010
1000
0100
0010
0001
0100
0010
,  // measure 123
0100
0001
1000
0100
1000
0010
0100
0001
0010
0001
1000
0100
0010
0001
0100
0010
,  // measure 124
0100
0001
1000
0100
1000
0001
0100
0001
1000
0010
0100
0001
1000
0100
0010
0001
,  // measure 125
0010
0100
1000
0001
0100
0010
1000
0100
1000
0010
0100
0010
1000
0001
1000
0100
,  // measure 126
0010
0100
1000
0010
1000
0001
0100
0001
0010
0100
0010
0001
1000
0001
0100
0010
,  // measure 127
0100
0001
0010
0001
1000
0100
1000
0010
0100
0001
1000
0100
0010
0001
0100
0010
,  // measure 128
1000
0001
0100
0010
1000
0100
0010
0001
1000
0100
0010
0001
0100
0010
1000
0100
,  // measure 129
0010
0001
0010
0100
1000
0001
0010
0100
0010
0001
1000
0100
0010
0001
0010
0100
,  // measure 130
1000
0001
0010
0100
0010
0001
1000
0010
0100
0001
1000
0100
1000
0010
0100
0001
,  // measure 131
0010
0100
0010
0001
1000
0100
0010
0100
1000
0001
0100
0010
0100
0001
1000
0010
,  // measure 132
0100
0010
1000
0001
0010
0100
1000
0010
0100
0001
1000
0100
0010
0001
0100
0010
,  // measure 133
1000
0001
0100
0010
1000
0100
1000
0001
0010
0100
1000
0001
0010
0001
1000
0010
,  // measure 134
0100
0001
0010
0100
0010
0001
1000
0100
0010
0001
0100
0010
1000
0001
0010
0100
,  // measure 135
1000
0100
1000
0100
1000
0100
1000
0100
0010
0001
0010
0001
0010
0001
0010
0001
,  // measure 136
1000
0000
0100
0000
1000
0000
0100
0000
0000
1000
0000
0000
0100
0000
0000
1000
0000
0000
0100
0000
0000
1000
0000
0000
0001
0000
0010
0000
0001
0000
0010
0000
0001
0000
0010
0000
0001
0000
0010
0000
0001
0000
0010
0000
0001
0000
0010
0000
,  // measure 137
0001
0100
0000
0010
0000
0100
0010
0001
0100
0010
0000
0100
0000
0010
1000
0100
,  // measure 138
0010
0001
0000
0010
0000
0001
0100
0010
1000
0100
0000
1000
0000
0100
0010
0001
,  // measure 139
0100
0001
0000
0100
0000
1000
0100
0010
0001
0010
0000
0100
0000
1000
0001
0010
,  // measure 140
0100
1000
0000
0100
0000
0001
1000
0010
0100
0001
0000
0100
0000
0001
0010
0100
,  // measure 141
1000
0001
0000
0010
0000
1000
0010
0100
0001
0010
0000
0001
0000
0010
0100
1000
,  // measure 142
0010
1000
0000
0010
0000
0010
0001
0100
0001
1000
0000
0001
0000
1000
0100
0010
,  // measure 143
0001
0100
0000
0001
0000
0100
0010
1000
0001
0010
0000
0001
0000
0010
0100
1000
,  // measure 144
0001
0100
0000
0001
0000
0100
0010
1000
0100
0010
0000
0100
0000
0010
0001
0100
,  // measure 145
0010
1000
0001
0010
0000
0100
1000
0001
0100
0010
1000
0100
0000
0010
0001
1000
,  // measure 146
0010
0100
0001
0010
0000
0100
1000
0001
0010
0100
1000
0010
0000
0100
0001
0010
,  // measure 147
0001
1000
0100
0010
0000
0001
0100
0010
1000
0001
0010
0100
0000
0010
0001
0100
,  // measure 148
0010
1000
0001
0010
0000
0100
1000
0001
0100
0010
1000
0001
0000
0010
0100
1000
,  // measure 149
0001
0100
0010
1000
0000
0010
0100
0001
0010
0100
0010
0001
0000
1000
0010
0100
,  // measure 150
0001
0010
0100
1000
0000
0001
0100
0010
1000
0001
0010
0100
0000
0010
0001
0010
,  // measure 151
1000
0001
1000
0001
1000
0001
1000
0001
,  // measure 152
1000
0001
1000
0001
1000
0001
1000
0001
1000
0001
1000
0001
1000
0001
1000
0001
,  // measure 153
1000
0000
1000
0100
0001
0010
1000
0001
,  // measure 154
0000
0000
0001
0000
0100
0000
0010
0000
1000
0010
1000
0010
1000
0001
0100
0010
,  // measure 155
1000
0100
1000
0010
1000
0001
0000
0100
0000
0010
1000
0100
1000
0010
0100
0001
,  // measure 156
1000
0001
0110
0000
0101
0000
1001
0000
,  // measure 157
1010
0000
1000
0001
0000
0001
0000
0000
,  // measure 158
1000
0010
0010
0010
0010
0000
0000
0000
,  // measure 159
0100
0001
1000
0010
0000
0010
0100
0001
,  // measure 160
1000
1100
0101
0011
,  // measure 161
1001
0000
0001
0100
0010
1000
0001
0010
,  // measure 162
0000
0000
0010
0000
0100
0000
1000
0000
0001
1000
0001
1000
0001
0010
0100
1000
,  // measure 163
0010
0100
0001
1000
0001
0010
0000
0100
0000
1000
0001
0100
0010
1000
0100
0010
,  // measure 164
0001
0010
1100
0000
0110
0000
0011
0000
,  // measure 165
1001
0000
0001
0010
0000
0010
0000
0000
,  // measure 166
0001
1000
1000
1000
1000
0000
0000
0000
,  // measure 167
0100
0010
0001
1000
0000
1000
0100
0010
,  // measure 168
0001
0101
0110
1010
,  // measure 169
2002
0000
0000
0000
,  // measure 170
3003
0000
0000
0000
;
