#TITLE:Fireflies;
#SUBTITLE:Sexuality Violation;
#ARTIST:Owl City;
#TITLETRANSLIT:;
#SUBTITLETRANSLIT:;
#ARTISTTRANSLIT:;
#CREDIT:;
#BANNER:Fireflies-bn.png;
#BACKGROUND:Fireflies-bg.png;
#LYRICSPATH:;
#CDTITLE:GazeboCD.png;
#MUSIC:Fireflies.ogg;
#OFFSET:-0.208;
#SAMPLESTART:63.600;
#SAMPLELENGTH:22.070;
#SELECTABLE:YES;
#BPMS:0.000=180.000;
#STOPS:;
#BGCHANGES:;
// cache tags:
#FIRSTBEAT:32.000;
#LASTBEAT:391.000;
#SONGFILENAME:Songs/Sexuality Violation 2/Fireflies - [Gazebo]/Fireflies.sm;
#HASMUSIC:1;
#HASBANNER:1;
#MUSICLENGTH:133.297;
// end cache tags

//---------------dance-single - Gazebo----------------
#NOTES:
     dance-single:
     Gazebo:
     Challenge:
     14:
     1.000,1.000,0.413,0.225,1.000,1002.000,55.000,30.000,4.000,0.000:

0000
0000
0000
0000
,
0000
0000
0000
0000
,
0000
0000
0000
0000
,
0000
0000
0000
0000
,
0000
0000
0000
0000
,
0000
0000
0000
0000
,
0000
0000
0000
0000
,
0000
0000
0000
0000
,
1000
0100
0010
0001
0100
0010
1000
0001
,
0100
0001
1000
0100
1000
0010
0100
0001
,
1000
0100
0010
0100
0010
0001
1000
0010
,
0100
0001
0010
0100
0010
0001
0100
0010
,
1000
0001
0010
0100
1000
0010
0100
0001
,
0010
0001
1000
0100
0010
0100
1000
0001
,
0100
0010
1000
0001
0010
0100
0010
0001
,
0100
0010
0100
0001
1000
0100
0010
0001
,
1000
0100
1000
0010
1000
0010
0100
0001
0010
0001
0100
0001
0100
0010
1000
0001
,
0100
0000
0000
0010
0000
0000
1000
0000
0100
0000
0010
0000
0001
0000
0000
1000
0000
0000
0001
0000
0010
0000
0100
0000
1000
0000
0000
0001
0000
0000
1000
0000
0100
0000
0010
0000
0001
0000
0000
1000
0000
0000
0010
0000
0000
1000
0000
0000
,
0010
0100
0001
0010
0001
0010
0100
1000
0010
1000
0100
1000
0100
0010
0001
0100
,
0010
0000
0000
1000
0000
0000
0001
0000
0010
0000
0100
0000
1000
0000
0000
0001
0000
0000
1000
0000
0100
0000
0010
0000
0001
0000
0000
1000
0000
0000
0001
0000
0010
0000
0100
0000
1000
0000
0000
0010
0000
0000
0100
0000
0000
0010
0000
0000
,
1000
0010
1000
0001
0010
0100
1000
0100
1000
0010
0100
0001
0100
0001
0010
0100
,
0010
0000
0000
0001
0000
0000
1000
0000
0010
0000
0100
0000
0001
0000
0000
1000
0000
0000
0001
0000
0100
0000
0010
0000
1000
0000
0000
0001
0000
0000
1000
0000
0010
0000
0100
0000
0001
0000
0000
1000
0000
0000
0100
0000
0000
0010
0000
0000
,
0100
0010
0001
0010
0100
1000
0001
0010
0001
0010
0001
0100
0010
1000
0100
1000
,
0010
0100
0010
0100
0010
0100
0010
0100
0010
0100
0010
0100
0010
0100
0010
0100
,
0001
0010
0001
0100
0001
0100
0010
1000
0100
1000
0100
0010
0001
0100
0010
0100
,
0010
0000
0000
1000
0000
0000
0001
0000
0010
0000
0100
0000
1000
0000
0000
0001
0000
0000
1000
0000
0010
0000
0100
0000
0001
0000
0000
1000
0000
0000
0001
0000
0010
0000
0100
0000
1000
0000
0000
0001
0000
0000
1000
0000
0000
0100
0000
0000
,
1000
0010
1000
0001
0100
0001
0100
0001
0010
0001
1000
0100
0010
0001
0100
0001
,
0100
0000
0000
0001
0000
0000
1000
0000
0010
0000
0100
0000
0001
0000
0000
1000
0000
0000
0001
0000
0010
0000
0100
0000
1000
0000
0000
0001
0000
0000
1000
0000
0010
0000
0100
0000
0001
0000
0000
1000
0000
0000
0100
0000
0000
1000
0000
0000
,
0001
0100
0010
1000
0010
1000
0100
0010
0001
0010
0001
0100
0010
1000
0010
1000
,
0100
0000
0000
1000
0000
0000
0001
0000
0100
0000
0010
0000
1000
0000
0000
0001
0000
0000
1000
0000
0100
0000
0010
0000
0001
0000
0000
1000
0000
0000
0001
0000
0100
0000
0010
0000
1000
0000
0000
0001
0000
0000
1000
0000
0000
0010
0000
0000
,
0100
0000
0000
0001
0000
0000
1000
0000
0001
0000
1000
0000
0001
0000
0000
0010
0000
0000
0100
0000
1000
0000
0100
0000
1000
0000
0000
0001
0000
0000
0100
0000
0010
0000
0100
0000
0010
0000
0000
1000
0000
0000
0001
0000
0010
0000
0001
0000
,
0010
0000
0000
0000
0000
0000
0100
0000
0000
0000
0000
0000
1000
0000
0000
0000
0000
0000
0001
0000
0000
0000
0000
0000
0100
0000
0000
0010
0000
0000
1000
0000
0000
0100
0000
0000
1000
0000
0001
0000
0100
0000
0010
0000
0100
0000
0010
0000
,
0100
0000
0000
0000
0000
0100
0110
0000
,
1100
0000
0001
0000
0000
0010
0011
0000
,
1001
0000
1000
0000
0000
0010
1010
0000
,
0101
0000
0010
1010
0000
0001
1001
0000
,
1100
0000
0001
0000
0000
1000
1100
0000
,
0011
0000
1000
0000
0000
0010
1010
0000
,
1001
0000
0100
0000
0000
0001
0011
0000
,
1000
0000
0010
1010
0000
0001
0101
1000
,
1001
0000
0001
0000
0000
0110
1010
0000
,
0110
0000
0101
0000
0000
1001
0011
0000
,
1100
0000
1010
0000
0000
0101
0011
0000
,
1010
0000
0011
1001
0000
1010
0101
1001
,
1100
0000
1001
0000
0000
0110
0101
0000
,
1100
0000
0110
0000
0000
0110
0011
1001
,
1010
0000
0000
0000
0101
0000
0000
0000
0101
0000
0000
0000
0101
0000
0010
1000
,
0001
0000
0000
1100
0000
0000
1100
0000
0000
0000
1001
0000
1001
0000
1001
0000
,
0001
1000
0010
0100
0001
1000
0010
1000
0001
0010
0100
1000
0001
1000
0100
1000
,
0001
0010
0100
1000
0001
0100
0001
1000
0100
1000
0001
1000
0010
1000
0001
0010
,
0100
1000
0001
0010
0001
1000
0010
0100
0001
0100
0001
1000
0010
1000
0001
0100
,
0001
1000
0010
1000
0100
0010
0001
1000
0100
1000
0001
0100
0010
1000
0001
0010
,
0100
1000
0100
0010
0100
1000
0001
0010
0100
0010
0100
1000
0001
0100
0001
1000
,
0001
0100
0010
1000
0010
1000
0001
1000
0100
1000
0001
0010
0100
1000
0001
0010
,
0001
1000
0010
0100
0001
1000
0010
0100
0001
0010
0001
1000
0001
1000
0010
0100
,
0001
0000
0000
0100
0000
0000
0001
0000
0000
1000
0000
0000
0010
0000
0000
0100
0000
0000
0001
0000
0000
1000
0000
0000
0001
0000
0000
0010
0000
0000
0100
0000
0000
1000
0000
0000
0001
0000
0000
0100
0000
0000
0001
0000
1000
0000
0001
0000
,
1000
0001
1000
0100
1000
0010
0100
0001
0010
0001
1000
0010
0100
0001
0010
0001
,
1000
0100
1000
0010
1000
0010
0100
0001
0010
0001
1000
0010
0100
0001
0010
0001
,
0010
0100
1000
0010
0100
0001
0100
0001
0010
0100
1000
0010
1000
0010
0100
0001
,
0010
0001
1000
0010
0100
0001
0010
0001
1000
0010
0100
0001
0010
0001
1000
0010
,
1000
0010
0100
0001
0100
0001
1000
0100
1000
0010
1000
0010
0100
0001
0010
0100
,
1000
0001
0010
0001
0010
0001
0100
0001
0010
0100
1000
0010
1000
0010
0100
0001
,
0010
0100
1000
0010
1000
0010
1000
0100
1000
0001
0010
0100
1000
0010
1000
0001
,
0100
0001
0100
0001
0100
0001
0100
0001
0100
0001
0100
0001
0100
0001
0100
0001
0100
0001
0100
0000
0000
0000
0000
0000
,
0001
0010
0001
1000
0001
0010
0001
1000
0010
0100
0001
0010
0001
1000
0010
0100
,
0001
0010
0001
0100
0010
1000
0001
0010
0001
0100
0010
1000
0100
1000
0001
0100
,
0010
1000
0010
1000
0100
0010
0001
0100
0010
1000
0100
0010
0001
0100
0001
0100
,
0010
1000
0100
1000
0010
0100
0001
1000
0100
1000
0010
0100
0001
0010
0100
1000
,
0001
0100
0001
0010
0001
1000
0100
1000
0010
0100
0001
0010
0001
0100
0010
1000
,
0100
1000
0001
0010
0001
0100
0010
1000
0001
0100
0001
1000
0010
1000
0001
0010
,
0100
1000
0001
0100
0010
1000
0100
1000
0010
0100
0001
1000
0100
1000
0010
0100
,
0001
0100
0001
0010
0100
1000
0010
0100
0001
1000
0001
1000
0001
1000
0001
1000
,
0010
0100
0001
0010
0100
1000
0001
1000
0010
1000
0100
0010
0001
0100
0001
1000
,
0100
0010
0001
0100
0010
1000
0100
0010
0100
1000
0001
0010
0100
1000
0001
0100
,
0001
0010
0100
1000
0010
1000
0001
0100
0010
1000
0010
1000
0100
1000
0010
0100
,
0001
0010
0001
1000
0010
0100
0001
0100
0001
0010
0100
1000
0010
1000
0010
0100
,
0001
0010
0001
0100
0010
1000
0100
1000
0010
0100
0001
0010
0001
1000
0100
1000
,
0010
0100
0001
0010
0100
0010
0001
1000
0100
1000
0010
0100
0001
0010
0001
0100
,
0010
1000
0010
1000
0010
1000
0010
1000
0010
1000
0010
1000
0010
1000
0010
0100
,
0001
0000
0000
0000
0000
0000
0000
0000
0000
0000
0000
0000
0000
0000
0000
0000
0000
0000
0000
0000
0000
0000
0000
0000
0000
0000
0000
0000
0000
0000
0000
0000
0000
0000
0000
0000
0000
0000
0000
0000
0000
0000
0000
0000
0000
0000
0000
0000
0000
0000
0000
0000
0000
0000
0000
0000
0000
0000
0000
0000
0000
0000
0000
0000
0000
0000
0000
0000
0000
0000
0000
0000
0000
0000
0000
0000
0000
0000
0000
0000
0000
0000
0000
0000
0000
0000
0000
0000
0000
0000
0000
0000
0000
0000
0000
0000
1000
0000
0000
0000
0000
0000
0000
0000
0100
0000
0000
0000
0000
0000
0000
0000
0010
0000
0000
0000
0000
0000
0000
0000
0002
0000
0000
0000
0000
0000
0000
0000
0000
0000
0000
0000
0000
0000
0000
0000
0000
0000
0000
0000
0000
0000
0000
0000
1003
0000
0000
0000
0000
0000
0000
0000
0100
0000
0000
0000
0000
0000
0000
0000
0010
0000
0000
0000
0000
0000
0000
0000
0002
0000
0000
0000
0000
0000
0000
0000
0000
0000
0000
0000
0000
0000
0000
0000
0000
0000
0003
0000
0000
0000
0000
0000
,
MM11
0000
0010
0002
0000
1003
0020
0000
,
0130
0000
0100
0002
0000
1003
0200
0000
,
0310
0000
0010
0002
0000
2003
0100
3001
,
0000
2000
0100
3001
0100
0010
0010
1000
,
1100
0000
0100
0020
0000
0130
0002
0000
,
0103
0000
0100
2000
0000
3010
0002
0000
,
0013
0000
0010
2000
0000
3002
0010
1003
,
0000
0002
0010
1003
0010
0100
0100
0001
,
MM11
0002
0000
0013
0002
0000
2003
0000
,
3020
0000
0100
0000
1030
0001
0010
0001
,
1000
0020
0000
0130
0020
0000
2030
0000
,
3200
0000
0010
0000
1300
0001
0100
0001
,
1000
0200
0000
0310
0200
0000
2300
0000
,
3002
0000
0100
0000
1003
0100
1000
0010
,
0220
0000
0000
0000
,
0000
0000
0000
0000
,
0000
0000
0000
0000
,
0000
0000
0000
0330
;

//---------------dance-single - Gazebo----------------
#NOTES:
     dance-single:
     Gazebo:
     Hard:
     13:
     0.822,1.000,0.008,0.308,0.908,725.000,1.000,41.000,0.000,0.000:
0000
0000
0000
0000
,
0000
0000
0000
0000
,
0000
0000
0000
0000
,
0000
0000
0000
0000
,
0000
0000
0000
0000
,
0000
0000
0000
0000
,
0000
0000
0000
0000
,
0000
0000
0000
0000
,
1000
0100
0010
0001
0100
0010
1000
0001
,
0100
0001
1000
0100
1000
0010
0100
0001
,
1000
0100
0010
0100
0010
0001
1000
0010
,
0100
0001
0010
0100
0010
0001
0100
0010
,
1000
0001
0010
0100
1000
0010
0100
0001
,
0010
0001
1000
0100
0010
0100
1000
0001
,
0100
0010
1000
0001
0010
0100
0010
0001
,
0100
0010
0100
0001
1000
0100
0010
0001
,
1000
0001
0100
0010
0000
0010
0000
0100
,
0020
0000
2030
0000
3002
0000
0103
0001
,
1000
0100
0010
0001
0000
0001
1000
0000
,
0002
0000
0203
0000
0320
0000
0130
0001
,
1000
0001
0010
0000
0100
0000
1000
0001
,
0000
0001
1000
0000
0010
0100
0000
0001
,
1000
0100
0010
0100
0010
0001
1000
0001
,
0100
0000
0000
0010
0000
0000
1000
0000
0000
0010
0000
0000
1000
0000
0000
0001
0000
0000
0010
0000
0000
0100
1000
0100
,
1000
0001
1000
0010
0000
0010
0100
0000
,
0020
0000
2030
0000
3002
0000
0103
0001
,
1000
0100
0010
0000
0010
0000
0001
0000
,
1000
0010
0000
0200
0000
0000
0301
0001
,
0000
1000
0000
0100
0000
0010
0000
0001
,
0000
0001
0100
0000
0010
0000
1000
0000
,
0000
0000
1001
0000
,
0000
0000
0000
0001
1000
0100
0010
0001
,
1000
0000
0010
0000
0100
0000
0001
0010
,
0000
0200
0000
0000
1300
0000
0001
2000
,
0000
0000
0000
0000
0000
0000
0000
3000
,
0000
0000
0001
0000
0200
0000
0310
2000
,
0000
0000
0000
0000
,
3002
0000
0003
0000
,
0020
0000
0000
0000
,
0230
0000
0000
0000
0300
0000
0000
1000
,
0001
0000
0010
0001
0000
0001
0100
0000
,
0010
1000
0000
0000
0002
0000
2003
0000
,
3100
0000
0100
0020
0000
0000
0031
0000
,
2000
0000
0000
3000
0000
0000
0000
0001
,
1000
0010
0010
0100
,
0010
1000
0002
0000
0000
0013
0000
0200
,
0000
0000
0000
0000
,
2300
0000
3000
0000
,
0001
1000
0001
0100
0010
1000
0010
1000
0001
1000
0001
1000
0100
0010
0001
0100
,
0001
0100
0010
0100
0010
0100
0001
1000
0010
1000
0001
0010
0100
1000
0001
0100
,
0010
0100
0001
0100
0010
0100
0001
1000
0010
1000
0001
1000
0010
1000
0001
0010
,
0100
1000
0001
1000
0001
0100
0001
1000
0100
0010
0100
0010
0001
1000
0010
0100
,
0010
1000
0010
0100
0010
1000
0001
0100
0001
1000
0001
0100
0001
1000
0001
0010
,
0100
1000
0100
0010
0100
1000
0100
0010
0001
1000
0001
0010
0001
1000
0001
0100
,
0010
0100
0001
0100
0010
0100
0001
1000
0010
1000
0001
1000
0010
1000
0001
1000
,
0100
0010
0001
0010
0100
0010
0001
0010
0100
1000
0001
1000
0100
1000
0001
0100
,
0001
1000
0010
1000
0001
0010
0001
1000
0001
0010
0100
1000
0010
1000
0010
0100
,
0001
1000
0100
1000
0001
1000
0001
0100
0010
1000
0010
1000
0001
1000
0100
0010
,
0001
0010
0001
1000
0001
0100
0010
1000
0010
1000
0010
0100
0001
0010
0001
1000
,
0010
1000
0010
1000
0001
0100
0001
1000
0001
0010
0100
1000
0001
0010
0001
1000
,
0100
1000
0001
1000
0010
0100
0010
0100
0001
0100
0001
1000
0100
0010
0001
1000
,
0010
1000
0001
0100
0001
1000
0100
1000
0100
0010
0001
1000
0010
1000
0100
0010
,
0001
0010
0100
0010
0001
0010
0100
1000
0001
1000
0100
1000
0001
1000
0100
1000
,
0001
0100
0020
0000
2030
0000
3001
1000
,
0001
1000
0001
0010
0100
1000
0100
1000
0001
1000
0001
1000
0010
0100
0001
0010
,
0001
0010
0100
0010
0100
0010
0001
1000
0100
1000
0001
0100
0010
1000
0001
0010
,
0100
0010
0001
0010
0100
0010
0001
1000
0100
1000
0001
1000
0100
1000
0001
0100
,
0010
1000
0001
1000
0001
0010
0001
1000
0010
0100
0010
0100
0001
1000
0100
0010
,
0100
1000
0100
0010
0100
1000
0001
0010
0001
1000
0001
0010
0001
1000
0001
0100
,
0010
1000
0010
0100
0010
1000
0010
0100
0001
1000
0001
0100
0001
1000
0001
0010
,
0100
0010
0001
0010
0100
0010
0001
1000
0100
1000
0001
1000
0100
1000
0001
1000
,
0010
0100
0001
0100
0010
0100
0001
0100
0010
1000
0001
1000
0010
1000
0001
0010
,
0001
1000
0100
1000
0001
0100
0001
1000
0001
0100
0010
1000
0100
1000
0100
0010
,
0001
1000
0010
1000
0001
1000
0001
0010
0100
1000
0100
1000
0001
1000
0010
0100
,
0001
0100
0001
1000
0001
0010
0100
1000
0100
1000
0100
0010
0001
0100
0001
1000
,
0100
1000
0100
1000
0001
0010
0001
1000
0001
0100
0010
1000
0001
0100
0001
1000
,
0010
1000
0001
1000
0100
0010
0100
0010
0001
0010
0001
1000
0010
0100
0001
1000
,
0100
1000
0001
0010
0001
1000
0010
1000
0010
0100
0001
1000
0100
1000
0010
0100
,
0001
0100
0010
0100
0001
0100
0010
1000
0001
1000
0010
1000
0001
1000
0010
1000
,
0001
0010
0200
0000
2300
0000
3001
1000
,
0001
0000
0100
0000
0010
0000
1000
0100
,
0000
0020
0000
0000
0031
0000
1000
0002
,
0000
0000
0000
0000
0000
0000
0000
0003
,
0000
0000
1000
0000
0020
0000
0130
0002
,
0000
0000
0000
0000
,
2003
0000
3000
0000
,
0200
0000
0000
0000
,
0320
0000
0000
0000
0030
0000
0000
0001
,
1000
0000
0100
1000
0000
1000
0010
0000
,
0100
0001
0000
0000
2000
0000
3002
0000
,
0013
0000
0010
0200
0000
0000
1300
0000
,
0002
0000
0000
0003
0000
0000
0000
1000
,
0001
0000
0100
0000
0100
0000
0000
0010
,
0100
0000
0001
2000
0000
0000
3100
0020
,
0000
0000
0000
0000
,
0000
0000
0000
0000
,
0000
0000
0000
0000
,
0000
0000
0000
0030
;
