#TITLE:Determinator;
#SUBTITLE:;
#ARTIST:Dust Devil;
#TITLETRANSLIT:;
#SUBTITLETRANSLIT:;
#ARTISTTRANSLIT:;
#CREDIT:;
#BANNER:Determinator-banner.png;
#BACKGROUND:Determinator-bg.png;
#LYRICSPATH:;
#CDTITLE:;
#MUSIC:Determinator.ogg;
#OFFSET:0.003;
#SAMPLESTART:19.380;
#SAMPLELENGTH:11.960;
#SELECTABLE:YES;
#DISPLAYBPM:147.000;
#BPMS:0.000=147.000;
#STOPS:;
#BGCHANGES:;
// cache tags:
#FIRSTBEAT:16.000;
#LASTBEAT:259.500;
#SONGFILENAME:Songs/In The Dump/Determinator/Determinator.sm;
#HASMUSIC:1;
#HASBANNER:1;
#MUSICLENGTH:111.020;
// end cache tags

//---------------dance-single - @294 ? (18) 5 (16) ?----------------
#NOTES:
     dance-single:
     @294 ? (18) 5 (16) ?:
     Challenge:
     20:
     0.968,1.000,0.081,0.027,1.000,740.000,9.000,3.000,0.000,0.000:
0000
0000
0000
0000
,
0000
0000
0000
0000
,
0000
0000
0000
0000
,
0000
0000
0000
0000
,
1000
0000
0000
0000
0101
0000
0010
1000
0001
0000
1100
0000
0000
0000
0000
0000
,
1000
0000
0000
0000
0101
0000
0010
1000
0100
0000
1100
0000
0000
0000
0000
0000
,
0010
0000
0000
0000
1001
0000
0010
1000
0100
0000
0101
0000
0000
0000
0001
0000
,
0001
0100
0010
0000
0010
1000
0100
0010
0001
0000
0001
0100
0010
1000
0100
0000
,
0100
0000
0000
0000
1000
0000
1000
0010
0100
0000
0100
0000
0000
0000
0000
0001
,
0010
0000
0100
0000
0100
0000
1000
0010
0100
0000
0001
0000
0000
0000
0000
0001
,
1000
0000
0010
0000
0010
0000
1000
0100
0010
0000
0100
0000
0000
0000
0000
0100
,
1000
0000
0100
0000
0001
0000
0100
0010
0100
0000
1000
0000
0010
0000
0000
0010
,
1000
0000
1000
0000
0100
0000
0100
0010
0001
0000
0100
0000
0000
0000
0000
0000
,
0001
0000
0100
0000
0010
0000
0010
1000
0010
0000
1000
0000
0000
0000
0000
1000
,
0100
0010
0100
1000
0010
0100
0001
1000
,
0010
0000
0000
0000
1000
0000
0000
0000
0001
0000
0000
0000
0200
0000
0000
0000
0000
0000
0300
0000
0000
0000
0000
0000
0001
0000
0000
0000
0000
0000
0000
0000
0000
0001
0000
0000
0100
0000
0000
0010
0000
0000
1000
0000
0000
0001
0000
0000
,
1000
0000
0000
0000
0001
0000
0000
0001
0100
0000
0010
0000
0000
0000
0000
0010
,
1000
0000
0000
0000
0010
0000
0000
0100
0001
0000
1000
0000
0000
0000
0000
1000
,
0010
0000
0000
0000
0100
0000
0000
0100
0001
0000
0000
0000
1000
0000
0000
1000
,
0010
0000
0010
0100
0000
0001
0000
0000
,
1000
0000
0000
0000
0010
0000
0100
0000
0000
0100
0001
0000
0000
0000
0000
0001
,
0100
0000
0000
0000
0010
0000
1000
0000
0000
0000
0100
0000
0000
0000
0000
0100
,
0010
0000
0000
0000
0001
0000
0100
0000
0000
0000
0010
0000
0000
0000
0000
0010
,
0100
0000
0010
0000
0010
1000
0100
0000
0100
0000
0100
0010
0001
0100
0010
0100
,
0001
0000
0000
0000
0000
0000
0000
0000
1000
0100
1000
0001
0010
0100
1000
0010
0100
0000
0000
0000
0000
0000
0000
0000
0000
0000
0000
0000
0000
0000
0000
0000
,
0001
0010
0100
0010
0001
0100
0010
1000
0001
0010
0100
1000
0001
0100
0010
1000
0100
0010
0001
1000
0010
0100
0001
1000
0100
0010
0001
1000
0001
0100
0010
1000
,
0001
0000
0000
0000
0000
0000
0000
0000
1000
0100
0010
0100
1000
0010
0100
0001
1000
0000
0000
0000
0000
0000
0000
0000
0000
0000
0000
0000
0000
0000
0000
0000
,
0001
1000
0010
1000
0001
0010
0100
1000
0001
0100
0010
1000
0100
0010
0001
1000
0010
0100
0001
1000
0100
0010
0001
0100
0010
1000
0001
0010
0001
1000
0010
0100
,
0001
0000
0000
0000
0000
0000
0000
0000
1000
0001
0010
0001
1000
0010
0100
0001
1000
0000
0000
0000
0000
0000
0000
0000
0000
0000
0000
0000
0000
0000
0000
0000
,
0001
0100
0001
1000
0010
0100
0001
0010
0100
1000
0001
0100
0010
1000
0001
0010
0100
1000
0001
0100
0010
1000
0100
0010
0001
1000
0010
1000
0001
0010
0100
1000
,
0001
0000
0000
0000
1000
0000
0100
0000
0000
0000
0010
0001
0100
0000
0000
0000
,
0001
1000
0010
0100
0000
0100
0010
1000
0001
0100
0010
0100
0000
0100
0001
1000
,
0001
0020
0000
0030
0001
0000
0001
0100
0010
1000
0001
0000
0000
0000
0000
0001
,
1000
0000
1000
0000
0010
0000
0010
1000
0001
0100
0010
0000
0000
0000
0000
0010
,
1000
0000
1000
0000
0100
0000
0100
0010
0000
0000
0001
0000
0000
0000
0000
0000
,
0001
0000
0100
0000
0010
0000
0010
1000
0001
0000
0001
0000
0100
0000
0010
0000
,
1000
0000
0000
0000
0001
0000
0001
0010
0000
0000
0100
0000
0000
0000
0000
0100
,
0010
0000
0000
0000
0001
0000
0100
0000
0000
0000
0010
0000
0000
0000
0000
0010
,
0100
0000
1000
0000
0100
0000
0001
0000
0010
0000
0100
0000
0100
1000
0001
1000
,
1001
0000
0000
0000
0000
0000
0000
0000
0000
0000
0000
0000
0000
0000
0000
0000
1000
0010
0100
0010
1000
0100
0010
0001
1000
0010
0100
0001
1000
0100
0010
0001
,
0100
0010
1000
0001
0010
0100
1000
0001
0100
0010
1000
0100
1000
0001
0100
0010
1000
0001
0010
0100
1000
0001
0100
0010
1000
0001
0010
0100
1000
0010
0100
0001
,
1000
0100
0010
0001
1000
0010
0100
0010
1000
0100
0010
0001
1000
0010
0100
0001
1000
0100
0010
0001
1000
0010
0100
0001
1000
0100
0010
0001
0100
0010
1000
0001
,
2000
0000
3000
0000
0001
0000
0101
0000
0000
0000
0001
0000
0001
0100
0010
1000
,
0100
0000
0010
0000
0010
0001
0000
0000
0100
0000
0000
0100
0010
1000
0001
0100
,
0010
0000
0010
0000
1000
0000
1000
0100
0000
0000
0010
0000
0000
0000
0000
0010
,
0100
0000
0100
0000
1000
0000
1000
0010
0000
0010
0100
0000
0000
0000
0000
0100
,
0001
0000
1000
0000
0010
0000
0010
1000
0001
0100
0010
0000
0000
0000
0000
0010
,
1000
0000
0100
0000
1000
0000
1000
0100
1000
0001
0100
0000
0000
0000
0000
0000
,
0010
1000
0001
1000
0010
0100
0001
0010
0100
1000
0100
0010
0001
1000
0010
0100
,
0010
1000
0001
0010
0100
0010
0001
1000
0010
0100
0010
1000
0001
1000
0100
1000
,
0001
0000
0000
0000
0000
0000
0000
0000
1000
0001
0010
0100
1000
0001
0100
0001
0010
0000
0000
0000
0000
0000
0000
0000
0000
0000
0000
0000
0000
0000
0000
0000
,
0001
0100
0001
0010
0100
1000
0001
0100
0010
1000
0001
0010
0100
1000
0001
0100
0010
1000
0100
0010
0001
1000
0010
0100
0001
1000
0100
1000
0001
0100
0010
1000
,
0001
0000
0000
0000
0000
0000
0000
0000
1000
0010
1000
0100
0010
0001
1000
0100
0010
0000
0000
0000
0000
0000
0000
0000
0000
0000
0000
0000
0000
0000
0000
0000
,
0001
0100
0010
1000
0100
0010
0001
1000
0010
1000
0001
0010
0100
1000
0001
0100
0010
1000
0001
0010
0100
1000
0010
0100
0001
1000
0100
0010
0001
1000
0010
0100
,
0001
0000
0000
0000
0000
0000
0000
0000
1000
0010
1000
0100
0010
0001
1000
0010
0100
0000
0000
0000
0000
0000
0000
0000
0000
0000
0000
0000
0000
0000
0000
0000
,
0001
0100
0001
0010
0100
1000
0001
0100
0010
1000
0001
0010
0100
1000
0010
0100
0001
1000
0100
0010
0001
1000
0010
0100
0001
1000
0100
1000
0001
0100
0010
1000
,
0100
0000
0000
0000
0000
0000
1001
0000
0000
0000
0001
1000
0100
0000
0000
0000
,
0100
0010
0001
0000
0001
0000
0001
0100
0010
0000
0010
0100
0001
1000
0100
0010
,
0001
0000
0000
0000
1000
0000
1000
0010
0100
0010
1000
0000
0000
0000
0000
1000
,
0001
0000
0010
0000
0001
0000
0001
0100
0010
0100
0001
0000
0000
0000
0000
0001
,
0010
0000
0001
0000
0010
0000
0010
0100
0010
0100
1000
0000
0001
0000
0000
0001
,
0100
0000
0010
0000
1000
0000
1000
0010
0100
0001
0010
0000
0000
0000
0000
0010
,
0001
0000
0100
0000
0001
0000
0001
0010
0100
0010
0001
0000
0000
0000
0000
0001
,
1000
0000
0000
0000
0010
0000
0000
0000
1000
0000
0000
0000
1000
0000
0001
0000
0100
0000
0010
0000
1000
0000
0000
0000
0000
0000
0000
0000
0001
1000
0100
1000
,
0010
0100
0001
1000
0100
0010
0001
1000
0010
0100
0001
1000
0100
0010
0001
1000
0010
0100
0001
0010
0100
1000
0001
0100
0001
1000
0100
0010
0001
0000
0000
0000
;

//---------------dance-single - @257 ? (16) 4 (14) ?----------------
#NOTES:
     dance-single:
     @257 ? (16) 4 (14) ?:
     Hard:
     14:
     0.911,1.000,0.081,0.027,1.000,696.000,9.000,3.000,0.000,0.000:

0000
0000
0000
0000
,
0000
0000
0000
0000
,
0000
0000
0000
0000
,
0000
0000
0000
0000
,
1000
0000
0000
0000
0101
0000
0010
1000
0001
0000
1100
0000
0000
0000
0000
0000
,
1000
0000
0000
0000
0101
0000
0010
1000
0100
0000
1100
0000
0000
0000
0000
0000
,
0010
0000
0000
0000
1001
0000
0010
1000
0100
0000
0101
0000
0000
0000
0001
0000
,
0001
0100
0010
0000
0010
1000
0100
0010
0001
0000
0001
0100
0010
1000
0100
0000
,
0100
0000
0000
0000
1000
0000
1000
0010
0100
0000
0100
0000
0000
0000
0000
0001
,
0010
0000
0100
0000
0100
0000
1000
0010
0100
0000
0001
0000
0000
0000
0000
0001
,
1000
0000
0010
0000
0010
0000
1000
0100
0010
0000
0100
0000
0000
0000
0000
0100
,
1000
0000
0100
0000
0001
0000
0100
0010
0100
0000
1000
0000
0010
0000
0000
0010
,
1000
0000
1000
0000
0100
0000
0100
0010
0001
0000
0100
0000
0000
0000
0000
0000
,
0001
0000
0100
0000
0010
0000
0010
1000
0010
0000
1000
0000
0000
0000
0000
1000
,
0100
0010
0100
1000
0010
0100
0001
1000
,
0010
0000
0000
0000
1000
0000
0000
0000
0001
0000
0000
0000
0200
0000
0000
0000
0000
0000
0300
0000
0000
0000
0000
0000
0001
0000
0000
0000
0000
0000
0000
0000
0000
0001
0000
0000
0100
0000
0000
0010
0000
0000
1000
0000
0000
0001
0000
0000
,
1000
0000
0000
0000
0001
0000
0000
0001
0100
0000
0010
0000
0000
0000
0000
0010
,
1000
0000
0000
0000
0010
0000
0000
0100
0001
0000
1000
0000
0000
0000
0000
1000
,
0010
0000
0000
0000
0100
0000
0000
0100
0001
0000
0000
0000
1000
0000
0000
1000
,
0010
0000
0010
0100
0000
0001
0000
0000
,
1000
0000
0000
0000
0010
0000
0100
0000
0000
0100
0001
0000
0000
0000
0000
0001
,
0100
0000
0000
0000
0010
0000
1000
0000
0000
0000
0100
0000
0000
0000
0000
0100
,
0010
0000
0000
0000
0001
0000
0100
0000
0000
0000
0010
0000
0000
0000
0000
0010
,
0100
0000
0010
0000
0010
1000
0100
0000
0100
0000
0100
0010
0001
0100
0010
0100
,
0001
0000
0000
0000
0000
0000
0000
0000
0000
0000
0000
0000
0000
0000
0000
0000
0000
0000
0000
0000
0000
0000
0000
0000
0000
0000
0000
0000
0000
0000
0000
0000
0000
0000
0000
0000
0000
0000
0000
0000
0000
0000
0000
0000
0000
0000
0000
0000
1000
0000
0000
0000
0000
0000
0000
0100
0000
0000
0000
0000
0000
0000
1000
0000
0000
0000
0000
0000
0000
0010
0000
0000
0000
0000
0000
0100
0000
0000
0000
0000
0000
0000
0001
0000
0000
0000
0000
0000
0000
1000
0000
0000
0000
0000
0000
0000
0010
0000
0000
0000
0000
0000
0000
0000
0000
0000
0000
0000
0000
0000
0000
0000
0000
0000
0000
0000
0000
0000
0000
0000
0000
0000
0000
0000
0000
0000
0000
0000
0000
0000
0000
0000
0000
0000
0000
0000
0000
0000
0000
0000
0000
0000
0000
0000
0000
0000
0000
0000
0000
0000
0000
0000
0000
0000
0000
0000
0000
0000
0000
0000
0000
0000
0000
0000
0000
0000
0000
0000
0000
0000
0000
0000
0000
0000
0000
0000
0000
0000
0000
0000
0000
0000
0000
0000
0000
0000
0000
0000
0000
0000
0000
0000
,
1000
0000
0000
0000
0000
0000
0000
0010
0000
0000
0000
0000
0000
0000
1000
0000
0000
0000
0000
0000
0000
0100
0000
0000
0000
0000
0000
0010
0000
0000
0000
0000
0000
0000
0001
0000
0000
0000
0000
0000
0000
1000
0000
0000
0000
0000
0000
0000
0010
0000
0000
0000
0000
0000
0000
0100
0000
0000
0000
0000
0000
0000
0001
0000
0000
0000
0000
0000
0000
1000
0000
0000
0000
0000
0000
0100
0000
0000
0000
0000
0000
0000
0010
0000
0000
0000
0000
0000
0000
0001
0000
0000
0000
0000
0000
0000
1000
0000
0000
0000
0000
0000
0000
0010
0000
0000
0000
0000
0000
0000
0100
0000
0000
0000
0000
0000
0000
0001
0000
0000
0000
0000
0000
0010
0000
0000
0000
0000
0000
0000
0100
0000
0000
0000
0000
0000
0000
1000
0000
0000
0000
0000
0000
0000
0001
0000
0000
0000
0000
0000
0000
0100
0000
0000
0000
0000
0000
0000
0010
0000
0000
0000
0000
0000
0000
1000
0000
0000
0000
0000
0000
0001
0000
0000
0000
0000
0000
0000
0010
0000
0000
0000
0000
0000
0000
0100
0000
0000
0000
0000
0000
0000
,
0010
0000
0000
0000
0000
0000
0000
0000
0000
0000
0000
0000
0000
0000
0000
0000
0000
0000
0000
0000
0000
0000
0000
0000
0000
0000
0000
0000
0000
0000
0000
0000
0000
0000
0000
0000
0000
0000
0000
0000
0000
0000
0000
0000
0000
0000
0000
0000
0001
0000
0000
0000
0000
0000
0000
0100
0000
0000
0000
0000
0000
0000
0010
0000
0000
0000
0000
0000
0000
1000
0000
0000
0000
0000
0000
0100
0000
0000
0000
0000
0000
0000
0010
0000
0000
0000
0000
0000
0000
0100
0000
0000
0000
0000
0000
0000
1000
0000
0000
0000
0000
0000
0000
0000
0000
0000
0000
0000
0000
0000
0000
0000
0000
0000
0000
0000
0000
0000
0000
0000
0000
0000
0000
0000
0000
0000
0000
0000
0000
0000
0000
0000
0000
0000
0000
0000
0000
0000
0000
0000
0000
0000
0000
0000
0000
0000
0000
0000
0000
0000
0000
0000
0000
0000
0000
0000
0000
0000
0000
0000
0000
0000
0000
0000
0000
0000
0000
0000
0000
0000
0000
0000
0000
0000
0000
0000
0000
0000
0000
0000
0000
0000
0000
0000
0000
0000
0000
0000
0000
0000
0000
0000
,
0001
0000
0000
0000
0000
0000
0000
1000
0000
0000
0000
0000
0000
0000
0010
0000
0000
0000
0000
0000
0000
0100
0000
0000
0000
0000
0000
0001
0000
0000
0000
0000
0000
0000
0010
0000
0000
0000
0000
0000
0000
0100
0000
0000
0000
0000
0000
0000
1000
0000
0000
0000
0000
0000
0000
0001
0000
0000
0000
0000
0000
0000
0100
0000
0000
0000
0000
0000
0000
0010
0000
0000
0000
0000
0000
1000
0000
0000
0000
0000
0000
0000
0001
0000
0000
0000
0000
0000
0000
1000
0000
0000
0000
0000
0000
0000
0100
0000
0000
0000
0000
0000
0000
0010
0000
0000
0000
0000
0000
0000
0001
0000
0000
0000
0000
0000
0000
0100
0000
0000
0000
0000
0000
0010
0000
0000
0000
0000
0000
0000
1000
0000
0000
0000
0000
0000
0000
0001
0000
0000
0000
0000
0000
0000
0010
0000
0000
0000
0000
0000
0000
0100
0000
0000
0000
0000
0000
0000
1000
0000
0000
0000
0000
0000
0000
0001
0000
0000
0000
0000
0000
0100
0000
0000
0000
0000
0000
0000
0010
0000
0000
0000
0000
0000
0000
1000
0000
0000
0000
0000
0000
0000
,
0100
0000
0000
0000
0000
0000
0000
0000
0000
0000
0000
0000
0000
0000
0000
0000
0000
0000
0000
0000
0000
0000
0000
0000
0000
0000
0000
0000
0000
0000
0000
0000
0000
0000
0000
0000
0000
0000
0000
0000
0000
0000
0000
0000
0000
0000
0000
0000
1000
0000
0000
0000
0000
0000
0000
0010
0000
0000
0000
0000
0000
0000
1000
0000
0000
0000
0000
0000
0000
0100
0000
0000
0000
0000
0000
0010
0000
0000
0000
0000
0000
0000
0001
0000
0000
0000
0000
0000
0000
1000
0000
0000
0000
0000
0000
0000
0010
0000
0000
0000
0000
0000
0000
0000
0000
0000
0000
0000
0000
0000
0000
0000
0000
0000
0000
0000
0000
0000
0000
0000
0000
0000
0000
0000
0000
0000
0000
0000
0000
0000
0000
0000
0000
0000
0000
0000
0000
0000
0000
0000
0000
0000
0000
0000
0000
0000
0000
0000
0000
0000
0000
0000
0000
0000
0000
0000
0000
0000
0000
0000
0000
0000
0000
0000
0000
0000
0000
0000
0000
0000
0000
0000
0000
0000
0000
0000
0000
0000
0000
0000
0000
0000
0000
0000
0000
0000
0000
0000
0000
0000
0000
0000
,
1000
0000
0000
0000
0000
0000
0000
0100
0000
0000
0000
0000
0000
0000
0010
0000
0000
0000
0000
0000
0000
0100
0000
0000
0000
0000
0000
1000
0000
0000
0000
0000
0000
0000
0001
0000
0000
0000
0000
0000
0000
0100
0000
0000
0000
0000
0000
0000
0010
0000
0000
0000
0000
0000
0000
1000
0000
0000
0000
0000
0000
0000
0100
0000
0000
0000
0000
0000
0000
0010
0000
0000
0000
0000
0000
0001
0000
0000
0000
0000
0000
0000
1000
0000
0000
0000
0000
0000
0000
0010
0000
0000
0000
0000
0000
0000
0100
0000
0000
0000
0000
0000
0000
0001
0000
0000
0000
0000
0000
0000
1000
0000
0000
0000
0000
0000
0000
0100
0000
0000
0000
0000
0000
0010
0000
0000
0000
0000
0000
0000
0001
0000
0000
0000
0000
0000
0000
1000
0000
0000
0000
0000
0000
0000
0010
0000
0000
0000
0000
0000
0000
0100
0000
0000
0000
0000
0000
0000
0001
0000
0000
0000
0000
0000
0000
1000
0000
0000
0000
0000
0000
0100
0000
0000
0000
0000
0000
0000
0010
0000
0000
0000
0000
0000
0000
0001
0000
0000
0000
0000
0000
0000
,
0100
0000
0000
0000
0001
0000
0100
0000
0000
0000
0010
1000
0100
0000
0000
0000
,
1000
0001
0010
0100
0000
0100
0010
0001
1000
0100
0010
0100
0000
0100
1000
0001
,
1000
0020
0000
0030
1000
0000
1000
0100
0010
0001
1000
0000
0000
0000
0000
1000
,
0001
0000
0001
0000
0010
0000
0010
0001
1000
0100
0010
0000
0000
0000
0000
0010
,
0001
0000
0001
0000
0100
0000
0100
0010
0000
0000
1000
0000
0000
0000
0000
0000
,
1000
0000
0100
0000
0010
0000
0010
0001
1000
0000
1000
0000
0100
0000
0010
0000
,
0001
0000
0000
0000
1000
0000
1000
0010
0000
0000
0100
0000
0000
0000
0000
0100
,
0010
0000
0000
0000
1000
0000
0100
0000
0000
0000
0010
0000
0000
0000
0000
0010
,
0100
0000
0001
0000
0100
0000
1000
0000
0010
0000
0100
0000
0100
0001
1000
0001
,
1001
0000
0000
0000
0000
0000
0000
0000
0000
0000
0000
0000
0000
0000
0000
0000
0000
0000
0000
0000
0000
0000
0000
0000
0000
0000
0000
0000
0000
0000
0000
0000
0000
0000
0000
0000
0000
0000
0000
0000
0000
0000
0000
0000
0000
0000
0000
0000
0000
0000
0000
0000
0000
0000
0000
0000
0000
0000
0000
0000
0000
0000
0000
0000
0000
0000
0000
0000
0000
0000
0000
0000
0000
0000
0000
0000
0000
0000
0000
0000
0000
0000
0000
0000
0000
0000
0000
0000
0000
0000
0000
0000
0000
0000
0000
0000
0001
0000
0000
0000
0000
0000
0000
1000
0000
0000
0000
0000
0000
0000
0001
0000
0000
0000
0000
0000
0000
0100
0000
0000
0000
0000
0000
0010
0000
0000
0000
0000
0000
0000
1000
0000
0000
0000
0000
0000
0000
0100
0000
0000
0000
0000
0000
0000
0010
0000
0000
0000
0000
0000
0000
0001
0000
0000
0000
0000
0000
0000
1000
0000
0000
0000
0000
0000
0000
0010
0000
0000
0000
0000
0000
0100
0000
0000
0000
0000
0000
0000
0001
0000
0000
0000
0000
0000
0000
1000
0000
0000
0000
0000
0000
0000
,
0100
0000
0000
0000
0000
0000
0000
0010
0000
0000
0000
0000
0000
0000
0001
0000
0000
0000
0000
0000
0000
0100
0000
0000
0000
0000
0000
0010
0000
0000
0000
0000
0000
0000
1000
0000
0000
0000
0000
0000
0000
0001
0000
0000
0000
0000
0000
0000
0010
0000
0000
0000
0000
0000
0000
0100
0000
0000
0000
0000
0000
0000
1000
0000
0000
0000
0000
0000
0000
0001
0000
0000
0000
0000
0000
0100
0000
0000
0000
0000
0000
0000
0010
0000
0000
0000
0000
0000
0000
0100
0000
0000
0000
0000
0000
0000
0001
0000
0000
0000
0000
0000
0000
1000
0000
0000
0000
0000
0000
0000
0100
0000
0000
0000
0000
0000
0000
0010
0000
0000
0000
0000
0000
0001
0000
0000
0000
0000
0000
0000
0100
0000
0000
0000
0000
0000
0000
0010
0000
0000
0000
0000
0000
0000
1000
0000
0000
0000
0000
0000
0000
0001
0000
0000
0000
0000
0000
0000
0010
0000
0000
0000
0000
0000
0000
0100
0000
0000
0000
0000
0000
1000
0000
0000
0000
0000
0000
0000
0001
0000
0000
0000
0000
0000
0000
0100
0000
0000
0000
0000
0000
0000
,
0010
0000
0000
0000
0000
0000
0000
1000
0000
0000
0000
0000
0000
0000
0100
0000
0000
0000
0000
0000
0000
0010
0000
0000
0000
0000
0000
0001
0000
0000
0000
0000
0000
0000
1000
0000
0000
0000
0000
0000
0000
0010
0000
0000
0000
0000
0000
0000
0100
0000
0000
0000
0000
0000
0000
0001
0000
0000
0000
0000
0000
0000
1000
0000
0000
0000
0000
0000
0000
0001
0000
0000
0000
0000
0000
0010
0000
0000
0000
0000
0000
0000
0100
0000
0000
0000
0000
0000
0000
1000
0000
0000
0000
0000
0000
0000
0010
0000
0000
0000
0000
0000
0000
0100
0000
0000
0000
0000
0000
0000
0001
0000
0000
0000
0000
0000
0000
1000
0000
0000
0000
0000
0000
0100
0000
0000
0000
0000
0000
0000
0010
0000
0000
0000
0000
0000
0000
0001
0000
0000
0000
0000
0000
0000
1000
0000
0000
0000
0000
0000
0000
0010
0000
0000
0000
0000
0000
0000
0100
0000
0000
0000
0000
0000
0000
0001
0000
0000
0000
0000
0000
1000
0000
0000
0000
0000
0000
0000
0100
0000
0000
0000
0000
0000
0000
0010
0000
0000
0000
0000
0000
0000
,
0002
0000
0003
0000
1000
0000
1100
0000
0000
0000
1000
0000
1000
0100
0010
0001
,
0100
0000
0010
0000
0010
1000
0000
0000
0100
0000
0000
0100
0010
0001
1000
0100
,
0010
0000
0010
0000
0001
0000
0001
0100
0000
0000
0010
0000
0000
0000
0000
0010
,
0100
0000
0100
0000
0001
0000
0001
0010
0000
0010
0100
0000
0000
0000
0000
0100
,
1000
0000
0001
0000
0010
0000
0010
0001
1000
0100
0010
0000
0000
0000
0000
0010
,
0001
0000
0100
0000
0001
0000
0001
0100
0001
1000
0100
0000
0000
0000
0000
0000
,
0010
0001
1000
0001
0010
0100
1000
0010
0100
0001
0100
0010
1000
0001
0010
0100
,
0010
0001
1000
0010
0100
0010
1000
0001
0010
0100
0010
0001
1000
0001
0100
0001
,
1000
0000
0000
0000
0000
0000
0000
0000
0000
0000
0000
0000
0000
0000
0000
0000
0000
0000
0000
0000
0000
0000
0000
0000
0000
0000
0000
0000
0000
0000
0000
0000
0000
0000
0000
0000
0000
0000
0000
0000
0000
0000
0000
0000
0000
0000
0000
0000
0001
0000
0000
0000
0000
0000
0000
0100
0000
0000
0000
0000
0000
0000
0010
0000
0000
0000
0000
0000
0000
0100
0000
0000
0000
0000
0000
0001
0000
0000
0000
0000
0000
0000
1000
0000
0000
0000
0000
0000
0000
0100
0000
0000
0000
0000
0000
0000
0010
0000
0000
0000
0000
0000
0000
0000
0000
0000
0000
0000
0000
0000
0000
0000
0000
0000
0000
0000
0000
0000
0000
0000
0000
0000
0000
0000
0000
0000
0000
0000
0000
0000
0000
0000
0000
0000
0000
0000
0000
0000
0000
0000
0000
0000
0000
0000
0000
0000
0000
0000
0000
0000
0000
0000
0000
0000
0000
0000
0000
0000
0000
0000
0000
0000
0000
0000
0000
0000
0000
0000
0000
0000
0000
0000
0000
0000
0000
0000
0000
0000
0000
0000
0000
0000
0000
0000
0000
0000
0000
0000
0000
0000
0000
0000
,
0001
0000
0000
0000
0000
0000
0000
0100
0000
0000
0000
0000
0000
0000
0001
0000
0000
0000
0000
0000
0000
1000
0000
0000
0000
0000
0000
0100
0000
0000
0000
0000
0000
0000
0010
0000
0000
0000
0000
0000
0000
0001
0000
0000
0000
0000
0000
0000
0100
0000
0000
0000
0000
0000
0000
0010
0000
0000
0000
0000
0000
0000
1000
0000
0000
0000
0000
0000
0000
0001
0000
0000
0000
0000
0000
0010
0000
0000
0000
0000
0000
0000
0100
0000
0000
0000
0000
0000
0000
1000
0000
0000
0000
0000
0000
0000
0001
0000
0000
0000
0000
0000
0000
0100
0000
0000
0000
0000
0000
0000
0010
0000
0000
0000
0000
0000
0000
1000
0000
0000
0000
0000
0000
0100
0000
0000
0000
0000
0000
0000
0010
0000
0000
0000
0000
0000
0000
0001
0000
0000
0000
0000
0000
0000
1000
0000
0000
0000
0000
0000
0000
0010
0000
0000
0000
0000
0000
0000
0100
0000
0000
0000
0000
0000
0000
0001
0000
0000
0000
0000
0000
1000
0000
0000
0000
0000
0000
0000
0100
0000
0000
0000
0000
0000
0000
1000
0000
0000
0000
0000
0000
0000
,
0001
0000
0000
0000
0000
0000
0000
0000
0000
0000
0000
0000
0000
0000
0000
0000
0000
0000
0000
0000
0000
0000
0000
0000
0000
0000
0000
0000
0000
0000
0000
0000
0000
0000
0000
0000
0000
0000
0000
0000
0000
0000
0000
0000
0000
0000
0000
0000
1000
0000
0000
0000
0000
0000
0000
0010
0000
0000
0000
0000
0000
0000
0100
0000
0000
0000
0000
0000
0000
0010
0000
0000
0000
0000
0000
1000
0000
0000
0000
0000
0000
0000
0100
0000
0000
0000
0000
0000
0000
0010
0000
0000
0000
0000
0000
0000
0001
0000
0000
0000
0000
0000
0000
0000
0000
0000
0000
0000
0000
0000
0000
0000
0000
0000
0000
0000
0000
0000
0000
0000
0000
0000
0000
0000
0000
0000
0000
0000
0000
0000
0000
0000
0000
0000
0000
0000
0000
0000
0000
0000
0000
0000
0000
0000
0000
0000
0000
0000
0000
0000
0000
0000
0000
0000
0000
0000
0000
0000
0000
0000
0000
0000
0000
0000
0000
0000
0000
0000
0000
0000
0000
0000
0000
0000
0000
0000
0000
0000
0000
0000
0000
0000
0000
0000
0000
0000
0000
0000
0000
0000
0000
0000
,
1000
0000
0000
0000
0000
0000
0000
0001
0000
0000
0000
0000
0000
0000
1000
0000
0000
0000
0000
0000
0000
0100
0000
0000
0000
0000
0000
0010
0000
0000
0000
0000
0000
0000
0001
0000
0000
0000
0000
0000
0000
0100
0000
0000
0000
0000
0000
0000
0010
0000
0000
0000
0000
0000
0000
1000
0000
0000
0000
0000
0000
0000
0001
0000
0000
0000
0000
0000
0000
0010
0000
0000
0000
0000
0000
0100
0000
0000
0000
0000
0000
0000
1000
0000
0000
0000
0000
0000
0000
0001
0000
0000
0000
0000
0000
0000
0100
0000
0000
0000
0000
0000
0000
0010
0000
0000
0000
0000
0000
0000
1000
0000
0000
0000
0000
0000
0000
0001
0000
0000
0000
0000
0000
0010
0000
0000
0000
0000
0000
0000
0100
0000
0000
0000
0000
0000
0000
1000
0000
0000
0000
0000
0000
0000
0010
0000
0000
0000
0000
0000
0000
0100
0000
0000
0000
0000
0000
0000
0001
0000
0000
0000
0000
0000
0000
1000
0000
0000
0000
0000
0000
0100
0000
0000
0000
0000
0000
0000
0010
0000
0000
0000
0000
0000
0000
0001
0000
0000
0000
0000
0000
0000
,
1000
0000
0000
0000
0000
0000
0000
0000
0000
0000
0000
0000
0000
0000
0000
0000
0000
0000
0000
0000
0000
0000
0000
0000
0000
0000
0000
0000
0000
0000
0000
0000
0000
0000
0000
0000
0000
0000
0000
0000
0000
0000
0000
0000
0000
0000
0000
0000
0001
0000
0000
0000
0000
0000
0000
1000
0000
0000
0000
0000
0000
0000
0001
0000
0000
0000
0000
0000
0000
0100
0000
0000
0000
0000
0000
0010
0000
0000
0000
0000
0000
0000
1000
0000
0000
0000
0000
0000
0000
0001
0000
0000
0000
0000
0000
0000
0010
0000
0000
0000
0000
0000
0000
0000
0000
0000
0000
0000
0000
0000
0000
0000
0000
0000
0000
0000
0000
0000
0000
0000
0000
0000
0000
0000
0000
0000
0000
0000
0000
0000
0000
0000
0000
0000
0000
0000
0000
0000
0000
0000
0000
0000
0000
0000
0000
0000
0000
0000
0000
0000
0000
0000
0000
0000
0000
0000
0000
0000
0000
0000
0000
0000
0000
0000
0000
0000
0000
0000
0000
0000
0000
0000
0000
0000
0000
0000
0000
0000
0000
0000
0000
0000
0000
0000
0000
0000
0000
0000
0000
0000
0000
0000
,
0001
0000
0000
0000
0000
0000
0000
1000
0000
0000
0000
0000
0000
0000
0010
0000
0000
0000
0000
0000
0000
0100
0000
0000
0000
0000
0000
0001
0000
0000
0000
0000
0000
0000
0010
0000
0000
0000
0000
0000
0000
0100
0000
0000
0000
0000
0000
0000
0010
0000
0000
0000
0000
0000
0000
0001
0000
0000
0000
0000
0000
0000
1000
0000
0000
0000
0000
0000
0000
0010
0000
0000
0000
0000
0000
0100
0000
0000
0000
0000
0000
0000
0001
0000
0000
0000
0000
0000
0000
1000
0000
0000
0000
0000
0000
0000
0100
0000
0000
0000
0000
0000
0000
0010
0000
0000
0000
0000
0000
0000
0001
0000
0000
0000
0000
0000
0000
0100
0000
0000
0000
0000
0000
0010
0000
0000
0000
0000
0000
0000
1000
0000
0000
0000
0000
0000
0000
0001
0000
0000
0000
0000
0000
0000
0010
0000
0000
0000
0000
0000
0000
0100
0000
0000
0000
0000
0000
0000
1000
0000
0000
0000
0000
0000
0000
0001
0000
0000
0000
0000
0000
0100
0000
0000
0000
0000
0000
0000
0010
0000
0000
0000
0000
0000
0000
1000
0000
0000
0000
0000
0000
0000
,
0001
0000
0000
0000
0000
0000
1001
0000
0000
0000
0001
1000
0100
0000
0000
0000
,
0100
0010
0001
0000
0001
0000
0001
0100
0010
0000
0010
0100
0001
1000
0100
0010
,
0001
0000
0000
0000
1000
0000
1000
0010
0100
0010
1000
0000
0000
0000
0000
1000
,
0001
0000
0010
0000
0001
0000
0001
0100
0010
0100
0001
0000
0000
0000
0000
0001
,
0010
0000
0001
0000
0010
0000
0010
0100
0010
0100
1000
0000
0001
0000
0000
0001
,
0100
0000
0010
0000
1000
0000
1000
0010
0100
0001
0010
0000
0000
0000
0000
0010
,
0001
0000
0100
0000
0001
0000
0001
0010
0100
0010
0001
0000
0000
0000
0000
0001
,
1000
0000
0000
0000
0000
0000
0000
0000
0000
0000
0000
0000
0000
0000
0000
0000
0000
0000
0000
0000
0000
0000
0000
0000
0010
0000
0000
0000
0000
0000
0000
0000
0000
0000
0000
0000
0000
0000
0000
0000
0000
0000
0000
0000
0000
0000
0000
0000
1000
0000
0000
0000
0000
0000
0000
0000
0000
0000
0000
0000
0000
0000
0000
0000
0000
0000
0000
0000
0000
0000
0000
0000
1000
0000
0000
0000
0000
0000
0000
0000
0000
0000
0000
0000
0001
0000
0000
0000
0000
0000
0000
0000
0000
0000
0000
0000
0100
0000
0000
0000
0000
0000
0000
0000
0000
0000
0000
0000
0010
0000
0000
0000
0000
0000
0000
0000
0000
0000
0000
0000
1000
0000
0000
0000
0000
0000
0000
0000
0000
0000
0000
0000
0000
0000
0000
0000
0000
0000
0000
0000
0000
0000
0000
0000
0000
0000
0000
0000
0000
0000
0000
0000
0000
0000
0000
0000
0000
0000
0000
0000
0000
0000
0000
0000
0000
0000
0000
0000
0001
0000
0000
0000
0000
0000
0000
0010
0000
0000
0000
0000
0000
0000
0001
0000
0000
0000
0000
0000
0000
1000
0000
0000
,
0000
0000
0000
0100
0000
0000
0000
0000
0000
0000
0010
0000
0000
0000
0000
0000
0000
0001
0000
0000
0000
0000
0000
0000
0100
0000
0000
0000
0000
0000
0000
0010
0000
0000
0000
0000
0000
0000
1000
0000
0000
0000
0000
0000
0000
0001
0000
0000
0000
0000
0000
0010
0000
0000
0000
0000
0000
0000
0100
0000
0000
0000
0000
0000
0000
1000
0000
0000
0000
0000
0000
0000
0001
0000
0000
0000
0000
0000
0000
0100
0000
0000
0000
0000
0000
0000
0010
0000
0000
0000
0000
0000
0000
1000
0000
0000
0000
0000
0000
0100
0000
0000
0000
0000
0000
0000
0010
0000
0000
0000
0000
0000
0000
0001
0000
0000
0000
0000
0000
0000
1000
0000
0000
0000
0000
0000
0000
0010
0000
0000
0000
0000
0000
0000
0100
0000
0000
0000
0000
0000
0000
0001
0000
0000
0000
0000
0000
1000
0000
0000
0000
0000
0000
0000
0100
0000
0000
0000
0000
0000
0000
0010
0000
0000
0000
0000
0000
0000
0001
0000
0000
0000
0000
0000
0000
0000
0000
0000
0000
0000
0000
0000
0000
0000
0000
0000
0000
0000
0000
0000
0000
0000
;
