#TITLE:Explosive;
#SUBTITLE:;
#ARTIST:Bond;
#TITLETRANSLIT:;
#SUBTITLETRANSLIT:;
#ARTISTTRANSLIT:;
#CREDIT:;
#BANNER:Explosive bn.png;
#BACKGROUND:Explosive bg.png;
#LYRICSPATH:;
#CDTITLE:cdtitle.png;
#MUSIC:Explosive.mp3;
#OFFSET:-0.040;
#SAMPLESTART:54.760;
#SAMPLELENGTH:12.240;
#SELECTABLE:YES;
#BPMS:0.000=115.000;
#STOPS:;
#BGCHANGES:;
// cache tags:
#FIRSTBEAT:0.000;
#LASTBEAT:198.000;
#SONGFILENAME:Songs/Essential Sim Collection/(Skauert) Explosive/Explosive.sm;
#HASMUSIC:1;
#HASBANNER:1;
#MUSICLENGTH:105.201;
// end cache tags

//---------------dance-single - ----------------
#NOTES:
     dance-single:
     :
     Hard:
     12:
     1.000,1.000,1.000,0.779,1.000,566.000,246.000,82.000,0.000,42.000:
1000
0001
0100
0010
2000
0000
0000
0000
0000
0000
3002
0000
0000
0000
0000
0000
,
0203
0000
0320
0000
0000
2030
0000
0000
,
3002
0203
0000
0000
,
0300
0000
0000
0000
,
0101
1000
0010
0100
1002
0000
0000
0000
0000
0000
0203
0000
0000
0000
0000
0000
,
0320
0000
2031
0000
0000
3002
0000
0000
,
0023
0231
0000
0000
,
0300
0000
0000
0000
1001
1001
0000
1010
1010
0000
1100
1100
0000
0011
0011
0000
,
2001
0000
3010
0000
1100
0010
1100
0010
0101
0000
0011
0100
0011
2000
0000
0000
,
3110
0000
0000
0000
0101
0010
1100
0010
0101
0000
1100
0001
1100
0020
0000
0000
,
1031
0000
0000
0000
0110
0001
1100
0001
0110
0000
1000
0101
0010
0102
0000
0000
,
1103
0000
0000
0000
0000
0000
0000
0000
0000
0000
0000
0000
0110
0000
0000
0001
0000
0000
0110
0000
0000
1000
0000
0000
0110
0000
0000
0000
0100
0000
1000
0000
0100
0000
0010
0000
1001
0000
0120
0000
0000
0000
0000
0000
0000
0000
0000
0000
,
1031
0100
0010
0100
1020
0000
0100
0000
0100
0000
2031
0000
0010
0000
0010
0000
,
3201
0001
0312
1000
1000
2103
0010
0010
,
3120
0000
0000
0000
0000
0000
0100
0000
0000
0000
0000
0000
1031
0000
0000
0110
0000
0000
1001
0000
0000
0110
0000
0000
1001
0000
0000
0000
0000
0000
0010
0000
0100
0000
1000
0000
0102
0000
1000
0000
0000
0000
0000
0000
0000
0000
0000
0000
,
0113
0000
0000
0000
0000
0000
0000
0000
0000
0000
0000
0000
1100
0000
0000
0011
0000
0000
1100
0000
0000
0011
0000
0000
1100
0000
0000
0000
0000
0000
0001
0000
0010
0000
0001
0000
2100
0000
0010
0000
0000
0000
0000
0000
0000
0000
0000
0000
,
3110
0001
1000
0001
0210
0000
0001
0000
0001
0000
1302
0000
1000
0000
1000
0000
,
2013
0010
3120
1000
1000
2031
0001
0001
,
3102
0000
0000
0000
0100
0000
0000
0000
0113
0000
1000
0000
0100
0000
0010
0001
0020
0000
0000
0000
0130
0000
2000
0000
0000
0000
3100
0000
0010
0000
0001
0000
,
0010
0000
0010
0000
0100
0000
0100
0000
1000
0000
1000
0000
0010
0000
0010
0000
0100
0000
0100
0000
0001
0000
0001
0000
0010
0000
0100
0000
0010
0000
0001
0100
,
0010
0000
1000
0000
2000
0000
0000
0000
3001
0000
0001
0000
0010
0000
0010
0000
0100
0000
0100
0000
1000
0000
1000
0000
0001
0000
0010
0000
0100
0000
1000
0010
,
0100
0000
0001
0000
0002
0000
0000
0000
1003
0000
0100
0000
0010
0000
0100
0000
0002
0000
0000
0000
0013
0000
0200
0000
0000
0000
0310
0000
0100
0000
1000
0100
,
1000
0000
0100
0000
0010
0000
0010
0000
1001
0000
0010
0000
0100
0000
0010
0000
1002
0000
0000
0000
0013
0000
1200
0000
0000
0000
0310
0000
0001
0000
0010
0100
,
0010
0000
0100
0000
1010
0000
1000
0000
0101
0000
0010
0000
0100
0000
0001
0000
0020
0000
0000
0000
0130
0000
1002
0000
0000
0000
0013
0000
0100
0000
0010
0100
,
1001
0000
0010
0000
0010
0000
0100
0000
1010
0000
0001
0000
0100
0000
0010
0000
2001
0000
0000
0000
3100
0000
0021
0000
0000
0000
0130
0000
0001
0000
1000
0100
,
0011
0100
0010
0100
1001
0010
1001
0100
1002
0000
1003
0000
0110
0001
0110
1000
,
0220
0000
0330
0000
0000
0000
0000
0000
1001
0000
0010
0000
0100
0000
0010
0001
2010
0000
0000
0000
3001
0000
0120
0000
0000
0000
0130
0000
0001
0000
0010
0100
,
1010
0000
0100
0000
0100
0000
0001
0000
1001
0000
1000
0000
0100
0000
0100
0000
0010
0000
0010
0000
0001
0000
0001
0000
0110
0000
1000
0000
0001
0000
1000
0100
,
1001
0000
0001
0000
0010
0000
0010
0000
1000
0000
1000
0000
0010
0000
0010
0000
0100
0000
0100
0000
0001
0000
0001
0000
0110
0000
0000
0000
0001
0000
0010
0100
,
1001
0000
0100
0000
0100
0000
0010
0000
1001
0000
0100
0000
0010
0000
0100
0000
1002
0000
0000
0000
0013
0000
1200
0000
0000
0000
0310
0000
0001
0000
0010
0100
,
1010
0000
0001
0000
0001
0000
0010
0000
1100
0000
0010
0000
0011
0000
0100
0000
0012
0000
0000
0000
0013
0000
0210
0000
0000
0000
0311
0000
0100
0000
0010
0100
,
1001
0000
0110
0000
0001
0000
0110
0000
1000
0000
1100
0000
0001
0000
0011
0000
0100
0000
0110
0000
1000
0000
1100
0000
0001
0000
0010
0000
0100
0000
0010
0100
,
1010
0000
0001
0000
0101
0000
0100
0000
0011
0000
0010
0000
1100
0000
1000
0000
0110
0000
0010
0000
1001
0000
0001
0000
0110
0000
0001
0000
1000
0000
0001
0010
,
1001
0000
0100
0000
0110
0000
0010
0000
1001
0000
0100
0000
0011
0000
0100
0000
1020
0000
0000
0000
1031
0000
0102
0000
0000
0000
0113
0000
1000
0000
0010
0001
,
0110
0000
1000
0000
1100
0000
0010
0000
1001
0000
1100
0000
1100
0000
0110
0000
0102
0000
0000
0000
0113
0000
2010
0000
0000
0000
3101
0000
0011
0000
0100
0010
,
1001
0000
1100
0000
0110
0000
0110
0000
1001
0000
0011
0000
0101
0000
0110
0000
2010
0000
0000
0000
3101
0000
0120
0000
0000
0000
1130
0000
0101
0000
0010
0100
,
1001
0000
0011
0000
0011
0000
0101
0000
1001
0000
0110
0000
1010
0000
1100
0000
1002
0000
0000
0000
0113
0000
2010
0000
0000
0000
3110
0000
0011
0000
0100
0010
,
1100
0011
0010
0110
1001
0110
1001
0110
2002
0000
3113
0000
0110
1001
0110
2002
,
0000
0000
3003
0000
1001
0110
0110
0110
1001
0000
1001
0110
0110
2001
0000
0000
,
3011
0000
0000
0000
0110
1001
1001
1001
0110
0000
0110
1001
1001
0120
0000
0000
,
1031
0100
0010
0100
1020
1000
1000
1000
1000
0000
0132
0100
0100
0100
0000
0000
,
2013
0000
0000
0000
3201
0001
0001
0001
0001
0000
1320
1000
1000
1000
0000
0000
,
1031
0000
0000
0000
0000
0000
1000
0100
0010
0001
0010
0100
1000
0001
0010
0100
1000
0100
0010
0001
1000
0100
0010
0100
,
1001
0000
0010
0000
0100
0000
0010
0000
0100
0000
0000
0000
1001
0000
0000
0110
0000
0000
1001
0000
0000
0110
0000
0000
1001
0000
0000
0000
0000
0000
0110
0000
0000
0110
0000
0000
0110
0000
0000
2002
0000
0000
0000
0000
0000
3003
0000
0000
,
1001
0010
0100
0010
1002
1000
1000
1000
1000
0000
2013
0010
0010
0010
0000
0000
,
3120
0000
0000
0000
0231
0001
0001
0001
0001
0000
1302
1000
1000
1000
0000
0000
,
0113
0000
0000
0000
1001
1001
0000
1100
1100
0000
0011
0011
0000
0110
0110
0000
,
1001
0000
1001
0000
0110
0110
0000
0011
0011
0000
1100
1100
0000
0101
0101
0000
,
1100
0000
0011
0000
1001
0011
0101
0110
1001
0000
1001
1100
0110
1001
0000
0000
,
0110
1001
2002
0000
3003
0000
0000
0000
;
