#TITLE:Babylon;
#SUBTITLE:;
#ARTIST:SHIKI;
#TITLETRANSLIT:;
#SUBTITLETRANSLIT:;
#ARTISTTRANSLIT:;
#CREDIT:;
#BANNER:Babylon-bn.jpg;
#BACKGROUND:Babylon.jpg;
#LYRICSPATH:;
#CDTITLE:AznGreen.png;
#MUSIC:Babylon.mp3;
#OFFSET:0.000;
#SAMPLESTART:100.000;
#SAMPLELENGTH:12.000;
#SELECTABLE:YES;
#BPMS:0.000=189.920,112.000=94.960,142.000=189.920,210.000=94.960,232.000=189.920;
#STOPS:;
#BGCHANGES:;
// cache tags:
#FIRSTBEAT:16.000;
#LASTBEAT:312.000;
#SONGFILENAME:Songs/toune 8/babylon/Babylon.sm;
#HASMUSIC:1;
#HASBANNER:1;
#MUSICLENGTH:120.823;
// end cache tags

//---------------dance-single - ----------------
#NOTES:
     dance-single:
     :
     Challenge:
     11:
     1.000,1.000,1.000,0.430,0.761,643.000,194.000,52.000,0.000,20.000:
0000
0000
0000
0000
,
0000
0000
0000
0000
,
0000
0000
0000
0000
,
0000
0000
0000
0000
,
1100
0000
0001
0000
0100
0010
0000
1000
,
0000
0100
0000
0010
0000
0001
0000
1000
,
0100
0010
0001
0010
0100
1000
0000
2000
,
0000
3001
0010
0100
0000
0100
1010
0000
,
0101
0000
0100
0000
0010
0100
0000
0001
,
0000
0010
0000
0100
0000
1000
0000
0001
,
0010
0000
0001
1000
0100
0010
0000
0002
,
0113
1001
0010
0100
,
1010
0000
0101
0000
1100
0001
0110
1000
,
0011
0100
1001
0010
1100
0001
0110
1000
,
1100
0100
0110
0010
0011
0001
1001
2000
,
3110
0010
0110
0100
0110
0000
1001
0000
,
0011
0000
1100
0000
1010
0001
1100
1000
,
0011
0100
1001
0010
1100
0001
0101
1000
,
0110
0000
1001
0100
0011
1000
1010
0002
,
1103
0000
0100
0000
0110
0000
0001
0000
0010
0100
0000
0100
0010
0000
0010
0000
,
1100
0000
1001
0000
1100
0010
0101
1000
,
0110
0001
1010
0010
1001
0100
1010
0001
,
0011
0010
0110
0100
1100
1000
1001
0002
,
1013
1000
1010
0010
1010
0000
1100
0000
,
0101
0000
0110
0000
0011
0100
1010
0001
,
1100
0010
1001
0100
0011
1000
0110
0010
,
1100
0000
0011
0100
1001
0010
0101
0200
,
1310
0000
1010
0000
1010
0000
1010
0000
0002
0000
0000
0100
0023
0000
0000
0030
,
1001
0000
0000
0000
0001
0010
0100
0010
0001
0000
1000
0100
0000
0001
0000
0000
,
0100
0000
0000
0010
0000
1000
0100
0010
0001
0000
0100
0010
0000
0001
1000
0000
,
1010
0000
0000
0000
0000
1100
0000
0010
0001
0000
0000
0000
0110
0000
0000
0000
,
1010
0000
0000
0000
0000
0000
0000
0000
0000
0000
0000
0000
0000
0000
0000
0000
0000
0000
0000
0000
0101
0000
0000
0000
0000
0000
0000
0000
1100
0000
0000
0000
2002
3003
0000
0000
0000
0000
0000
0000
0000
0000
0000
0000
0000
0000
0000
0000
1001
0000
0000
0000
0000
0000
0000
0000
0000
0000
0000
0000
0000
0000
0000
0000
,
0011
0000
1010
0100
0000
0001
0110
1000
0100
0000
0011
0100
0000
0001
1100
0010
,
0100
0000
1010
0001
0000
1000
0110
0001
0010
0000
0101
1000
0000
0001
1010
0000
,
0101
0000
1100
0010
0000
1010
1001
0110
1100
0000
0011
0100
1001
0010
0101
1000
,
0011
0000
0110
1000
0000
0001
0110
1000
0001
0010
0001
0010
0100
0010
0100
1000
,
0100
1000
0100
0010
0100
0010
0001
0010
1001
0010
0100
1000
0100
0010
0100
1000
,
0100
0010
0001
0000
1000
0001
0010
0100
1000
0010
0100
0010
0001
0000
0020
0000
,
0230
0000
1300
0001
0100
0010
1000
0001
0010
0001
1000
0100
1000
0001
0010
0000
,
2000
0000
0000
3200
0000
0000
0310
0000
1000
0100
1000
0100
0010
0100
0010
0001
,
0010
0001
0010
0100
0010
0100
1000
0001
0100
0010
1000
0100
0010
0001
0100
0010
,
0100
0001
0010
0100
1000
0010
0001
0010
1000
0100
1000
0000
0001
0000
0100
0000
,
0010
0100
1000
0001
0010
0100
1000
0100
0010
0001
1000
0001
1000
0100
1000
0001
,
0010
0100
0010
0002
0000
0000
0003
0000
1000
0100
1000
0000
0001
0010
0001
0000
,
1000
0001
1000
0010
0100
0000
0100
0010
2100
0000
0000
0000
0100
0000
0000
0000
,
0100
3002
1023
0230
1301
0000
0011
2000
,
3201
0320
1230
2300
3012
0000
0010
0000
,
0010
2003
3201
0320
0100
0000
0100
0000
,
0100
0000
2030
0001
3120
0000
0032
0010
1203
0000
0000
0000
1000
0000
0302
0000
,
0010
0000
2103
0000
0100
0000
0100
3020
,
0100
0000
1032
0000
0213
0000
0010
2300
,
0010
3002
1023
0230
2310
3010
0210
2310
,
3010
0000
0200
0000
0320
0000
0032
0000
2003
3100
0010
0001
0010
0100
1000
0100
,
0000
1000
0100
0010
0100
1000
0100
0000
0000
0001
0010
0100
1000
0100
0010
0001
,
0000
1000
0100
0010
0100
1000
0100
0000
0110
0001
0010
1100
1100
0010
0001
1000
,
0101
0010
0100
1001
1001
0100
0010
0000
1100
0001
0010
0101
0101
1000
0100
0001
,
1010
0001
1010
0100
1010
0001
1010
0000
0000
0000
0000
0000
0001
0010
0100
1000
,
0000
0000
0001
0000
0010
0000
0100
0000
0010
0000
0001
0000
0010
0000
0000
0000
1000
0001
1000
0001
1000
0001
1000
0001
1000
0001
1000
0001
1000
0001
1000
0001
,
1100
0110
0011
0000
,
0000
1010
0000
1001
0000
0101
0000
1100
,
0000
0000
0000
0000
0011
0000
0000
0000
1000
0100
0000
0000
0000
0000
0001
0010
,
0100
0000
0000
0000
0000
0000
0000
0000
0000
0000
0000
0000
1001
0000
0100
0010
,
0100
0000
1000
0100
0010
0001
0100
0010
0100
0001
0010
0100
1000
0100
0010
0000
,
0001
0010
0100
1000
0001
0010
0100
1000
0100
0010
0001
1000
0100
0010
0100
1000
,
0100
0010
0001
0000
1100
0000
0101
0000
0000
0000
0110
0000
0000
0000
0011
0000
,
0101
0000
1010
0000
0110
0000
1100
0000
0011
0000
1010
0100
0011
0000
0001
0000
,
1100
0000
0000
0101
0000
0000
1010
0000
0101
0000
0000
1100
0000
0000
0110
0000
,
1010
0000
0000
0110
0000
0000
0011
0000
0101
0000
0000
1010
0000
0000
1100
0000
,
0110
0000
0001
1000
0001
0100
0010
0100
0001
0010
0100
1000
0001
0010
0001
0010
,
1000
0100
1000
0001
0010
0100
1000
0001
0100
0010
1000
0100
0001
0100
1000
0001
,
1010
0000
1100
0110
0000
1001
0000
0101
,
0000
1100
1010
1001
1010
1100
0110
0000
,
1100
0000
0000
0000
1010
0000
0100
0010
0001
0000
0000
0000
0110
0000
0001
0010
,
0100
1000
0100
0010
0001
0000
0000
0000
0001
0000
0000
0000
0001
0000
0001
0010
,
1100
0001
1100
0010
1100
0000
1100
0000
1100
0000
1100
0000
1100
0000
1100
0000
,
0000
0002
0000
2003
0000
3020
0000
0230
,
1301
0000
1100
0010
1100
0000
0000
0110
,
1100
0110
0011
0110
1100
0000
0101
0000
,
1001
0000
0000
0000
;
