#TITLE:Flimbo Will Never Die!!!;
#SUBTITLE:;
#ARTIST:SD-501;
#TITLETRANSLIT:;
#SUBTITLETRANSLIT:;
#ARTISTTRANSLIT:;
#CREDIT:Rynker;
#BANNER:flimbo bn.png;
#BACKGROUND:flimbo bg.png;
#LYRICSPATH:;
#CDTITLE:;
#MUSIC:04. SD-501 - Flimbo Will Never Die!!!.ogg;
#OFFSET:-0.223;
#SAMPLESTART:53.554;
#SAMPLELENGTH:12.000;
#SELECTABLE:YES;
#BPMS:0.000=260.000;
#STOPS:;
#BGCHANGES:;
// cache tags:
#FIRSTBEAT:23.000;
#LASTBEAT:644.500;
#SONGFILENAME:Songs/SPEEEDCOOOORE 2/Flimbo Will Never Die!!! - [Rynker]/flimbo will never die.sm;
#HASMUSIC:1;
#HASBANNER:1;
#MUSICLENGTH:149.706;
// end cache tags

//---------------dance-single - Rynker----------------
#NOTES:
     dance-single:
     Rynker:
     Challenge:
     17:
     1.000,1.000,0.247,0.000,1.000,1521.000,37.000,0.000,0.000,0.000:

0000
0000
0000
0000
,
0000
0000
0000
0000
,
0000
0000
0000
0000
,
0000
0000
0000
0000
,
0000
0000
0000
0000
,
0000
0000
0000
0000
0000
0000
1000
0100
,
0010
0000
0001
0000
1000
0000
0001
0000
0100
0010
0100
0000
0001
0000
1000
0000
,
0100
0000
0010
0000
0001
0000
1000
0000
0001
0100
0001
0000
1000
0000
0010
0000
,
0100
0000
0001
0000
0000
0000
1000
0000
0100
0000
0010
0001
0010
0100
1000
0001
,
1000
0001
0010
0100
0010
0000
0100
0000
1000
0000
0010
0000
0100
0000
0001
0000
,
0010
0000
0100
0000
0000
0000
1000
0000
0001
0000
0100
0010
0100
0001
1000
0001
,
0100
0010
1000
0010
0100
0000
0001
0000
0000
0000
0001
0000
0010
0000
0100
0000
,
1000
0000
0001
0000
0000
0000
1000
0000
0100
0000
1000
0001
0010
0100
1000
0100
,
0010
0001
1000
0001
0010
0000
0001
0000
0100
0000
0010
0000
0100
0000
0001
0000
,
1000
0000
0010
0000
0000
0000
0100
0000
0001
0000
0100
0010
1000
0010
0100
0001
,
1000
0001
0100
0010
0100
0001
1000
0100
0010
0000
0001
0000
0100
0000
0010
0000
,
1000
0000
0001
0000
0000
0000
0010
0000
0100
0000
1000
0001
0010
0100
0010
0001
,
1000
0001
0010
0100
0010
0000
0001
0000
0100
0000
0010
0000
0100
0000
0001
0000
,
1000
0000
0010
0000
0000
0000
0100
0000
0001
0000
1000
0010
0100
0010
0100
0001
,
1000
0001
0100
0010
1000
0000
0100
0000
0000
0000
0100
0000
0010
0000
0001
0000
,
0010
0000
0100
0000
0000
0000
1000
0000
0001
0000
1000
0001
1000
0001
0010
0100
,
0010
0001
1000
0001
1000
0000
0001
0000
0010
0000
0100
0000
0010
0000
0001
0000
,
0100
0000
0010
0000
0000
0000
0100
0000
0001
0000
1000
0010
0100
0010
1000
0001
,
0100
0010
0100
0001
1000
0001
0010
0100
1000
0001
0010
0001
1000
0000
0010
0000
,
0100
0000
0001
0000
0000
0000
1000
0000
0100
0000
0010
0001
0010
0100
1000
0001
,
1000
0001
0010
0100
0010
0000
0100
0000
1000
0000
0010
0000
0100
0000
0001
0000
,
0010
0000
0100
0000
0000
0000
1000
0000
0001
0000
0100
0010
0100
0001
1000
0001
,
0100
0010
1000
0010
0100
0000
0001
0000
0000
0000
0001
0000
0010
0000
0100
0000
,
1000
0000
0001
0000
0000
0000
1000
0000
0100
0000
1000
0001
0010
0100
1000
0100
,
0010
0001
1000
0001
0010
0000
0001
0000
0100
0000
0010
0000
0100
0000
0001
0000
,
1000
0000
0010
0000
0000
0000
0100
0000
0001
0000
0100
0010
1000
0010
0100
0001
,
1000
0001
0100
0010
0100
0001
1000
0100
0010
0000
0001
0000
1000
0000
0010
0000
,
0100
0000
0001
0000
0000
0000
1000
0000
0100
0000
0010
0001
0010
0100
1000
0001
,
1000
0001
0010
0100
0010
0000
0100
0000
1000
0000
0010
0000
0100
0000
0001
0000
,
0010
0000
0100
0000
0000
0000
1000
0000
0001
0000
0100
0010
0100
0001
1000
0001
,
0100
0010
1000
0010
0100
0000
0001
0000
0000
0000
0001
0000
0010
0000
0100
0000
,
1000
0000
0001
0000
0000
0000
1000
0000
0100
0000
1000
0001
0010
0100
1000
0100
,
0010
0001
1000
0001
0010
0000
0001
0000
0100
0000
0010
0000
0100
0000
0001
0000
,
1000
0000
0010
0000
0100
0001
0100
0001
1000
0000
0010
0000
0100
0001
1000
0001
,
1000
0000
0100
0000
0010
0001
0010
0001
1000
0000
0001
0000
0000
0000
0000
0000
,
0001
0010
0001
1000
0001
0100
0001
0010
,
0100
1000
0001
0010
0010
0100
1000
0001
,
0100
0010
0100
0001
0010
0100
1000
0001
,
0010
0001
0100
0001
0001
0100
0010
0100
,
0001
1000
0100
0010
0001
1000
0001
0100
,
0010
0100
0001
1000
1000
0000
0000
0100
,
0010
0000
0001
0000
1000
0000
0000
0000
1000
0000
1000
0000
0001
0100
0010
0100
,
0001
1000
0001
1000
0010
0100
0010
0100
0001
1000
0010
0100
0010
0000
0000
0000
,
1001
1001
1001
0011
,
0000
0110
0000
1100
1100
0000
0000
0000
,
1001
1001
1001
0101
,
0000
1010
0000
0110
0110
0000
0000
0000
,
0101
0000
0000
0000
0101
0000
0000
1000
,
0100
0010
0001
0000
1000
0100
0010
0000
,
0000
0001
0001
0000
0000
0100
0010
0100
,
0001
0000
1000
0000
0100
0000
0010
0000
0001
0010
0100
0010
0001
1000
0001
0010
,
0100
1000
0100
0010
0001
1000
0100
1000
0100
0010
0001
1000
0001
0100
0010
0100
,
0010
1000
0001
0100
0010
0100
0010
1000
0001
0100
0010
1000
0001
0000
0100
0000
,
0010
0100
0001
1000
0100
0010
0010
0100
,
1000
0000
0001
0000
0100
0000
0010
0000
0010
0000
1000
0000
0001
0100
0010
0100
,
0001
1000
0010
0100
0010
1000
0001
0100
0001
0100
0010
1000
0010
0000
1000
0000
,
0001
0010
0100
1000
1000
0001
0100
0010
,
0100
0100
0001
0010
0100
0100
1000
0001
,
0001
1000
0100
0010
0001
0001
1000
0010
,
0100
0000
0010
0000
1000
0000
0001
0000
1000
0100
1000
0100
1000
0000
0001
0000
,
0010
0000
0001
0000
0000
0000
0010
0000
0100
1000
0100
1000
0100
0000
1000
0000
,
0001
0000
0100
0000
0010
0000
0100
0000
0001
0100
0001
0100
0001
0000
0100
0000
,
0010
0000
1000
0000
0000
0000
0100
0000
0010
0100
0010
0100
1000
0001
0010
0100
,
0010
0001
1000
0001
0010
0100
0010
0001
1000
0001
1000
0100
0010
0100
1000
0001
,
1000
0001
0100
0010
0100
0010
1000
0010
0100
0001
1000
0001
0100
0010
1000
0001
,
1000
0100
0010
0001
1000
0100
0010
0100
1000
0001
0010
0100
1000
0000
0001
0000
,
0100
0010
1000
0000
0001
0000
0010
0000
,
0100
0000
1000
0100
1000
0100
1000
0000
0001
0000
0100
0001
0100
0001
0100
0000
,
0001
0000
0010
0001
0010
0000
0100
0000
1000
0000
0001
0000
0100
0010
0100
0000
,
0001
0000
1000
0100
1000
0100
1000
0000
0001
0000
0010
0001
0010
0001
0010
0000
,
0001
0000
0100
0010
0100
0000
0010
0000
1000
0000
0001
0000
0010
0001
0010
0000
,
0100
0000
1000
0001
1000
0001
1000
0000
0001
0000
0100
0001
0100
0001
0100
0000
,
0010
0000
1000
0010
1000
0000
0001
0000
0010
0000
0100
0000
1000
0100
1000
0001
,
0010
0001
1000
0100
0010
0001
1000
0100
1000
0001
0010
0001
1000
0001
0100
0010
,
0100
0001
1000
0010
0100
0010
1000
0001
1000
0001
0100
0010
1000
0000
0001
0000
,
1000
0000
0001
0010
0001
0010
0001
0000
1000
0000
0010
1000
0010
1000
0010
0000
,
1000
0000
0100
1000
0100
0000
0010
0000
0001
0000
1000
0000
0010
0100
0010
0000
,
1000
0000
0001
0010
0001
0010
0001
0000
1000
0000
0100
1000
0100
1000
0100
0000
,
1000
0000
0010
0100
0010
0000
0100
0000
0001
0000
1000
0000
0100
1000
0100
0000
,
0010
0000
0001
1000
0001
1000
0001
0000
1000
0000
0010
1000
0010
1000
0010
0000
,
0100
0000
0001
0100
0001
0000
1000
0000
0100
0000
0010
0000
0001
0010
0001
0000
,
1000
0000
0010
1000
0010
1000
0010
0000
0100
0000
0001
0100
0001
0000
0100
0000
,
0010
1000
0100
0010
0001
1000
0100
1000
,
0010
0000
0100
0001
0100
0000
0010
0000
0100
0000
0001
0000
1000
0000
0100
0000
,
0010
0000
0001
0000
1000
0000
0100
0000
0010
0001
0010
0001
0010
0000
0100
0000
,
1000
0000
0010
0100
0010
0100
0010
0000
0100
0000
0001
0000
1000
0000
0100
0000
,
0010
0000
0001
0000
1000
0000
0001
0000
0100
0001
0100
0001
0100
0000
0010
0000
,
0100
0000
0001
0000
1000
0000
0100
0000
0010
0001
0010
0001
0010
0000
0001
0000
,
0100
0000
0010
1000
0010
1000
0010
0000
0100
0000
0001
0000
1000
0000
0100
0000
,
0010
0000
0100
0000
1000
0000
0001
0000
1000
0001
1000
0001
1000
0000
0001
0000
,
0010
0001
0000
0001
0100
0010
1000
0010
,
0100
0000
0001
0000
1000
0000
0100
0000
1000
0001
0100
0001
1000
0000
0010
0000
,
0100
0000
0001
0000
1000
0000
0100
0000
0010
0001
1000
0001
1000
0000
0001
0000
,
1000
0000
0010
0000
0100
0000
0001
0000
1000
0100
0010
0001
1000
0000
0100
0000
,
0010
0000
0001
0000
1000
0000
0010
0000
1000
0001
1000
0010
0100
0000
0001
0000
,
0100
0000
0010
0000
0100
0000
0001
0000
1000
0010
1000
0001
0010
0000
0001
0000
,
1000
0000
0100
0000
1000
0000
0001
0000
0010
0100
0010
0001
1000
0000
0001
0000
,
1000
0000
0010
0000
0100
0000
0001
0000
1000
0010
1000
0001
1000
0000
0010
0000
,
0100
0000
0001
0000
1000
0000
0100
0000
0010
0001
0010
0001
0010
0000
0001
0000
,
1000
0000
0010
1000
0010
0000
1000
0000
0100
0000
0010
0000
0001
0000
1000
0000
,
0001
0000
0100
0001
0100
0000
0001
0000
0010
0000
0100
0000
1000
0000
0001
0000
,
0100
0000
0010
1000
0010
0000
0100
0000
0001
0000
1000
0000
0100
0000
0010
0000
,
0001
0000
0100
0010
0100
0000
0001
0000
1000
0100
0010
0001
0010
0000
0001
0000
,
0100
0000
0010
0100
0010
0000
1000
0000
0001
0100
0001
1000
0001
0000
0010
0000
,
0100
0000
1000
0001
1000
0000
0001
0000
1000
0001
0010
0001
1000
0000
0001
0000
,
0100
0000
0010
1000
0010
0000
0100
0000
0010
1000
0001
0100
0001
0000
1000
0000
,
0100
0000
0010
0001
0010
0000
0001
0000
0010
0100
1000
0001
1000
0000
0001
0000
,
1000
0000
0001
0000
0100
0000
0010
0000
0100
0001
0100
0001
1000
0000
0001
0000
,
0100
0000
0010
0000
0100
0000
0001
0000
1000
0001
1000
0001
0010
0000
0001
0000
,
0100
0010
0100
0000
0001
0000
1000
0000
0100
1000
0100
1000
0100
0000
0010
0000
,
0001
0000
0100
0000
0010
0000
0100
0000
0001
1000
0001
1000
0001
0000
1000
0000
,
0100
0000
0010
0001
0010
0000
0001
0000
0100
0000
0010
0000
1000
0000
0001
0000
,
0010
0000
0100
1000
0100
0000
1000
0000
0001
0000
0100
0000
0010
0000
0100
0000
,
0001
0000
1000
0001
1000
0000
0001
0000
0010
0000
0100
0000
1000
0000
0100
0000
,
0010
0000
0100
0000
1000
0000
0001
0000
0010
0100
0010
0001
1000
0000
0001
0000
,
0100
0000
0010
1000
0010
0000
0100
0000
0001
0000
1000
0001
0100
0001
1000
0010
,
0100
0010
1000
0001
1000
0000
0001
0000
0010
0000
0100
0000
1000
0000
0001
0000
,
0100
0000
0010
0100
0010
0000
0100
0000
0001
0000
1000
0010
0100
0010
1000
0001
,
0100
0001
1000
0001
1000
0000
0010
0000
0000
0000
0100
0000
0001
0000
0010
0000
,
0100
0000
1000
0100
1000
0000
0100
0000
0010
0000
0001
0010
0100
0010
0001
1000
,
0001
0010
0100
0010
0001
0000
1000
0000
0001
0000
0100
0000
0010
0000
0100
0000
,
0001
0000
1000
0001
1000
0000
0001
0000
1000
0000
0001
0100
0010
1000
0010
0100
,
0001
1000
0010
0100
0001
1000
0100
0010
0001
0000
0100
0000
0010
0000
1000
0000
,
0010
0000
0100
0001
0100
0000
0010
0000
1000
0000
0001
1000
0010
1000
0001
0100
,
0010
0100
0001
1000
0001
0000
1000
0000
0100
0000
0010
0000
0001
0000
1000
0000
,
0010
0000
0100
0010
0100
0000
0010
0000
1000
0000
0001
0100
0010
0100
0001
1000
,
0010
1000
0001
1000
0001
0000
0100
0000
0000
0000
0010
0000
1000
0000
0100
0000
,
0010
0000
0001
0010
0001
0000
0010
0000
0100
0000
1000
0100
0010
0100
1000
0001
,
1000
0100
0010
0100
1000
0000
0001
0000
1000
0000
0010
0000
0100
0000
0010
0000
,
1000
0000
0001
1000
0001
0000
1000
0000
0001
0000
1000
0010
0100
0001
0100
0010
,
1000
0001
0100
0010
1000
0001
0100
0010
0100
0001
1000
0001
1000
0000
0001
0000
,
0100
0010
0100
0001
1000
0100
0010
0001
,
0010
0000
0001
0000
1000
0100
1000
0001
1000
0100
1000
0001
1000
0000
0100
0000
,
0010
0001
1000
0010
0100
0010
1000
0001
,
0010
0000
0100
0000
1000
0010
1000
0001
1000
0010
1000
0001
1000
0100
0010
0100
,
1000
0001
0010
0100
0010
0001
1000
0100
1000
0001
0010
0001
1000
0001
0100
0010
,
1000
0010
0100
0001
1000
0010
1000
0001
1000
0010
1000
0001
1000
0000
0001
0000
,
1000
0100
0010
0001
1000
0001
0100
0010
,
0100
0000
0001
0000
1000
0100
0010
0100
1000
0100
0010
0100
1000
0000
0000
0000
,
0110
0110
0110
0110
,
0000
1100
0000
0101
0101
0000
0000
0000
,
0011
0011
0011
1010
,
0000
1001
0000
1100
1100
0000
0000
0000
,
0011
0011
1001
1001
,
0000
1010
0000
1100
1100
0000
0000
1000
,
0001
0100
0010
0000
0100
0001
0000
0100
,
0010
1000
0001
0000
1000
0000
0100
0010
,
0001
0000
1000
0000
0001
0000
0100
0000
0001
1000
0001
1000
0001
0000
1000
0000
,
0100
0000
0010
0000
0001
0000
1000
0000
0001
0010
0001
0010
0001
0000
1000
0000
,
0010
0000
0100
0000
0001
0000
1000
0000
0001
0010
0001
0010
0001
0000
1000
0000
,
0100
0000
0010
0000
0001
0000
1000
0000
0001
0100
0001
0100
0001
0000
0100
0000
,
0010
0000
1000
0000
0001
0000
1000
0000
0100
0010
0100
0010
0100
0000
1000
0000
,
0001
0000
0100
0000
0001
0000
1000
0000
0001
0010
0001
0010
0001
0000
1000
0000
,
0100
0010
0001
0000
1000
0100
0000
0010
,
0100
0000
1000
0000
0001
0000
0000
0000
1000
0000
0100
0000
1000
0001
0100
0010
,
1000
0000
0001
0000
0010
0100
1000
0001
0010
0000
0001
0000
1000
0010
0100
0001
,
1000
0001
0000
0000
0000
0000
0000
0000
;
