#TITLE:Orange Runner;
#SUBTITLE:IcyWorld;
#ARTIST:Tenpei Sato;
#TITLETRANSLIT:;
#SUBTITLETRANSLIT:;
#ARTISTTRANSLIT:;
#CREDIT:;
#BANNER:bn.JPG;
#BACKGROUND:bg.jpg;
#LYRICSPATH:;
#CDTITLE:CDTitle.png;
#MUSIC:208 Orange Runner.mp3;
#OFFSET:-0.198;
#SAMPLESTART:42.236;
#SAMPLELENGTH:12.000;
#SELECTABLE:YES;
#BPMS:0.000=273.234,1.000=142.044,10.000=142.037,11.000=142.044,19.000=142.037,20.000=142.044,28.000=142.037,29.000=142.044,37.000=142.037,38.000=142.044,46.000=142.037,47.000=142.044,55.000=142.037,56.000=142.044,64.000=142.037,65.000=142.044,73.000=142.037,74.000=142.044,82.000=142.037,83.000=142.044,91.000=142.037,92.000=142.044,100.000=142.037,101.000=142.044,109.000=142.037,110.000=142.044,118.000=142.037,119.000=142.044,127.000=142.037,128.000=142.044,136.000=142.037,137.000=142.044,145.000=142.037,146.000=142.044,154.000=142.037,155.000=142.044,163.000=142.037,164.000=142.044,172.000=142.037,173.000=142.044,181.000=142.037,182.000=142.044,190.000=142.037,191.000=142.044,199.000=142.037,200.000=142.044,208.000=142.037,209.000=142.044,217.000=142.037,218.000=142.044,226.000=142.037,227.000=142.044,235.000=142.037,236.000=142.044,244.000=142.037,245.000=142.044,253.000=142.037,254.000=142.044,262.000=142.037,263.000=142.044,271.000=142.037,272.000=142.044,280.000=142.037,281.000=142.044,289.000=142.037,290.000=142.044,298.000=142.037,299.000=142.044,307.000=142.037,308.000=142.044,316.000=142.037,317.000=142.044,325.000=142.037,326.000=142.044,334.000=142.037,335.000=142.044,343.000=142.037,344.000=142.044;
#STOPS:;
#BGCHANGES:;
// cache tags:
#FIRSTBEAT:0.000;
#LASTBEAT:255.000;
#SONGFILENAME:Songs/IcyWorld MiniPack/OrangeRunner IcyWorld/208 Orange Runner.sm;
#HASMUSIC:1;
#HASBANNER:1;
#MUSICLENGTH:146.285;
// end cache tags

//---------------dance-single - ----------------
#NOTES:
     dance-single:
     :
     Medium:
     8:
     0.970,0.915,1.000,0.232,0.687,674.000,243.000,34.000,0.000,51.000:
0100
0000
0010
0000
0101
0000
0100
0010
1100
0000
0011
0000
0000
0000
1100
0000
,
0011
0000
0000
0000
0000
0000
0000
0000
0100
0010
0100
0010
0100
0010
0100
0010
0100
0010
0100
0010
0100
0010
0100
0010
0100
0000
0000
0000
0000
0000
0000
0000
,
0001
0000
0010
0000
1000
0000
0100
0000
0010
0000
0001
0000
0110
0000
0000
0000
0000
0000
0010
0000
0000
1000
0000
0000
0010
0000
0000
0000
0000
0000
0110
0000
0000
0000
0000
0000
0100
0000
0000
0010
0000
0000
0100
0000
0000
0000
0000
0000
,
0101
0000
0001
1000
0001
0000
0011
0000
0010
1000
0010
0000
0110
0001
0100
0000
,
1100
0000
0010
0000
0100
0010
0001
1000
0110
0000
0000
0000
0010
0000
1000
0000
0010
0000
0000
0000
0110
0000
0000
0000
0100
0000
0010
0000
0100
0000
0000
0000
,
0101
0000
0000
0000
0000
0000
0001
0000
0000
1000
0000
0000
0001
0000
0000
0000
0000
0000
0011
0000
0000
0000
0000
0000
0010
0000
0000
1000
0000
0000
0010
0000
0000
0000
0000
0000
0110
0000
0000
0001
0000
0000
0010
0000
1000
0000
0001
0000
,
1100
0010
0001
1000
0010
0100
0011
0000
0000
0010
0000
0000
1100
0000
0000
0001
1000
0100
0011
0000
0000
0100
0000
0000
,
1100
0000
0000
0001
0010
0100
0011
0000
0000
0010
0000
0000
1100
0000
0000
0001
1000
0100
0011
0000
0000
0100
0000
0000
,
1100
0000
0000
1000
0010
0100
0011
0000
0000
0010
0000
0000
1100
0000
0000
0010
1000
0100
0011
0000
0000
0100
0000
0000
,
1100
0000
0000
0001
0010
0100
0011
0000
0000
0010
0000
0000
0211
0000
0000
0000
0000
0000
0310
0000
0000
0211
0000
0000
,
0000
0000
0300
0000
0110
0000
0010
1000
0010
0000
0110
0000
0100
0010
0100
0000
,
0101
0000
0001
1000
0001
0000
0011
0000
0010
1000
0010
0000
0110
0001
0100
0000
,
1100
0000
0010
0000
0100
0010
0001
1000
0110
0000
0000
0000
0010
0000
1000
0000
0010
0000
0000
0000
0110
0000
0000
0000
0100
0000
0010
0000
0100
0000
0000
0000
,
0101
0000
0000
0000
0000
0000
0001
0000
0000
1000
0000
0000
0001
0000
0000
0000
0000
0000
0011
0000
0000
0000
0000
0000
0010
0000
0000
1000
0000
0000
0010
0000
0000
0000
0000
0000
0110
0000
0000
0001
0000
0000
0010
0000
1000
0000
0001
0000
,
1100
0000
0010
0000
0001
0000
1000
0000
0010
0000
0100
0000
0011
0000
0000
0000
0000
0000
0000
0000
0000
0100
0000
0000
0010
0000
0000
0000
0000
0000
0011
0000
0000
0000
0000
0000
0000
0000
0000
0000
0000
0000
1000
0000
0000
0000
0000
0000
,
0100
0000
0001
0000
0010
0000
0000
0100
0010
0000
0011
0000
0100
0000
0000
0000
,
0100
1000
0100
0010
0101
0000
1010
0000
0101
0000
1010
0000
0101
0000
1010
0000
,
0101
0000
0000
0000
1010
0000
0000
0000
0101
0000
0000
0000
0000
0000
0000
0000
1101
0010
0100
0010
0100
0010
0100
0010
0100
0010
0100
0010
0100
0010
0100
0010
,
0100
1000
0100
0010
0001
0000
0000
0000
0002
0000
0000
0000
1203
0000
0000
0000
,
0310
0000
0010
0000
0002
0000
0000
0000
2103
3000
0010
0000
0002
0000
0000
0000
,
2103
3000
0010
0000
0011
0000
0100
0000
1000
0000
0100
0000
0010
0000
0001
0000
,
0010
0000
0000
0100
0000
0000
2000
0000
0000
0000
0000
0000
3011
0000
0000
0100
0001
0100
2001
0000
0000
0001
0000
0000
,
3011
0000
0000
0000
0100
0000
0000
0000
0010
0001
0000
0000
0000
0000
0000
0000
0020
0000
0000
0000
0000
0000
0000
0000
2030
0000
0000
0000
0000
0000
0000
0000
,
3010
0000
0100
0000
0012
0000
0000
0000
2103
3000
0010
0000
0012
0000
0000
0000
,
2103
3000
0010
0000
0011
0000
0100
0000
1000
0000
0100
0000
0010
0000
0001
0000
,
1000
0000
0000
0010
0000
0000
0001
0000
0000
1000
0100
0010
0001
0000
0000
0001
0010
0100
1000
0000
0000
1000
0100
0010
,
0001
0000
0000
0000
0000
0000
0001
0000
0010
0000
0100
0000
1000
0000
0000
0000
0000
0000
0010
0000
0000
0010
0000
0000
1100
0000
0000
0000
0000
0000
0100
0000
0000
0100
0000
0000
0011
0000
0000
0000
0000
0000
0001
0000
0000
0000
0000
0000
,
0010
0000
0000
0000
0000
0000
0100
0000
0000
0000
0000
0000
1100
0000
0000
0000
0000
0000
0010
0000
0001
0000
1000
0000
0010
0000
0001
0000
1000
0000
0010
0000
0100
0000
0010
0000
0001
0000
0000
0000
0000
0000
1020
0000
0000
0030
0000
0000
,
1002
0003
1020
0031
1200
0300
0000
0000
0001
0100
0001
0100
0001
0000
0010
0000
,
0100
0000
1000
0000
0012
0000
0100
0000
2103
3000
0100
0000
0012
0000
0100
0000
,
2103
0000
0000
3000
0000
0000
0100
0000
0000
0000
0000
0000
1001
0000
0000
0000
0000
0000
0010
0000
0000
0000
0000
0000
0101
0000
0000
0000
0000
0000
0100
0000
0000
0000
0000
0000
1000
0000
0001
0000
1000
0000
0001
0000
1000
0000
0001
0000
,
1000
0000
0010
0000
0100
0000
0100
0001
1000
0010
1000
0010
2100
3000
0012
0003
,
0100
0000
0011
0000
1100
0010
1000
0010
2100
3000
0112
0003
0000
0000
0100
0000
,
0010
0000
0001
0000
0011
1000
0010
1000
0010
1000
0110
0001
0100
0001
0100
0001
,
1100
0000
0000
0010
0000
0000
1000
0000
0000
0010
0000
0000
1000
0000
0000
0010
0000
0000
1100
0000
0000
0001
0000
0000
1000
0000
0010
0000
1000
0000
0010
0000
0100
0000
0010
0000
0001
0000
1000
0000
0001
0000
0100
0000
0010
0000
0001
0000
,
1000
0010
0001
1000
0100
0010
0101
0000
0000
0010
0000
0000
1100
0000
0000
1000
0000
0000
0110
0000
0000
0100
0000
0000
,
0011
0010
1100
0100
0011
0001
0110
0010
,
1100
0000
0100
0000
0011
1000
0010
1000
0010
1000
0110
0001
0100
0001
0100
0001
,
1100
0000
0000
0010
0000
0000
1000
0000
0000
0010
0000
0000
1000
0000
0000
0010
0000
0000
1100
0000
0000
0001
0000
0000
1000
0000
0010
0000
1000
0000
0010
0000
0100
0000
0010
0000
0001
0000
1000
0000
0001
0000
0100
0000
0010
0000
0001
0000
,
1000
0000
0010
0000
0001
0000
1000
0000
0100
0000
0010
0000
0101
0000
0000
0010
0000
0000
0100
0000
0000
0010
0000
0000
0001
0000
0000
0010
0000
0000
0100
0000
0000
0010
0000
0000
0001
0000
0000
0010
0000
0000
0100
0000
0000
0010
0000
0000
,
0001
0000
0000
0010
0000
0000
0100
0000
0000
0010
0000
0000
1001
0000
0000
0000
0000
0000
1000
0000
0000
0100
0000
0000
0010
0000
0000
0000
0000
0000
1000
0000
0100
0000
0010
0000
0001
0000
0000
0000
0000
0000
1000
0000
0100
0000
0010
0000
,
0001
0000
0000
1000
0100
0010
1001
0000
0000
0110
0000
0000
0110
0000
0000
0110
0000
0000
0110
0000
0000
0000
0000
0000
,
0001
0000
1110
0101
0101
0101
1110
0101
,
0101
0000
0000
1001
0000
0000
1101
0000
0000
0011
0000
0000
0011
0000
0000
0011
0000
0000
1110
0001
0010
0001
0000
0000
,
0010
0110
1110
1001
1001
1001
1110
1001
,
1001
1001
0111
0011
0111
1100
0111
1100
,
1001
1010
1110
0101
0101
0101
1110
0101
,
0101
0000
0000
1001
0000
0000
1101
0000
0000
0011
0000
0000
0011
0000
0000
0011
0000
0000
1110
0001
0010
0001
0000
0000
,
0010
0110
1110
1001
1001
1001
1110
1001
,
1001
1001
0111
0011
0111
1010
1011
1100
,
1101
0000
1110
0000
0211
0000
0000
0000
0300
0000
0010
0001
1100
0000
0000
0000
,
0020
0000
0000
0000
0030
0000
0010
0001
1100
0000
0000
0000
0002
0000
1000
1000
,
1003
0000
1020
0030
0002
0003
0010
0001
0100
0000
1000
0000
0011
0000
0010
0000
,
1100
0010
1000
0100
0011
1000
0100
0010
1100
0010
0001
1000
0111
0000
0101
0000
,
0101
0101
1110
0101
0101
1001
1101
0011
,
0011
0000
0000
0011
0000
0000
1110
0001
0010
0001
0000
0000
0010
0000
0000
0110
0000
0000
1110
0000
0000
1001
0000
0000
,
1001
1001
1110
1001
1001
1001
0111
0011
,
0111
1100
0111
1100
1001
1010
1110
0101
,
0101
0101
1110
0101
0101
1001
1101
0011
,
0011
0000
0000
0011
0000
0000
1110
0001
0010
0001
0000
0000
0010
0000
0000
0110
0000
0000
1110
0000
0000
1001
0000
0000
,
1001
1001
1110
1001
1001
1001
0111
0000
,
1100
0000
0000
0000
0100
0000
0000
0000
1000
0000
0000
0000
0100
0000
0000
0000
0010
0000
0000
0000
0001
0000
0000
0000
0011
0000
1000
0010
0101
0000
1000
0000
,
0110
0000
0001
0100
1010
0000
0001
0000
1110
0000
0000
0000
0000
0000
0000
0000
0000
0000
0000
0000
0101
0000
0000
0000
0011
0000
0000
0000
0010
0000
0000
0000
,
1100
0110
0011
0000
2000
0000
3000
0000
;
