#TITLE:Let The Bass Kick;
#SUBTITLE:;
#ARTIST:Mark Smith & Darwin;
#TITLETRANSLIT:;
#SUBTITLETRANSLIT:;
#ARTISTTRANSLIT:;
#CREDIT:;
#BANNER:../fallback - bn.png;
#BACKGROUND:../fallback - bg.png;
#LYRICSPATH:;
#CDTITLE:;
#MUSIC:Let The Bass Kick.ogg;
#OFFSET:0.440;
#SAMPLESTART:129.983;
#SAMPLELENGTH:12.000;
#SELECTABLE:YES;
#DISPLAYBPM:176.000;
#BPMS:0.000=176.275,63.000=352.550,63.250=88.137,63.313=88.138,63.375=176.275,63.500=352.550,63.750=88.137,63.813=88.138,63.875=176.275,192.000=88.138,246.000=176.275,281.000=352.550,281.500=88.137,281.625=88.138,281.750=176.275,473.000=352.550,473.250=88.137,473.313=88.138,473.375=176.275,473.500=352.550,473.750=88.137,473.813=88.138,473.875=176.275;
#STOPS:;
#BGCHANGES:;
// cache tags:
#FIRSTBEAT:8.000;
#LASTBEAT:663.750;
#SONGFILENAME:Songs/Beast Aoreo BEAST!/Let The Bass Kick - [Aoreo]/Let The Bass Kick.sm;
#HASMUSIC:1;
#HASBANNER:1;
#MUSICLENGTH:244.626;
// end cache tags

//---------------dance-single - J. Nero----------------
#NOTES:
     dance-single:
     J. Nero:
     Challenge:
     14:
     1.000,1.000,0.086,0.364,1.000,1743.000,21.000,89.000,14.000,0.000:
0000
0000
0000
0000
,
0000
0000
0000
0000
,
0020
0000
0030
0000
0000
0000
1000
0010
1000
0000
0000
0000
0020
0000
0030
0000
,
0200
0000
0300
0000
0000
0000
0001
0010
0001
0000
0000
0000
0010
0100
1000
0010
,
0200
0000
0300
0000
0000
0000
0010
1000
0010
0000
0000
0000
0200
0000
0300
0000
,
0002
0000
0003
0000
0000
0000
1000
0001
1000
0000
0000
0000
0020
0000
0230
0000
,
0302
0000
0003
0000
0010
0100
1000
0010
0100
0000
0000
0000
0002
0000
1003
0100
,
1000
0000
0000
0000
0001
0100
0001
1000
0100
1000
0010
0000
0100
0000
0001
0000
,
1001
0000
0000
0000
1000
0100
0010
0001
0100
0000
0010
0100
0010
0000
0100
0001
,
1000
0000
0000
0000
0100
1000
0010
0100
0001
0000
0100
0001
1000
0100
1000
0010
,
0100
0000
0000
0000
0001
0000
1000
0100
1000
0000
0100
0010
0001
0000
0100
0001
,
0100
0000
0000
0000
0001
0000
0000
1000
0010
0000
0100
0000
0001
0000
0010
0000
,
0100
1000
0100
1000
0010
0100
0001
1000
,
0001
0010
0100
1000
0010
0100
0001
1000
,
0100
0000
0000
1000
0000
0000
0100
0000
0000
0010
0000
0000
0001
0000
0000
0100
0000
0000
0010
0000
0000
0100
0000
0000
0001
0000
0100
0000
0001
0000
0100
0000
0001
0000
0100
0000
0001
0000
0100
0000
0001
0000
0100
0000
0001
0000
0100
0000
,
0001
0000
0000
0000
0100
0000
0010
1000
,
1100
0000
0100
0000
0010
0000
0001
0010
0001
0000
0100
0001
0100
0000
0010
1000
,
0010
0000
1000
0000
0010
0000
0100
0001
0100
0000
0001
0010
0100
1000
0010
0100
,
0001
0000
0100
0000
0001
0000
1000
0100
1000
0000
0100
0010
0100
0000
0010
0001
,
0010
0000
0001
0000
0100
0000
0010
0100
0020
0030
2000
3000
0002
0003
0200
0300
,
0101
0000
0001
0000
1000
0000
0100
1000
0100
0000
1000
0001
1000
0000
0001
0100
,
0001
0000
0100
0000
0010
0000
1000
0100
1000
0000
0100
0010
0001
0010
0100
1000
,
0010
0000
0100
0000
0001
0000
1000
0100
1000
0000
0100
0010
0100
0000
1000
0100
,
1000
0000
0000
0000
0000
0000
0010
0100
0010
0000
1000
0000
0010
0000
0100
0000
,
0001
0000
0010
0000
0100
0000
1000
0100
1000
0000
0001
1000
0001
0000
0100
0001
,
0100
0000
0010
0000
1000
0000
0100
0010
0001
0000
0010
0100
1000
0100
1000
0010
,
0100
0000
0001
0000
0100
0000
0001
1000
0001
0000
1000
0100
1000
0000
0010
0100
,
0010
0000
0100
0000
0001
0000
1000
0001
1000
0000
0010
0000
0100
0000
0001
0000
,
0010
0100
0010
0100
1000
0100
1000
0001
1000
0001
1000
0100
0010
0001
0010
0100
,
1000
0010
0100
0001
1000
0100
1000
0010
0100
0001
1000
0001
1000
0001
0010
0100
,
1000
0001
0010
0100
1000
0010
0100
0001
0100
0001
1000
0001
1000
0100
1000
0100
,
1000
0100
1000
0100
1000
0100
1000
0100
1000
0100
1000
0100
1000
0000
0000
0100
0000
0000
1000
0000
0000
0010
0000
0000
,
0200
0000
0301
0000
0010
0000
0100
1000
0100
0000
1000
0001
0010
0100
1000
0010
,
0100
0000
0001
0000
1000
0000
0010
0100
0010
0000
0100
0001
0010
0100
1000
0100
,
1000
0000
0001
0000
0010
0000
0100
1000
0100
0000
1000
0001
1000
0001
0010
0100
,
1000
0000
0010
0000
0100
0000
0001
0100
0001
0000
0010
0100
1000
0000
0001
0100
,
0010
0000
0100
0000
0001
0000
1000
0100
1000
0000
0010
0100
0001
0010
0100
1000
,
0010
0000
0100
0000
0001
0000
1000
0100
1000
0000
0100
0010
0100
0010
0001
0100
,
0001
0000
0100
0000
0010
0000
1000
0100
1000
0000
0001
1000
0001
1000
0010
0100
,
0010
0000
1000
0000
0100
0000
1000
0010
0200
0300
0002
0003
0020
0030
0200
0300
,
1000
0000
0010
0000
0100
0000
0001
1000
0001
0000
0010
0100
0010
0000
0100
1000
,
0100
0000
1000
0000
0010
0000
0100
0001
0100
0000
0001
1000
0001
0000
1000
0100
,
1000
0000
0010
0000
0100
0000
0001
0100
0001
0000
0010
0100
0010
0000
0100
1000
,
0100
0000
1000
0000
0001
0000
0100
0010
0100
0000
0010
1000
0010
0000
1000
0001
,
1000
0001
0010
0100
1000
0100
1000
0010
1000
0010
0100
0010
0100
0001
0100
0001
,
0010
0100
1000
0100
1000
0001
1000
0001
0010
0100
1000
0010
0100
0001
1000
0100
,
1000
0000
0010
0000
0100
0000
0001
0000
1000
0001
1000
0001
1000
0001
1000
0001
,
2000
0000
0000
0000
3001
1000
0001
0100
0010
0000
0100
0000
0001
0000
1000
0000
,
2200
0000
0000
0000
,
0000
0000
0000
0000
0000
0000
0000
0000
0000
0000
0000
0000
0000
0000
0000
0000
0000
0000
0000
0000
0000
0000
0000
0000
0000
0000
0000
0000
0000
0000
0000
3300
,
0100
0000
0000
0010
0000
0000
0001
0010
0001
0000
0000
0010
0000
0000
0100
1000
0100
0000
0000
1000
0000
0000
0010
0000
0100
0000
0000
0001
0000
0000
1000
0000
,
0010
0000
0000
0100
0000
0000
0001
1000
0001
0000
0000
1000
0000
0000
0100
0000
1000
0000
0000
0010
0000
0000
0100
0000
0001
0000
0000
0010
0000
0000
0100
0000
,
1000
0000
0000
0001
0000
0000
0100
0001
1000
0000
0000
0100
0000
0000
1000
0010
1000
0000
0000
0010
0000
0000
0100
0000
0001
0000
0000
0010
0000
0000
0100
0000
,
1000
0000
0000
0001
0000
0000
0100
0001
0100
0000
0000
0001
0000
0000
1000
0000
0100
0000
0000
1000
0000
0000
0010
0000
0100
0000
0000
0001
0000
0000
0100
0000
,
0010
0000
0000
0100
0000
0000
0001
1000
0001
0000
0000
1000
0000
0000
0010
0100
0001
0000
0000
0010
0000
0000
0100
0000
1000
0000
0000
0010
0000
0000
0100
0000
,
0001
0000
0000
1000
0000
0000
0100
1000
0100
0000
0000
1000
0000
0000
0001
0000
0100
0000
0000
0010
0000
0000
0100
0000
0001
0000
0000
1000
0000
0000
0100
0000
,
1000
0000
0000
0010
0000
0000
0100
0001
0100
0000
0000
0001
0000
0000
0010
0100
1000
0000
0000
0010
0000
0000
0100
0000
0001
0000
0000
1000
0000
0000
0100
0000
,
1100
0000
1001
0000
,
0201
0000
0000
0301
0001
0010
0010
0100
0100
0000
0000
0000
MMMM
0000
0000
0000
,
2000
0000
0000
3010
0010
1000
1000
0001
0001
0000
0000
0000
MMMM
0000
0000
0000
,
0200
0000
0000
0310
0010
1000
1000
0100
0100
0000
0000
0000
MMMM
0000
0000
0000
,
0020
0000
0000
0031
0001
1000
1000
0001
1MM1
0000
0000
0000
4000
0000
3000
0000
,
0001
1000
0001
1000
0001
0010
0100
1000
0010
0000
0000
0000
0100
0000
0001
0000
,
1000
0000
0100
0000
1000
0000
0010
0100
0001
0000
0000
0000
0010
0000
0000
0000
,
0100
0000
1000
0010
0100
0000
0001
0010
,
0100
0000
1000
0000
0010
0000
0100
0001
1000
0000
0000
0000
0010
0000
0000
0100
,
0001
0010
0100
1000
0010
0100
0001
1000
,
0100
0010
0001
0100
0001
1000
0100
1000
,
0010
0000
0100
0000
0001
0000
1000
0000
0001
0100
0001
0100
0001
0010
0100
1000
,
0100
1000
0100
1000
0100
1000
0100
1000
0100
1000
0100
1000
0100
0000
0000
0000
0000
0000
0000
0000
0000
0000
0000
0000
,
1000
0000
0000
0000
0040
0000
0000
0030
0200
0000
0000
0000
0300
0000
0001
1000
,
0001
1000
0010
0100
0002
0013
0100
1000
,
0010
0000
0100
0000
0002
0000
0000
0000
2003
0000
0000
0000
3010
0000
0100
0001
,
0010
0100
1000
0010
0200
0301
0010
0100
,
1000
0010
2000
0000
3020
0000
0130
0001
,
0010
0100
1000
0010
0200
0301
0010
0100
,
0010
0001
2000
3010
0200
0301
1000
0010
,
0100
0001
0010
0100
2000
3010
0100
0001
,
0100
0000
0000
0001
1000
0000
0100
0000
2000
0000
0000
0000
3010
0000
0100
0000
,
0001
0010
0100
1000
0010
0100
0001
1000
,
0100
0001
0100
1000
0020
0000
0130
0001
,
0010
0100
1000
0010
0100
0000
0001
0000
,
1000
0000
0000
0000
0001
0000
0010
0000
0100
1000
0100
1000
0010
1000
0010
0100
,
0010
0100
0001
0100
0001
0010
0100
1000
0100
1000
0010
0100
0001
1000
0001
1000
,
0100
0010
0001
1000
0100
0010
0001
0100
0010
0100
0001
1000
0001
1000
0001
1000
,
0100
0010
0100
1000
0001
1000
0001
0100
0001
0000
0000
0100
0010
0000
0100
0000
,
0001
0000
1000
0000
0001
0000
1000
0000
0001
0000
1000
0000
0001
0000
1000
0000
0001
0000
1000
0000
0001
0000
1000
0000
0001
0000
0000
0000
0000
0000
1000
0000
0000
0000
0000
0000
0001
0000
0000
0000
0000
0000
1000
0000
0000
0001
0000
0000
,
0010
0100
1000
0010
0100
0001
0010
0100
,
1000
0000
0001
0000
0200
0000
0000
0000
0320
0000
0000
0000
1030
0000
0001
1000
,
0100
1000
0010
0100
0001
1000
0100
0010
,
0001
0000
0100
0000
0020
0000
0000
0000
2030
0000
0000
0000
3001
0000
0010
0100
,
4000
3010
0100
0001
1000
0100
0001
0100
,
1000
0010
0200
0000
0302
0000
1003
0100
,
1000
0010
0100
0001
0100
0010
1000
0001
,
0010
0000
0000
0100
1000
0000
0001
0000
0200
0000
0000
0000
0310
0000
1000
0001
,
1000
0001
0010
0100
1000
0010
0100
0001
,
1000
0010
0100
0001
2000
0000
3001
0010
,
0100
1000
0010
0100
0001
1000
0100
0001
,
0100
0000
1000
0000
0010
0000
0100
0000
0001
0100
0001
0100
0010
1000
0010
1000
,
0100
0010
0001
1000
0100
0010
0001
0010
0100
0010
0001
0100
0001
1000
0100
1000
,
0100
0010
0100
0010
0001
0010
0001
0100
0001
0100
0001
1000
0001
1000
0100
0010
,
0001
1000
0100
1000
0010
1000
0010
0100
0001
0000
0000
0100
0010
0000
1000
0000
,
0100
0000
1000
0000
0100
0000
1000
0000
0100
0000
1000
0000
0100
0000
1000
0000
0100
0000
1000
0000
0100
0000
1000
0000
0200
0000
0000
0000
0000
0000
0000
0000
0000
0000
0000
0000
0300
0000
0000
0000
0000
0000
1000
0000
0000
0001
0000
0000
,
1000
0000
0000
0000
0002
0000
0003
0000
0200
0000
0300
0000
0000
0000
0010
1000
,
0010
0000
0000
0000
2000
0000
3000
0000
0002
0000
0003
0000
0000
0000
0010
0100
,
0010
0000
0000
0000
0200
0000
0300
0000
2000
0000
3000
0000
0000
0000
0010
1000
,
0010
0000
0000
0000
0100
0001
0100
0010
2000
0000
3000
0000
0000
0000
0010
1000
,
0010
0000
0000
0000
0200
0000
0300
0000
0002
0000
0003
0000
0000
0000
1000
0001
,
1000
0000
0000
0000
0020
0000
0230
0000
0302
0000
0003
0000
0010
0100
1000
0010
,
0100
0000
0000
0000
0002
0000
1003
0100
1000
0000
0000
0000
0001
0100
0001
1000
,
0100
1000
0010
0000
0100
0000
0001
0000
1001
0000
0000
0000
1000
0100
0010
0001
,
0100
0000
0010
0100
0010
0000
0100
0001
1000
0000
0000
0000
0100
1000
0010
0100
,
0001
0000
0100
0001
1000
0100
1000
0010
0100
0000
0000
0000
0001
0000
1000
0100
,
1000
0000
0100
0010
0100
0000
0010
0001
0010
0000
0001
0000
0100
0000
0010
1000
,
0020
0030
2000
3000
0200
0300
2000
3000
0001
0000
0000
0000
0010
0100
1000
0100
,
1000
0000
0010
1000
0010
0000
0100
0001
0100
0000
0001
0000
1000
0100
1000
0010
,
0100
0000
0001
0000
0010
0100
0010
0100
0010
0000
0100
0000
1000
0001
1000
0001
,
0010
0000
0100
1000
0100
0000
1000
0000
0010
0000
0000
0000
0100
0000
0000
0000
,
0001
0000
0000
0000
1000
0000
0010
0000
0100
0000
0001
0000
1000
0001
1000
0001
,
0010
0000
0100
0000
1000
0100
0010
0001
0100
0000
0010
0000
0100
0001
1000
0100
,
1000
0000
0010
0000
0100
0001
0010
0100
1000
0000
0010
0000
0100
0001
1000
0100
,
1000
0000
0010
0000
0100
0001
0010
0100
1000
0000
0001
0000
0010
0100
1000
0100
,
1000
0000
0001
0000
0100
0001
0100
0001
0100
0000
0010
0000
1000
0100
1000
0100
,
1000
0000
0100
0000
0010
0001
0010
0100
1000
0000
0100
0000
1000
0001
1000
0001
,
1000
0000
0001
0000
0100
0010
1000
0100
1000
0000
0001
0000
0010
0100
0010
0100
,
1000
0000
0100
0000
1000
0001
1000
0001
1000
0000
0001
0000
0100
0010
1000
0001
,
0100
0000
0001
0000
0010
0100
1000
0010
1000
0001
1000
0001
0010
0100
1000
0100
,
0010
0001
0100
0010
0100
0001
1000
0100
0010
0001
1000
0100
1000
0010
0100
0001
,
0100
0000
0000
0001
0000
0000
0100
0000
0001
0000
0100
0000
0001
0000
0000
1000
0000
0000
0100
0000
1000
0000
0100
0000
1000
0000
0000
0100
0000
0000
0010
0000
0000
0001
0000
0000
0010
0000
0000
0100
0000
0000
1000
0000
0000
0010
0000
0000
,
0100
0001
1000
0100
0010
0100
1000
0010
0100
0001
1000
0001
0010
0100
1000
0010
,
1000
0001
1000
0001
1000
0001
1000
0000
0000
0000
0000
0000
0001
0100
0001
0100
0001
0100
0001
0100
0001
1000
0001
1000
,
0001
1000
0001
1000
0001
1000
0001
1000
0001
1000
0001
1000
0004
4000
0000
0000
0000
0000
0000
0000
0000
0000
0000
0000
,
0000
0000
0000
0000
0000
3003
1001
0000
0000
0000
0000
0000
,
1001
0000
0000
0000
0000
0000
0000
0000
0100
0001
0100
0001
0010
0100
1000
0010
,
0200
0300
0020
0030
2000
3000
0002
0003
1000
0001
1000
0001
1000
0100
0010
0001
,
0010
0100
1000
0010
0100
0010
0100
0001
0100
0001
0010
0001
0010
0100
0010
0100
,
1000
0100
1000
0001
1000
0001
0010
0100
1000
0001
0010
0100
1000
0010
1000
0001
,
0100
0010
1000
0001
0100
0010
1000
0100
0010
0001
0100
0001
1000
0001
1000
0100
,
1000
0100
1000
0001
1000
0001
0100
0001
0100
0010
0100
0010
1000
0100
0010
0001
,
0010
0100
1000
0100
1000
0001
0010
0001
0010
0100
1000
0100
1000
0001
1000
0001
,
0100
0001
0100
0010
0100
0010
1000
0001
0100
0010
0100
0001
1000
0100
0010
0001
,
0010
0001
0100
0001
0100
0001
1000
0001
0010
0100
1000
0000
0010
0000
0100
0000
,
0001
0100
0001
0000
0100
0010
0100
0010
1000
0010
1000
0010
1000
0001
1000
0001
,
1000
0100
0010
0001
1000
0100
0010
0001
0100
0010
1000
0001
1000
0010
0100
0001
,
0010
0100
0010
0100
1000
0100
1000
0010
0100
0001
0010
0100
1000
0001
0010
0100
,
0010
0001
0100
0010
0100
0001
1000
0001
1000
0100
0010
0100
1000
0010
0100
0001
,
1000
0001
1000
0100
0010
0001
0010
0100
1000
0010
0100
0001
0010
0100
1000
0010
,
0100
0001
1000
0001
1000
0100
1000
0100
0010
0100
0010
0001
0010
0001
0100
0001
,
0100
0010
0100
0001
1000
0100
0010
0001
0100
0010
1000
0100
0010
0100
1000
0001
,
0100
0010
0100
0001
1000
0100
0010
0100
1000
0100
1000
0000
0010
0000
0100
0000
,
0002
0003
2000
3000
0020
0030
0000
0000
0100
0000
0001
0000
0010
0000
0100
0000
,
1000
0000
0010
0000
0100
0000
0000
0000
0001
0100
0001
1000
0100
1000
0001
0100
,
0001
0000
0100
0000
0010
0000
0000
0000
1000
0001
1000
0001
1000
0010
0100
0001
,
0100
0001
0010
0000
0220
0330
2200
3300
,
2002
0000
3003
0000
0202
0000
0303
0000
0100
0001
0010
0100
1000
0100
1000
0001
,
1000
0000
0001
0000
0100
0000
0000
0000
0010
1000
0010
0100
0001
0100
0001
0010
,
0100
0000
1000
0000
0010
0000
0000
0000
0100
0001
0100
0001
1000
0001
1000
0100
,
1000
0000
0100
0000
0010
0000
0000
0000
0001
0010
0001
0000
0100
0000
0100
0000
,
0000
0000
0001
1000
0000
1000
0000
1000
0010
1000
0010
0100
0001
0010
0100
1000
,
0100
1000
0001
0100
0001
0000
0000
0000
1000
0001
1000
0001
0010
0100
1000
0010
,
0100
0001
1000
0001
1000
0000
0000
0000
0001
0100
0001
0100
0010
1000
0010
1000
,
0100
0010
0001
0010
0100
0000
0000
0000
2200
0000
3300
0000
2020
0000
3030
0000
,
0220
0000
0330
0000
0202
0000
0303
0000
0001
0100
0001
0100
0001
0000
1000
0001
,
1000
0000
0100
0000
1000
0100
1000
0000
0001
1000
0001
1000
0001
0000
0100
0001
,
0100
0000
0001
0000
0010
0100
0010
0000
0100
1000
0100
0000
1000
0001
1000
0000
,
0001
0100
0001
1000
0100
1000
0001
1000
0002
0000
0000
0000
0000
0000
0000
0003
;
