#TITLE:SigSig;
#SUBTITLE:;
#ARTIST:kors k;
#TITLETRANSLIT:;
#SUBTITLETRANSLIT:;
#ARTISTTRANSLIT:;
#CREDIT:;
#BANNER:SigSig-bn.png;
#BACKGROUND:SigSig-bg.png;
#LYRICSPATH:;
#CDTITLE:!Dan23!.png;
#MUSIC:SigSig.mp3;
#OFFSET:-0.140;
#SAMPLESTART:86.400;
#SAMPLELENGTH:11.980;
#SELECTABLE:YES;
#BPMS:0.000=179.000;
#STOPS:;
#BGCHANGES:;
// cache tags:
#FIRSTBEAT:32.000;
#LASTBEAT:358.000;
#SONGFILENAME:Songs/Fabulously Fresh Flock of Fantastic Files F5/(Dan23) SigSig/SigSig.sm;
#HASMUSIC:1;
#HASBANNER:1;
#MUSICLENGTH:121.547;
// end cache tags

//---------------dance-single - ----------------
#NOTES:
     dance-single:
     :
     Hard:
     12:
     1.000,1.000,1.000,0.189,0.646,754.000,249.000,23.000,0.000,0.000:
0000
0000
0000
0000
,
0000
0000
0000
0000
,
0000
0000
0000
0000
,
0000
0000
0000
0000
,
0000
0000
0000
0000
,
0000
0000
0000
0000
,
0000
0000
0000
0000
,
0000
0000
0000
0000
,
1001
0000
0100
0000
0110
0000
0001
0100
0010
0100
0001
0000
1001
0000
0100
0010
,
1000
0100
1000
0000
1001
0000
0001
0100
0010
1000
0010
0000
0101
0000
1001
0000
,
1001
0000
0100
0000
0101
0000
1000
0100
0010
0100
1000
0000
1100
0000
0101
0000
,
0101
0000
0010
0000
1010
0000
0001
1000
0001
1000
0010
0100
0001
0010
0001
1000
,
1001
0000
0010
0000
1010
0000
0001
0010
0100
1000
0001
0000
1001
0000
0110
0000
,
0110
0000
0110
0000
1001
0000
1000
0010
0100
0001
0010
0100
1000
0001
1001
0000
,
1001
0000
0010
0100
0010
0100
1001
0000
1001
0000
0010
0100
0010
0100
1001
0000
,
1001
1100
1100
0011
0011
1001
1001
0110
,
0010
0000
0000
0100
0000
0000
0010
0000
0000
0100
0000
0000
0020
0000
0000
0000
0000
0000
0000
0000
0000
0000
0000
0000
0000
0000
0000
0000
0000
0000
0030
0000
0000
0000
0000
0000
1000
0000
0100
0000
0010
0000
0001
0000
0100
0000
0010
0000
,
1000
0001
1010
0001
1100
0101
1001
0100
,
1001
0000
0001
0000
1010
0000
1010
0000
0011
0000
0011
0000
1000
0100
1000
0100
,
0010
0001
0101
1000
1100
0101
1001
0010
,
1001
0000
0010
0000
0110
0000
0110
0000
0110
0000
0110
0000
0010
0100
0010
0100
,
1001
0001
1100
0010
0101
1000
1001
0010
,
1001
0000
0100
0000
0101
0000
0101
0000
1100
0000
1100
0000
0001
0100
0001
0100
,
0010
1000
1100
0001
0101
1100
1001
0100
,
0001
0100
0010
0100
0001
0010
0100
1000
0010
0100
0001
1000
0100
1000
0010
0100
,
1001
0000
0100
0020
0030
0100
0020
0030
0101
0000
0101
0000
1010
0000
1010
0000
,
1001
0000
0110
0000
0001
0100
0010
0000
1000
0100
0010
0000
0001
0100
0010
1000
,
0101
0000
1000
0002
0003
1000
0002
0003
1010
0000
1010
0000
0011
0000
0011
0000
,
1001
0000
0001
0000
1100
0010
0100
0001
2000
3010
0100
0001
0020
0130
1000
0001
,
1100
0000
0010
0200
0300
0010
0200
0300
1010
0000
1010
0000
0101
0000
0101
0000
,
1001
0000
0001
0000
1000
0100
0010
0000
0001
0100
0010
0000
0100
0010
1000
0001
,
0110
0000
1000
0020
0030
1000
0020
0030
1001
0000
1001
0000
0110
0000
0110
0000
,
1001
0100
0010
1000
0001
0010
0100
1000
0010
0100
0001
1000
0100
1000
0001
0100
,
1010
0000
0001
0200
0300
0001
0200
0300
1001
0000
0100
0010
1000
0000
0001
0000
,
1100
0000
0010
0100
1001
0000
0100
0000
0101
0000
1000
0000
1100
0000
0001
0000
,
1001
0000
0001
2000
3000
0001
2000
3000
1100
0000
0101
0000
1001
0000
0100
0010
,
0100
0000
0001
0000
1001
0000
0100
0000
0110
0000
0001
0000
1100
0000
0001
0100
,
1001
0000
0100
2000
3000
0100
2000
3000
0101
0000
0101
0000
1010
0000
1010
0000
,
1001
0000
0110
0000
1001
0000
1000
0000
1100
0000
0001
0000
0101
0000
1000
0010
,
1001
0100
0010
1000
0100
0010
0001
0010
0100
1000
0100
1000
0001
0100
0010
0100
,
1001
0010
0100
0001
0010
0100
1000
0010
1001
0100
0010
1000
0001
0010
0100
1000
,
1001
0000
0100
0010
0110
0000
1001
0000
,
0011
0100
1100
0001
1001
0000
1000
0100
,
1100
0000
0001
0100
0101
0000
1001
0000
,
0110
0100
1100
0001
0101
0000
1000
0101
,
1001
0000
0001
1000
1001
0000
1100
0000
,
0101
0001
1001
1000
1010
0000
1001
0000
,
0110
0000
0000
0000
0010
0000
0100
0000
0001
0000
0100
0010
1000
0000
0001
0000
,
1001
0000
0110
0000
2002
0000
0000
3003
,
1100
0001
0000
0001
0000
0001
0000
1100
,
0000
0101
0000
1001
0000
1010
0000
1010
,
0101
0000
1001
0100
0110
0000
1001
0000
,
0110
0000
0001
0100
0001
0000
0001
0100
0001
0000
0020
0000
0000
0030
1001
0000
,
0110
0000
0101
0010
1001
1001
0000
1100
,
1010
0000
0101
0000
1001
0000
1000
0101
,
1001
0000
0100
0110
1001
0000
0100
1001
,
1001
0000
0110
0000
0110
0000
1001
0000
0001
1000
0001
1000
0010
0100
0010
0100
,
0020
0000
0000
0030
1010
0000
0001
0100
0010
0000
1000
0000
1100
0000
0001
0000
,
0101
0000
1000
0000
1001
0000
0010
0000
0110
0000
0100
0000
0001
0100
0001
0100
,
1010
0000
0001
0000
1100
0000
0010
0100
0010
0000
0001
0000
1001
0000
0100
0000
,
0110
0000
0001
0000
1001
0000
1000
0000
0001
0010
0100
1000
0010
1000
0010
0100
,
1001
0000
0001
0000
0101
0000
0100
0010
1000
0000
0001
0000
1100
0000
0010
0000
,
1001
0100
0110
0001
1010
0001
1001
1000
,
1100
0000
0001
0000
1001
0000
0001
0100
0001
0000
1000
0100
1000
0000
0010
0000
,
1001
0100
0010
1000
0100
0010
0001
0100
0010
1000
0100
0010
0001
0010
0100
1000
,
0101
0101
1100
1100
0011
0011
1010
1010
,
1001
1001
1010
1010
0101
0101
0110
0110
,
1100
1100
1001
1001
0011
0011
1001
1001
,
1100
0000
1100
0000
1010
0000
1010
0000
0011
0000
0011
0000
1000
0010
0100
0001
,
1001
0000
0001
0100
0110
1010
0000
1010
,
1001
0001
1100
1000
1001
0000
1001
0100
,
1001
0000
0000
0000
1010
0000
0001
0000
0101
0000
1000
0001
1000
0000
0010
0100
,
1001
0100
0010
1000
0001
0010
0100
1000
0010
0100
0001
0010
0001
0100
0001
1000
,
0110
0100
0001
1000
1001
0100
0010
1000
,
1100
0001
1000
0001
0110
1000
0001
0100
,
0101
1000
0010
0100
0011
0001
0010
0100
,
1100
0010
0100
0001
1100
0010
0110
0001
,
1001
0000
0001
0100
0010
0000
1000
0000
1100
0000
0001
0000
0101
0000
0001
0000
,
1001
0000
0100
0010
1000
0000
0001
0000
0101
0000
1000
0000
1100
0000
0001
0000
,
1100
0000
0010
0100
0001
0000
1000
0000
1001
0000
0010
0000
1001
0000
0100
0000
,
0010
0100
0010
0100
0010
1000
0001
0010
0100
1000
0001
0100
0001
1000
0100
1000
,
0001
0010
0100
1000
0001
0010
0100
1000
,
0010
0010
0100
0100
0001
0001
1000
1000
,
0010
0100
0001
1000
0100
0010
0001
0100
,
0010
0001
0010
0100
1000
1000
0001
0001
,
1000
0010
0100
0001
1000
0010
0100
0001
,
0100
0100
0010
0010
1000
1000
0001
0001
,
1000
0100
0010
0001
1000
0010
0100
0001
,
1000
0100
1000
0100
0010
0001
0100
0010
0100
0001
0010
0100
1000
0001
0100
0010
,
2002
0000
3003
0000
;
